osu file format v14

[General]
AudioFilename: audio.mp3
AudioLeadIn: 2000
PreviewTime: 166930
Countdown: 0
SampleSet: Soft
StackLeniency: 0.7
Mode: 0
LetterboxInBreaks: 0
WidescreenStoryboard: 1

[Editor]
Bookmarks: 36761,53032,69303,85574,93710,101846,117990,134388,150659
DistanceSpacing: 1.5
BeatDivisor: 4
GridSize: 8
TimelineZoom: 1.3

[Metadata]
Title:Worship
TitleUnicode:Worship
Artist:Years & Years
ArtistUnicode:Years & Years
Creator:vivicat
Version:Puvn's Insane
Source:
Tags:english pop Communion (Deluxe) Electronica Olly Alexander Mikey Goldsworthy Emre Turkmen Beren Yusomi ruchuers Puvn
BeatmapID:2858862
BeatmapSetID:1352008

[Difficulty]
HPDrainRate:5
CircleSize:3
OverallDifficulty:7.5
ApproachRate:9
SliderMultiplier:2.2
SliderTickRate:1

[Events]
//Background and Video events
0,0,"bg.jpg",0,0
//Break Periods
2,151113,154052
//Storyboard Layer 0 (Background)
//Storyboard Layer 1 (Fail)
//Storyboard Layer 2 (Pass)
//Storyboard Layer 3 (Foreground)
//Storyboard Layer 4 (Overlay)
//Storyboard Sound Samples

[TimingPoints]
151,508.474576271186,4,2,0,30,1,0
3710,-100,4,2,0,50,0,0
4218,-100,4,2,0,70,0,0
16421,-100,4,2,0,80,0,0
19472,-83.3333333333333,4,2,0,80,0,0
20489,-100,4,2,0,80,0,0
35743,-83.3333333333333,4,2,0,80,0,0
36760,-125,4,2,1,70,0,0
44895,-125,4,1,0,80,0,0
50997,-125,4,3,1,60,0,0
52522,-125,4,3,0,60,0,0
52904,-125,4,3,0,60,0,0
53032,-83.3333333333333,4,2,2,100,0,1
69303,-83.3333333333333,4,3,0,90,0,0
84556,-100,4,3,0,90,0,0
85065,-125,4,2,0,80,0,0
85573,-100,4,2,0,80,0,0
93709,-100,4,2,0,80,0,0
100828,-66.6666666666667,4,2,0,80,0,0
101845,-125,4,2,0,80,0,0
109980,-125,4,2,0,80,0,0
116082,-125,4,3,1,60,0,0
117607,-125,4,3,1,60,0,0
117989,-125,4,3,1,60,0,0
118117,-83.3333333333333,4,2,2,100,0,1
134388,-100,4,2,0,90,0,0
150404,-100,4,2,1,80,0,0
150791,-100,4,2,1,70,0,0
150912,-125,4,2,1,70,0,0
154726,-125,4,2,1,75,0,0
158794,-125,4,2,1,80,0,0
162862,-125,4,2,1,85,0,0
166802,-125,4,2,1,85,0,0
166930,-83.3333333333333,4,2,2,100,0,1
199473,-100,4,2,0,90,0,0
215616,-100,4,2,0,5,0,0
217777,-100,4,2,0,5,0,0

[Colours]
Combo1 : 235,210,220
Combo2 : 120,142,177
Combo3 : 35,79,158
Combo4 : 146,180,198

[HitObjects]
77,203,4218,6,0,L|131:194,1,55,4|0,3:2|3:0,0:0:0:0:
166,101,4473,2,0,L|220:92,1,55,0|0,3:0|3:0,0:0:0:0:
126,10,4727,1,8,3:2:0:0:
77,203,4981,1,0,3:0:0:0:
131,193,5489,1,0,3:2:0:0:
6,372,5744,2,0,L|60:363,1,55,10|0,0:2|0:0,0:0:0:0:
134,297,5998,1,0,3:3:0:0:
309,365,6252,6,0,L|363:356,1,55,0|0,3:0|3:0,0:0:0:0:
476,245,6506,2,0,L|422:254,1,55,0|0,3:0|3:0,0:0:0:0:
325,267,6761,1,8,3:2:0:0:
508,331,7015,1,0,3:0:0:0:
461,337,7523,1,0,3:2:0:0:
346,169,7778,2,0,L|400:159,1,55,10|0,0:2|0:0,0:0:0:0:
497,144,8032,1,0,3:0:0:0:
325,267,8286,6,0,L|271:276,1,55,0|0,3:0|3:0,0:0:0:0:
201,205,8540,2,0,L|147:214,1,55,0|0,3:0|3:0,0:0:0:0:
258,123,8795,1,8,3:2:0:0:
182,304,9049,1,0,3:0:0:0:
237,295,9557,1,0,3:2:0:0:
161,113,9812,6,0,L|107:117,1,55,10|0,0:2|0:0,0:0:0:0:
218,30,10066,2,0,P|321:-1|425:31,2,220,0|0|2,3:2|3:0|3:2,0:0:0:0:
165,224,11591,1,2,3:2:0:0:
0,81,12100,5,2,3:2:0:0:
161,113,12354,2,0,L|215:117,1,55,0|0,3:0|3:0,0:0:0:0:
165,224,12608,1,0,3:0:0:0:
78,45,12862,2,0,L|24:41,1,55,8|0,3:2|0:0,0:0:0:0:
72,162,13117,2,0,B|78:235|21:266|21:266|28:318|83:330,1,220,0|0,3:0|3:2,0:0:0:0:
275,360,13879,5,10,3:2:0:0:
420,295,14134,2,0,P|472:308|507:349,1,110,0|0,3:2|3:0,0:0:0:0:
475,164,14642,2,0,L|480:109,1,55,0|0,3:0|3:0,0:0:0:0:
451,14,14896,1,8,3:2:0:0:
330,185,15150,6,0,P|405:220|417:299,1,165,2|0,3:2|0:0,0:0:0:0:
325,279,15659,1,2,3:2:0:0:
295,97,15913,2,0,P|234:153|246:232,1,165,10|0,3:2|0:0,0:0:0:0:
330,185,16422,5,4,3:2:0:0:
262,4,16676,1,2,0:3:0:0:
295,97,16803,1,0,3:2:0:0:
455,121,17057,1,0,0:0:0:0:
420,33,17184,1,2,3:3:0:0:
429,221,17439,2,0,P|449:283|450:332,2,110,0|2|8,3:2|3:3|3:2,0:0:0:0:
295,97,18201,1,2,0:3:0:0:
116,115,18456,5,0,3:2:0:0:
288,195,18710,1,2,0:3:0:0:
295,97,18837,1,0,3:2:0:0:
141,69,19091,1,0,0:0:0:0:
134,167,19218,1,2,3:3:0:0:
195,332,19473,6,0,P|227:326|256:311,1,65.9999979858399,2|0,1:2|0:0,0:0:0:0:
380,320,19727,2,0,P|374:352|359:381,1,65.9999979858399,0|0,1:3|0:0,0:0:0:0:
329,213,19981,1,2,1:2:0:0:
507,303,20235,1,0,3:3:0:0:
504,178,20489,6,0,L|498:109,1,55,4|0,3:2|3:0,0:0:0:0:
401,132,20744,2,0,L|397:78,1,55,0|0,3:0|3:0,0:0:0:0:
329,213,20998,1,8,3:2:0:0:
120,155,21252,1,0,3:0:0:0:
120,155,21379,1,0,0:0:0:0:
120,155,21506,1,2,0:0:0:0:
295,97,21761,1,0,3:2:0:0:
120,155,22015,2,0,L|116:209,1,55,10|0,0:2|0:0,0:0:0:0:
108,308,22269,1,0,3:0:0:0:
292,318,22523,6,0,L|296:264,1,55,0|0,3:0|3:0,0:0:0:0:
428,243,22778,2,0,L|424:297,1,55,0|0,3:0|3:0,0:0:0:0:
371,381,23032,1,8,3:2:0:0:
355,183,23286,1,0,3:0:0:0:
355,183,23413,1,0,0:0:0:0:
355,183,23540,1,2,0:0:0:0:
292,318,23795,1,0,3:2:0:0:
471,274,24049,2,0,L|475:220,1,55,10|0,0:2|0:0,0:0:0:0:
483,121,24303,1,0,3:0:0:0:
321,29,24557,6,0,L|317:83,1,55,0|0,3:0|3:0,0:0:0:0:
244,151,24812,2,0,L|240:205,1,55,0|0,3:0|3:0,0:0:0:0:
147,127,25066,1,8,3:2:0:0:
321,29,25320,1,0,3:0:0:0:
321,29,25447,1,0,0:0:0:0:
321,29,25574,1,2,0:0:0:0:
356,186,25828,1,0,3:2:0:0:
162,297,26083,6,0,L|158:351,1,55,10|0,0:0|0:0,0:0:0:0:
72,247,26337,2,0,P|6:169|62:71,2,220,0|0|2,3:0|3:0|3:2,0:0:0:0:
278,292,27862,1,2,3:2:0:0:
476,129,28371,5,0,3:2:0:0:
449,299,28625,2,0,L|441:353,1,55,0|0,3:0|3:0,0:0:0:0:
368,225,28879,2,0,L|375:170,1,55,0|0,3:0|3:0,0:0:0:0:
278,292,29134,1,8,3:2:0:0:
168,138,29388,2,0,B|179:48|273:13|273:13|292:66,1,220,0|2,3:0|3:2,0:0:0:0:
342,212,30150,1,8,0:2:0:0:
446,335,30405,6,0,P|344:363|276:282,2,220,2|0|2,3:2|3:0|3:2,0:0:0:0:
371,26,31930,1,2,3:2:0:0:
228,108,32184,2,0,L|220:162,1,55,10|0,3:2|0:0,0:0:0:0:
203,259,32439,1,0,3:2:0:0:
24,344,32693,5,4,3:2:0:0:
203,259,32947,1,2,0:3:0:0:
185,356,33074,1,0,3:2:0:0:
24,344,33328,1,0,0:0:0:0:
45,246,33456,1,2,3:3:0:0:
130,87,33710,2,0,P|80:66|25:67,2,110,0|2|8,3:2|3:3|3:2,0:0:0:0:
322,40,34473,1,2,0:3:0:0:
428,207,34727,5,0,3:2:0:0:
322,40,34981,1,2,0:3:0:0:
372,122,35108,1,0,3:2:0:0:
282,244,35362,1,0,0:0:0:0:
232,162,35489,1,2,3:3:0:0:
427,206,35744,6,0,P|432:238|426:271,1,65.9999979858399,2|0,1:2|0:0,0:0:0:0:
300,305,35998,2,0,P|297:272|281:243,1,65.9999979858399,2|0,1:3|0:0,0:0:0:0:
170,336,36252,1,10,1:2:0:0:
363,384,36506,1,0,3:3:0:0:
354,166,36761,6,0,P|292:143|229:162,1,132,6|0,0:0|0:0,0:0:0:0:
201,188,37269,1,10,0:0:0:0:
111,67,37523,2,0,P|192:36|275:59,1,176,2|2,0:0|0:0,0:0:0:0:
201,188,38286,1,10,0:0:0:0:
34,147,38540,5,2,0:0:0:0:
161,296,38795,2,0,P|227:297|286:267,1,132,2|0,0:0|0:0,0:0:0:0:
391,320,39303,2,0,P|453:329|476:274,1,132,10|0,0:0|0:0,0:0:0:0:
480,168,39812,5,2,0:0:0:0:
328,194,40066,1,0,0:0:0:0:
391,320,40320,1,10,0:0:0:0:
480,168,40574,2,0,B|492:39|363:7|363:7|305:138|236:18|174:151|174:151|115:92|46:135,1,616,0|10,0:0|0:0,0:0:0:0:
214,274,42862,6,0,P|247:301|293:312,1,88,2|0,0:0|0:0,0:0:0:0:
95,336,43371,2,0,P|52:337|12:320,1,88,10|0,0:0|0:0,0:0:0:0:
100,157,43879,2,0,P|143:156|183:173,1,88,2|0,0:0|0:0,0:0:0:0:
315,269,44388,2,0,P|358:262|400:274,1,88,10|0,0:0|0:0,0:0:0:0:
298,142,44896,6,0,P|236:132|184:171,1,132,0|0,1:0|1:0,0:0:0:0:
173,210,45405,1,8,3:2:0:0:
315,269,45659,2,0,B|388:264|423:191|423:191|457:204,1,176,0|0,0:0|0:0,0:0:0:0:
298,142,46422,1,8,2:0:0:0:
273,294,46676,5,0,2:3:0:0:
129,356,46930,2,0,P|66:343|26:293,1,88,0|0,0:0|2:0,0:0:0:0:
134,239,47439,2,0,P|165:210|177:168,1,88,8|0,3:2|0:0,0:0:0:0:
19,130,47947,5,0,2:0:0:0:
134,239,48201,1,0,0:0:0:0:
203,96,48456,1,8,3:2:0:0:
358,65,48710,2,0,B|457:53|494:146|494:146|443:217|352:211|352:211|328:261|332:313|354:347|354:347|333:313|279:299|230:323,1,616,0|8,2:3|3:2,0:0:0:0:
261,127,50744,1,0,2:3:0:0:
256,192,50998,12,0,52905,2:0:0:0:
389,210,53032,6,0,P|389:275|430:325,1,131.99999597168,4|2,1:0|2:3,0:0:0:0:
469,337,53413,1,0,1:0:0:0:
310,295,53540,2,0,P|244:291|187:322,1,131.99999597168,10|0,0:2|1:3,0:0:0:0:
401,82,54049,2,0,P|414:20|475:2,1,131.99999597168,2|2,0:2|1:3,0:0:0:0:
487,243,54557,1,10,0:2:0:0:
205,124,54812,2,0,P|172:117|139:113,1,65.9999979858399,0|0,1:3|0:0,0:0:0:0:
286,39,55066,6,0,P|350:40|400:81,1,131.99999597168,0|2,1:0|0:3,0:0:0:0:
413,121,55447,1,0,1:0:0:0:
291,213,55574,2,0,P|227:174|204:116,1,131.99999597168,10|0,0:2|1:3,0:0:0:0:
43,368,56083,2,0,P|4:319|34:264,1,131.99999597168,2|0,0:2|1:3,0:0:0:0:
299,358,56591,1,10,1:2:0:0:
512,182,56845,2,0,P|498:151|477:127,1,65.9999979858399,0|0,1:3|0:0,0:0:0:0:
383,240,57100,6,0,P|340:188|277:177,1,131.99999597168,0|2,1:0|0:3,0:0:0:0:
238,188,57481,1,0,1:0:0:0:
199,340,57608,2,0,P|263:346|323:319,1,131.99999597168,10|0,0:2|1:3,0:0:0:0:
272,77,58117,2,0,L|206:83,1,65.9999979858399,2|0,0:2|0:0,0:0:0:0:
404,109,58371,1,2,1:2:0:0:
423,336,58625,1,8,1:2:0:0:
171,263,58879,2,0,P|146:321|164:384,1,131.99999597168,2|0,1:2|1:0,0:0:0:0:
39,107,59388,2,0,P|17:47|59:0,1,131.99999597168,2|8,0:2|0:2,0:0:0:0:
257,143,59896,6,0,P|273:171|281:203,1,65.9999979858399,2|0,1:2|0:0,0:0:0:0:
150,257,60150,2,0,P|133:285|125:317,1,65.9999979858399,2|2,3:2|3:2,0:0:0:0:
274,364,60405,1,0,1:0:0:0:
512,338,60659,1,10,3:2:0:0:
512,338,60786,1,2,3:2:0:0:
512,338,60913,2,0,P|481:353|445:360,1,65.9999979858399,0|0,1:0|0:0,0:0:0:0:
383,233,61167,6,0,P|447:236|504:204,1,131.99999597168,4|2,1:0|0:3,0:0:0:0:
505,164,61549,1,0,1:0:0:0:
350,119,61676,2,0,P|294:153|264:221,1,131.99999597168,10|0,0:2|1:3,0:0:0:0:
0,316,62184,2,0,P|45:359|115:348,1,131.99999597168,2|0,0:2|1:3,0:0:0:0:
90,83,62693,1,10,1:2:0:0:
323,38,62947,2,0,L|389:35,1,65.9999979858399,0|0,1:3|0:0,0:0:0:0:
200,30,63201,1,0,1:0:0:0:
123,270,63456,6,0,P|118:237|120:204,1,65.9999979858399,2|0,0:3|1:0,0:0:0:0:
270,168,63710,2,0,P|260:231|281:300,1,131.99999597168,10|0,0:2|1:3,0:0:0:0:
511,384,64218,2,0,P|450:361|440:299,1,131.99999597168,2|0,0:2|1:3,0:0:0:0:
495,40,64727,1,10,1:2:0:0:
270,168,64981,2,0,L|201:170,1,65.9999979858399,0|0,1:3|0:0,0:0:0:0:
388,200,65235,5,0,1:0:0:0:
171,47,65489,1,2,0:3:0:0:
80,88,65617,1,0,1:0:0:0:
162,145,65744,1,10,0:2:0:0:
395,45,65998,1,0,1:3:0:0:
355,305,66252,2,0,P|325:289|305:265,1,65.9999979858399,2|0,0:2|0:0,0:0:0:0:
145,286,66506,2,0,P|113:230|136:170,1,131.99999597168,0|8,1:3|0:1,0:0:0:0:
430,107,67015,2,0,L|453:26,1,65.9999979858399,0|0,1:3|0:0,0:0:0:0:
466,231,67269,5,2,1:2:0:0:
247,70,67523,1,2,0:3:0:0:
345,59,67650,1,0,1:0:0:0:
430,107,67778,1,10,0:2:0:0:
436,355,68032,1,0,1:0:0:0:
154,342,68286,2,0,L|77:333,1,65.9999979858399,2|0,0:2|0:0,0:0:0:0:
1,185,68540,2,0,L|87:173,1,65.9999979858399,0|0,1:3|0:0,0:0:0:0:
224,106,68795,2,0,P|177:61|114:67,1,131.99999597168,10|0,1:2|1:0,0:0:0:0:
177,222,69176,1,0,0:0:0:0:
273,244,69303,6,0,P|337:207|270:211,1,197.99999395752,4|0,1:0|1:0,0:0:0:0:
200,316,69812,1,8,0:2:0:0:
432,168,70066,2,0,P|371:93|275:87,1,197.99999395752,0|0,1:0|0:0,0:0:0:0:
321,196,70574,1,0,1:3:0:0:
453,52,70828,1,8,1:2:0:0:
273,41,71083,2,0,P|241:38|209:29,1,65.9999979858399,0|0,1:0|0:0,0:0:0:0:
111,99,71337,6,0,P|39:81|114:50,1,197.99999395752,0|0,1:0|1:0,0:0:0:0:
208,137,71845,1,8,0:2:0:0:
133,353,72100,2,0,P|45:313|20:220,1,197.99999395752,0|0,1:0|0:0,0:0:0:0:
137,237,72608,1,0,1:3:0:0:
267,384,72862,1,8,1:2:0:0:
447,323,73117,2,0,L|512:318,1,65.9999979858399,0|0,1:0|0:0,0:0:0:0:
356,241,73371,6,0,P|291:272|367:274,1,197.99999395752,0|0,1:0|1:0,0:0:0:0:
436,182,73879,1,8,0:2:0:0:
248,44,74134,2,0,P|331:-1|425:40,1,197.99999395752,0|0,1:0|0:0,0:0:0:0:
334,120,74642,1,0,1:3:0:0:
235,258,74896,2,0,L|170:264,1,65.9999979858399,8|0,1:2|0:0,0:0:0:0:
339,322,75150,1,0,1:0:0:0:
500,208,75405,5,2,1:2:0:0:
339,322,75659,1,0,0:2:0:0:
442,296,75786,1,0,1:0:0:0:
500,208,75913,1,10,0:2:0:0:
334,120,76167,2,0,L|268:111,1,65.9999979858399,0|0,1:2|2:0,0:0:0:0:
419,51,76422,2,0,L|485:42,2,65.9999979858399,2|2|0,3:2|3:2|1:0,0:0:0:0:
222,19,76930,2,0,P|159:28|130:85,1,131.99999597168,10|0,3:2|1:0,0:0:0:0:
76,170,77312,1,0,0:0:0:0:
168,206,77439,6,0,P|243:226|193:168,1,197.99999395752,4|0,1:0|1:0,0:0:0:0:
89,269,77947,1,8,0:2:0:0:
218,343,78201,2,0,P|314:360|395:308,1,197.99999395752,0|0,1:0|0:0,0:0:0:0:
445,200,78710,1,0,1:3:0:0:
293,264,78964,1,8,1:2:0:0:
495,295,79218,2,0,P|498:327|497:360,1,65.9999979858399,0|0,1:0|0:0,0:0:0:0:
445,200,79473,6,0,P|394:146|403:223,1,197.99999395752,0|0,1:0|1:0,0:0:0:0:
495,295,79981,1,8,0:2:0:0:
491,77,80235,2,0,P|414:48|306:98,1,197.99999395752,0|0,1:0|0:0,0:0:0:0:
247,190,80744,1,0,1:3:0:0:
409,150,80998,1,8,1:2:0:0:
196,97,81252,2,0,P|167:112|144:138,1,65.9999979858399,0|0,1:0|0:0,0:0:0:0:
311,90,81506,6,0,P|334:17|281:67,1,197.99999395752,0|0,1:0|1:0,0:0:0:0:
247,190,82015,1,8,0:2:0:0:
486,292,82269,2,0,P|394:328|307:289,1,197.99999395752,0|0,1:0|0:0,0:0:0:0:
247,190,82778,1,0,1:3:0:0:
453,172,83032,2,0,P|489:230|478:307,1,131.99999597168,8|0,1:2|1:0,0:0:0:0:
337,112,83540,1,0,1:0:0:0:
157,264,83795,2,0,L|91:266,1,65.9999979858399,2|0,0:3|1:0,0:0:0:0:
246,349,84049,5,8,0:2:0:0:
419,294,84303,2,0,L|484:291,1,65.9999979858399,0|0,1:0|0:0,0:0:0:0:
330,209,84557,2,0,P|292:137|300:53,1,165,2|0,0:2|0:0,0:0:0:0:
170,144,85066,2,0,P|121:100|108:37,1,132,2|0,0:0|2:0,0:0:0:0:
21,152,85574,6,0,L|5:204,1,55,4|0,3:2|3:0,0:0:0:0:
102,291,85828,2,0,L|98:237,1,55,0|0,3:0|3:0,0:0:0:0:
17,342,86083,1,8,3:2:0:0:
217,296,86337,1,0,3:0:0:0:
217,296,86464,1,0,0:0:0:0:
217,296,86591,1,2,0:0:0:0:
289,142,86845,1,0,3:2:0:0:
217,296,87100,2,0,L|232:348,1,55,10|0,3:2|0:0,0:0:0:0:
317,272,87354,1,0,3:0:0:0:
485,226,87608,6,0,L|501:173,1,55,0|0,3:0|3:0,0:0:0:0:
410,134,87862,2,0,L|406:80,1,55,0|0,3:0|3:0,0:0:0:0:
499,43,88117,1,8,3:2:0:0:
306,115,88371,1,0,3:0:0:0:
306,115,88498,1,0,0:0:0:0:
306,115,88625,1,2,0:0:0:0:
162,24,88879,1,0,3:2:0:0:
90,208,89134,2,0,P|77:154|87:101,1,110,10|0,3:2|3:0,0:0:0:0:
193,157,89515,1,0,0:0:0:0:
280,190,89642,6,0,L|318:255,1,55,0|0,3:0|3:0,0:0:0:0:
191,317,89896,2,0,L|166:267,1,55,0|0,3:0|3:0,0:0:0:0:
291,319,90150,1,8,3:2:0:0:
105,372,90405,1,0,0:0:0:0:
105,372,90532,1,0,0:0:0:0:
105,372,90659,1,2,0:0:0:0:
90,208,90913,1,0,3:2:0:0:
239,98,91167,6,0,L|235:152,1,55,10|0,0:2|0:0,0:0:0:0:
319,37,91422,2,0,P|426:22|486:122,2,220,2|2|2,2:0|2:0|2:0,0:0:0:0:
319,288,92947,2,0,L|299:339,1,55,2|0,2:0|0:0,0:0:0:0:
354,194,93201,2,0,L|463:191,1,110,8|0,0:2|3:0,0:0:0:0:
332,16,93710,6,0,L|280:0,1,55,0|0,3:0|3:0,0:0:0:0:
193,97,93964,2,0,L|247:93,1,55,0|0,3:0|3:0,0:0:0:0:
142,11,94218,1,8,3:2:0:0:
86,211,94473,1,0,3:0:0:0:
86,211,94981,1,2,3:2:0:0:
244,185,95235,2,0,L|298:189,1,55,8|0,3:2|0:0,0:0:0:0:
398,196,95489,1,2,3:2:0:0:
234,312,95744,6,0,L|188:341,1,55,0|0,3:0|3:0,0:0:0:0:
79,269,95998,2,0,L|133:258,1,55,0|0,3:0|3:0,0:0:0:0:
52,365,96252,1,8,3:2:0:0:
64,161,96506,2,0,P|108:92|186:113,1,165,2|0,3:2|0:0,0:0:0:0:
244,185,97015,1,2,3:2:0:0:
187,341,97269,2,0,L|241:330,1,55,8|0,3:2|0:0,0:0:0:0:
337,306,97523,1,2,3:2:0:0:
434,180,97778,6,0,L|382:196,1,55,0|0,3:0|3:2,0:0:0:0:
295,99,98032,2,0,L|349:103,1,55,0|0,3:0|3:0,0:0:0:0:
244,185,98286,1,8,0:2:0:0:
269,3,98540,2,0,P|196:30|193:108,1,165,2|0,3:2|0:0,0:0:0:0:
244,185,99049,1,2,3:2:0:0:
71,131,99303,2,0,L|19:115,1,55,10|0,0:0|0:0,0:0:0:0:
52,21,99557,1,0,3:2:0:0:
89,228,99812,6,0,L|135:257,1,55,0|0,3:0|3:0,0:0:0:0:
244,185,100066,2,0,L|190:174,1,55,0|0,3:0|3:0,0:0:0:0:
271,281,100320,1,8,3:2:0:0:
321,89,100574,1,0,3:0:0:0:
406,285,100828,6,0,P|417:245|412:184,1,82.5000031471254,2|0,1:2|0:0,0:0:0:0:
321,89,101083,2,0,P|319:47|331:8,1,82.5000031471254,2|0,1:2|0:0,0:0:0:0:
465,70,101337,1,2,1:2:0:0:
297,172,101591,1,0,3:0:0:0:
171,46,101845,6,0,P|128:44|70:68,1,88,4|0,3:2|3:0,0:0:0:0:
17,89,102227,1,0,3:0:0:0:
17,89,102354,1,8,3:2:0:0:
129,220,102608,2,0,B|78:271|12:241|12:241|26:189,1,176,0|2,3:0|3:2,0:0:0:0:
225,179,103371,1,10,3:2:0:0:
297,310,103625,5,0,3:0:0:0:
449,218,103879,2,0,P|459:175|455:132,1,88,0|0,3:0|3:0,0:0:0:0:
512,50,104261,1,0,3:0:0:0:
512,50,104388,2,0,P|486:16|438:5,1,88,8|0,3:2|3:0,0:0:0:0:
324,107,104896,5,2,3:2:0:0:
469,212,105150,1,0,3:2:0:0:
420,44,105405,1,10,0:2:0:0:
339,199,105659,2,0,B|303:188|261:199|261:199|219:250|162:256|162:256|217:108|112:15|112:15|55:85|96:160,1,616,0|10,3:0|0:2,0:0:0:0:
309,296,107947,6,0,P|352:300|396:293,1,88,0|0,3:0|3:0,0:0:0:0:
394,179,108328,1,0,3:0:0:0:
394,179,108456,2,0,P|350:176|306:183,2,88,8|0|2,3:2|3:0|3:2,0:0:0:0:
504,287,109218,1,0,3:0:0:0:
372,381,109473,1,10,0:0:0:0:
267,259,109727,2,0,L|318:215,1,44,0|0,3:0|0:0,0:0:0:0:
118,235,109981,6,0,P|75:229|21:239,1,88,0|0,3:0|3:0,0:0:0:0:
32,236,110362,1,0,3:0:0:0:
32,236,110489,1,8,3:2:0:0:
157,337,110744,2,0,B|230:332|265:259|265:259|296:286,1,176,0|2,3:0|3:2,0:0:0:0:
172,160,111506,1,10,3:2:0:0:
203,10,111761,5,0,3:0:0:0:
372,48,112015,2,0,P|338:74|295:81,1,88,0|0,3:0|3:0,0:0:0:0:
350,186,112396,1,0,3:0:0:0:
350,186,112523,2,0,P|390:198|440:188,1,88,8|0,3:2|3:0,0:0:0:0:
372,48,113032,5,2,0:0:0:0:
350,186,113286,1,0,3:0:0:0:
198,140,113540,1,10,3:2:0:0:
57,222,113795,2,0,B|60:277|107:317|107:317|192:293|283:329|283:329|358:260|462:260|462:260|447:334|387:360,1,616,0|10,2:0|3:2,0:0:0:0:
409,142,115828,1,0,3:0:0:0:
256,192,116083,12,0,117989,2:0:0:0:
123,210,118117,6,0,P|123:275|82:325,1,131.99999597168,4|2,1:0|0:3,0:0:0:0:
43,335,118498,1,0,1:0:0:0:
208,315,118625,2,0,P|273:310|330:340,1,131.99999597168,10|0,0:2|1:3,0:0:0:0:
494,93,119134,2,0,P|472:153|412:171,1,131.99999597168,2|2,0:2|1:3,0:0:0:0:
177,57,119642,1,10,1:2:0:0:
92,292,119896,2,0,P|69:315|42:334,1,65.9999979858399,0|0,1:3|0:0,0:0:0:0:
14,191,120150,6,0,P|69:158|133:168,1,131.99999597168,0|2,1:0|0:3,0:0:0:0:
166,190,120532,1,0,1:1:0:0:
248,333,120659,2,0,P|238:267|264:207,1,131.99999597168,10|0,0:2|1:3,0:0:0:0:
420,48,121167,2,0,P|474:82|487:155,1,131.99999597168,2|2,0:2|1:3,0:0:0:0:
329,326,121676,1,10,0:2:0:0:
308,81,121930,2,0,P|324:109|332:141,1,65.9999979858399,0|0,1:3|0:0,0:0:0:0:
177,162,122184,6,0,P|144:104|84:82,1,131.99999597168,0|2,1:0|0:3,0:0:0:0:
47,84,122566,1,0,1:0:0:0:
85,238,122693,2,0,P|140:270|206:271,1,131.99999597168,10|0,0:2|1:3,0:0:0:0:
433,166,123201,2,0,L|508:217,1,65.9999979858399,2|0,0:2|0:0,0:0:0:0:
420,48,123456,1,2,1:2:0:0:
366,288,123710,1,8,1:2:0:0:
133,136,123964,2,0,P|194:115|257:133,1,131.99999597168,2|0,1:2|1:2,0:0:0:0:
53,349,124473,2,0,P|68:287|11:234,1,131.99999597168,2|8,0:3|0:2,0:0:0:0:
97,16,124981,6,0,P|66:29|40:49,1,65.9999979858399,2|0,1:2|0:0,0:0:0:0:
228,65,125235,2,0,P|255:82|287:93,1,65.9999979858399,2|2,3:2|3:2,0:0:0:0:
434,14,125489,1,0,1:0:0:0:
475,268,125744,1,10,3:2:0:0:
475,268,125871,1,2,3:2:0:0:
475,268,125998,2,0,P|489:236|497:199,1,65.9999979858399,0|0,1:0|2:0,0:0:0:0:
353,282,126252,6,0,P|379:342|434:378,1,131.99999597168,4|2,1:1|0:3,0:0:0:0:
474,380,126634,1,0,1:0:0:0:
473,217,126761,2,0,P|428:168|368:144,1,131.99999597168,10|0,0:2|1:3,0:0:0:0:
200,384,127269,2,0,P|150:343|153:279,1,131.99999597168,2|2,0:2|1:3,0:0:0:0:
180,32,127778,1,10,1:2:0:0:
217,267,128032,2,0,L|153:280,1,65.9999979858399,0|0,1:3|0:0,0:0:0:0:
353,282,128286,1,0,1:0:0:0:
492,76,128540,6,0,P|505:45|511:13,1,65.9999979858399,2|0,0:3|1:0,0:0:0:0:
357,26,128795,2,0,P|344:89|385:156,1,131.99999597168,10|0,0:2|1:3,0:0:0:0:
285,373,129303,2,0,P|248:321|183:338,1,131.99999597168,2|2,0:2|1:3,0:0:0:0:
451,264,129812,1,10,1:2:0:0:
246,98,130066,2,0,L|180:101,1,65.9999979858399,0|0,1:3|0:0,0:0:0:0:
357,26,130320,5,0,1:0:0:0:
280,254,130574,1,2,3:3:0:0:
362,309,130701,1,0,1:0:0:0:
451,264,130828,1,10,0:2:0:0:
246,98,131083,1,0,1:3:0:0:
181,355,131337,2,0,P|213:356|245:347,1,65.9999979858399,2|0,0:2|0:0,0:0:0:0:
112,243,131591,2,0,P|48:248|3:202,1,131.99999597168,0|8,1:0|1:1,0:0:0:0:
266,189,132100,2,0,L|281:262,1,65.9999979858399,0|0,1:3|0:0,0:0:0:0:
352,72,132354,5,0,1:0:0:0:
491,264,132608,1,2,0:3:0:0:
439,348,132735,1,0,1:0:0:0:
389,263,132862,1,10,0:2:0:0:
512,59,133117,1,0,1:3:0:0:
250,52,133371,2,0,L|194:100,1,65.9999979858399,2|0,0:2|0:0,0:0:0:0:
253,253,133625,2,0,L|289:171,1,65.9999979858399,0|0,1:2|0:0,0:0:0:0:
425,188,133879,2,0,P|464:267|380:233,1,197.99999395752,10|0,1:2|0:0,0:0:0:0:
299,154,134388,6,0,B|250:66|274:0|274:0|243:62|147:82|147:82|43:51|1:129|1:129|41:198|147:184|147:184|63:249|101:340|101:340|129:345|156:337,1,880,4|0,1:1|1:0,0:0:0:0:
341,322,136676,2,0,L|348:242,1,55,0|0,3:0|1:0,0:0:0:0:
457,224,136930,2,0,P|466:277|447:328,1,110,10|0,3:2|1:2,0:0:0:0:
355,152,137439,1,0,3:0:0:0:
447,328,137693,1,0,1:2:0:0:
240,359,137947,2,0,B|192:317|181:253|181:253|144:271,1,165,10|2,0:2|0:0,0:0:0:0:
22,232,138456,6,0,B|-26:128|83:31|83:31|95:137|154:193|186:76|286:138|286:138|356:78|443:90|443:90|395:217|521:155|477:278,1,880,4|0,1:0|1:0,0:0:0:0:
334,358,140744,2,0,L|349:277,1,55,0|0,0:0|1:0,0:0:0:0:
224,350,140998,6,0,P|203:300|205:244,1,110,10|0,0:2|1:3,0:0:0:0:
394,296,141506,1,0,3:0:0:0:
224,350,141761,2,0,L|170:348,1,55,0|0,1:0|2:0,0:0:0:0:
42,366,142015,2,0,P|80:327|97:275,1,110,10|0,0:2|0:3,0:0:0:0:
56,185,142396,1,2,3:2:0:0:
138,90,142523,6,0,P|177:104|134:115,1,110,0|0,1:0|0:3,0:0:0:0:
46,77,142905,1,0,1:0:0:0:
56,185,143032,2,0,L|63:260,1,55,10|0,0:0|0:0,0:0:0:0:
70,338,143286,1,0,1:0:0:0:
180,219,143540,1,0,3:0:0:0:
356,200,143795,2,0,L|440:193,1,55,0|0,1:0|0:0,0:0:0:0:
366,328,144049,2,0,P|329:287|279:266,1,110,10|0,0:2|0:3,0:0:0:0:
193,315,144430,1,2,3:2:0:0:
204,203,144557,6,0,P|171:176|183:219,1,110,0|0,1:0|0:3,0:0:0:0:
279,266,144939,1,0,1:0:0:0:
302,140,145066,2,0,L|310:86,1,55,10|0,0:2|0:0,0:0:0:0:
231,26,145320,1,0,1:0:0:0:
417,61,145574,2,0,P|443:111|442:172,1,110,0|0,3:0|1:0,0:0:0:0:
380,354,146083,1,10,0:2:0:0:
224,268,146337,2,0,L|278:265,1,55,0|2,0:3|3:2,0:0:0:0:
377,263,146591,5,0,1:0:0:0:
234,366,146845,1,0,0:3:0:0:
234,366,146973,1,0,1:0:0:0:
234,366,147100,2,0,L|179:368,1,55,10|0,0:0|3:0,0:0:0:0:
80,372,147354,1,0,1:0:0:0:
34,204,147608,5,0,3:0:0:0:
34,204,147735,2,0,L|35:142,1,55,0|0,0:0|1:0,0:0:0:0:
90,66,147989,1,0,3:0:0:0:
177,112,148117,2,0,L|176:166,1,55,10|0,0:2|3:0,0:0:0:0:
170,282,148371,2,0,L|235:264,1,55,0|0,3:3|0:0,0:0:0:0:
285,157,148625,6,0,P|292:102|279:49,1,110,0|0,1:0|0:3,0:0:0:0:
177,112,149006,1,0,1:0:0:0:
284,156,149134,2,0,P|334:175|397:169,1,110,10|0,0:2|1:0,0:0:0:0:
497,28,149642,1,2,0:0:0:0:
347,0,149896,1,0,1:2:0:0:
411,181,150150,1,10,0:2:0:0:
350,326,150405,2,0,B|296:312|240:342|240:342|181:328|136:348,1,220,2|0,3:2|0:0,0:0:0:0:
109,76,154727,5,0,0:0:0:0:
246,161,154981,1,0,0:0:0:0:
246,161,155108,1,0,0:0:0:0:
246,161,155235,2,0,L|150:160,1,88,10|0,0:0|0:0,0:0:0:0:
110,304,155744,2,0,P|150:322|197:297,1,88,0|0,0:0|0:0,0:0:0:0:
277,255,156125,1,0,0:0:0:0:
277,255,156252,2,0,L|364:255,1,44,10|0,0:0|0:0,0:0:0:0:
506,324,156761,5,0,0:0:0:0:
489,169,157015,1,0,0:0:0:0:
489,169,157142,1,0,0:0:0:0:
489,169,157269,2,0,L|393:168,1,88,10|0,0:0|0:0,0:0:0:0:
247,65,157778,2,0,P|200:51|150:76,1,88,0|0,0:0|0:0,0:0:0:0:
160,162,158159,1,0,0:0:0:0:
160,162,158286,2,0,L|247:162,1,44,10|0,0:0|0:0,0:0:0:0:
397,82,158795,5,0,3:0:0:0:
350,250,159049,1,0,0:0:0:0:
350,250,159176,1,0,0:0:0:0:
350,250,159303,2,0,L|254:249,1,88,10|0,0:0|0:0,0:0:0:0:
143,377,159812,1,0,0:0:0:0:
152,245,160066,1,0,0:0:0:0:
152,245,160193,1,0,0:0:0:0:
152,245,160320,2,0,L|152:201,1,44,10|0,0:0|0:0,0:0:0:0:
153,159,160574,1,0,0:0:0:0:
247,23,160828,5,0,3:0:0:0:
388,129,161083,1,0,0:0:0:0:
388,129,161210,1,0,0:0:0:0:
388,129,161337,2,0,L|292:128,1,88,10|0,0:0|0:0,0:0:0:0:
133,66,161845,1,0,0:0:0:0:
173,221,162100,1,0,0:0:0:0:
173,221,162227,1,0,0:0:0:0:
173,221,162354,2,0,L|217:221,1,44,10|0,0:0|0:0,0:0:0:0:
259,220,162608,1,0,0:0:0:0:
136,336,162862,5,0,3:0:0:0:
297,345,163117,1,0,0:0:0:0:
297,345,163244,1,0,0:0:0:0:
297,345,163371,2,0,L|393:344,1,88,10|0,0:0|0:0,0:0:0:0:
496,220,163879,1,0,0:0:0:0:
388,127,164134,1,0,0:0:0:0:
388,127,164261,1,0,0:0:0:0:
388,127,164388,2,0,L|344:127,1,44,10|0,0:0|0:0,0:0:0:0:
302,126,164642,1,0,0:0:0:0:
256,192,164896,12,0,166803,0:0:0:0:
219,249,166930,6,0,P|162:281|98:270,1,131.99999597168,4|2,1:0|0:3,0:0:0:0:
70,244,167312,1,0,1:0:0:0:
15,94,167439,2,0,P|78:79|140:100,1,131.99999597168,10|0,0:2|1:0,0:0:0:0:
246,337,167947,2,0,P|259:275|320:257,1,131.99999597168,2|0,0:2|1:3,0:0:0:0:
493,384,168456,1,10,0:2:0:0:
418,100,168710,2,0,P|389:84|357:77,1,65.9999979858399,0|0,1:3|0:0,0:0:0:0:
329,230,168964,6,0,P|385:261|450:252,1,131.99999597168,0|2,1:0|0:3,0:0:0:0:
488,238,169345,1,0,1:1:0:0:
418,100,169473,2,0,P|353:88|298:121,1,131.99999597168,10|0,0:2|1:0,0:0:0:0:
145,347,169981,2,0,P|208:345|231:287,1,131.99999597168,2|0,0:2|1:3,0:0:0:0:
18,180,170489,1,10,1:2:0:0:
253,227,170744,2,0,P|248:259|232:288,1,65.9999979858399,0|0,1:0|0:0,0:0:0:0:
153,160,170998,6,0,P|153:92|112:43,1,131.99999597168,0|2,1:0|0:3,0:0:0:0:
74,36,171379,1,0,1:0:0:0:
237,20,171506,2,0,P|301:20|365:56,1,131.99999597168,10|0,0:2|1:0,0:0:0:0:
232,288,172015,2,0,L|158:308,1,65.9999979858399,2|0,0:2|0:0,0:0:0:0:
361,328,172269,1,2,1:2:0:0:
512,111,172523,1,8,0:2:0:0:
239,133,172778,2,0,P|232:70|271:7,1,131.99999597168,2|0,1:2|1:0,0:0:0:0:
421,239,173286,2,0,P|417:301|340:336,1,131.99999597168,2|8,0:3|0:2,0:0:0:0:
97,262,173795,6,0,P|89:293|90:326,1,65.9999979858399,2|0,1:2|0:0,0:0:0:0:
244,369,174049,2,0,P|221:346|205:317,1,65.9999979858399,2|2,3:2|3:2,0:0:0:0:
174,161,174303,1,0,1:0:0:0:
342,6,174557,1,10,3:2:0:0:
342,6,174684,1,2,3:2:0:0:
342,6,174812,2,0,P|308:0|271:2,1,65.9999979858399,0|0,1:0|2:0,0:0:0:0:
310,150,175066,6,0,P|375:158|433:129,1,131.99999597168,4|2,1:1|0:3,0:0:0:0:
463,106,175447,1,0,1:0:0:0:
342,6,175574,2,0,P|273:8|212:37,1,131.99999597168,10|0,0:2|1:0,0:0:0:0:
204,316,176083,2,0,P|201:251|253:215,1,131.99999597168,2|0,0:2|1:3,0:0:0:0:
497,375,176591,1,10,1:2:0:0:
375,147,176845,2,0,L|309:150,1,65.9999979858399,0|0,1:0|0:0,0:0:0:0:
466,51,177100,1,0,1:0:0:0:
205,51,177354,6,0,P|180:72|160:99,1,65.9999979858399,2|0,0:3|1:0,0:0:0:0:
142,239,177608,2,0,P|81:221|41:163,1,131.99999597168,10|0,0:2|1:0,0:0:0:0:
296,115,178117,2,0,P|303:51|353:11,1,131.99999597168,2|0,0:2|1:3,0:0:0:0:
495,263,178625,1,10,0:2:0:0:
259,356,178879,2,0,L|325:353,1,65.9999979858399,0|0,1:0|0:0,0:0:0:0:
145,283,179134,5,0,1:0:0:0:
204,31,179388,1,2,3:3:0:0:
245,120,179515,1,0,1:0:0:0:
223,216,179642,1,10,0:2:0:0:
18,370,179896,1,0,1:0:0:0:
34,112,180150,2,0,P|15:139|7:171,1,65.9999979858399,2|0,0:2|0:0,0:0:0:0:
106,276,180405,2,0,P|170:289|208:343,1,131.99999597168,0|8,1:3|0:1,0:0:0:0:
465,374,180913,2,0,L|485:311,1,65.9999979858399,0|0,1:0|0:0,0:0:0:0:
344,357,181167,5,0,1:0:0:0:
187,158,181422,1,2,0:3:0:0:
259,91,181549,1,0,1:0:0:0:
287,185,181676,1,10,0:2:0:0:
58,292,181930,1,0,1:0:0:0:
335,291,182184,2,0,L|344:357,1,65.9999979858399,2|0,0:2|0:0,0:0:0:0:
406,194,182439,2,0,L|415:128,1,65.9999979858399,0|0,1:3|0:0,0:0:0:0:
259,91,182693,2,0,P|200:63|183:2,1,131.99999597168,10|0,0:2|1:0,0:0:0:0:
145,11,183074,1,0,0:0:0:0:
95,138,183201,6,0,P|111:200|164:238,1,131.99999597168,4|2,1:1|0:3,0:0:0:0:
203,248,183583,1,0,1:0:0:0:
351,175,183710,2,0,P|291:145|257:90,1,131.99999597168,10|0,0:2|1:0,0:0:0:0:
256,343,184218,2,0,P|195:361|149:318,1,131.99999597168,2|0,0:2|1:3,0:0:0:0:
122,54,184727,1,10,1:2:0:0:
392,67,184981,2,0,P|422:55|451:39,1,65.9999979858399,0|0,1:0|0:0,0:0:0:0:
420,193,185235,6,0,P|355:198|301:162,1,131.99999597168,0|2,1:0|0:3,0:0:0:0:
284,126,185617,1,0,1:0:0:0:
198,263,185744,2,0,P|165:206|176:142,1,131.99999597168,10|0,0:2|1:0,0:0:0:0:
395,317,186252,2,0,P|356:366|296:351,1,131.99999597168,2|0,0:2|1:3,0:0:0:0:
51,250,186761,1,10,0:2:0:0:
178,39,187015,2,0,P|200:13|229:-1,1,65.9999979858399,0|0,1:0|0:0,0:0:0:0:
284,126,187269,6,0,P|342:92|405:102,1,131.99999597168,0|2,1:0|0:3,0:0:0:0:
435,123,187650,1,0,1:0:0:0:
481,281,187778,2,0,P|416:292|354:271,1,131.99999597168,10|0,0:2|1:0,0:0:0:0:
188,104,188286,2,0,L|173:15,1,65.9999979858399,2|0,0:2|0:0,0:0:0:0:
89,189,188540,1,2,1:2:0:0:
229,384,188795,1,8,1:2:0:0:
393,222,189049,2,0,P|468:222|519:255,1,131.99999597168,2|0,1:2|1:0,0:0:0:0:
229,384,189557,2,0,P|192:333|227:274,1,131.99999597168,2|8,0:3|0:2,0:0:0:0:
93,33,190066,6,0,P|83:64|83:97,1,65.9999979858399,2|0,1:2|0:0,0:0:0:0:
143,227,190320,2,0,P|150:195|167:166,1,65.9999979858399,2|2,3:2|3:2,0:0:0:0:
287,84,190574,1,0,1:0:0:0:
364,329,190828,1,10,3:2:0:0:
364,329,190956,1,2,3:2:0:0:
364,329,191083,2,0,P|341:353|313:370,1,65.9999979858399,0|0,1:0|2:0,0:0:0:0:
371,188,191337,6,0,P|430:161|474:97,1,131.99999597168,4|2,1:0|0:3,0:0:0:0:
473,67,191718,1,0,1:0:0:0:
319,31,191845,2,0,P|252:22|190:39,1,131.99999597168,10|0,0:2|1:0,0:0:0:0:
40,261,192354,2,0,P|54:209|139:206,1,131.99999597168,2|0,0:2|1:3,0:0:0:0:
328,339,192862,1,10,0:2:0:0:
82,362,193117,2,0,L|16:365,1,65.9999979858399,0|0,1:0|0:0,0:0:0:0:
173,288,193371,1,0,1:0:0:0:
423,368,193625,6,0,P|455:373|488:372,1,65.9999979858399,2|0,0:3|1:0,0:0:0:0:
479,231,193879,2,0,P|417:254|353:243,1,131.99999597168,10|0,0:2|1:0,0:0:0:0:
165,53,194388,2,0,P|226:36|276:76,1,131.99999597168,2|0,0:2|1:3,0:0:0:0:
260,352,194896,1,10,0:2:0:0:
403,133,195150,2,0,L|338:144,1,65.9999979858399,0|0,1:0|0:0,0:0:0:0:
205,171,195405,5,0,1:0:0:0:
49,359,195659,1,2,3:3:0:0:
39,260,195786,1,0,1:0:0:0:
96,179,195913,1,10,0:2:0:0:
260,352,196167,1,0,1:0:0:0:
387,139,196422,2,0,P|421:135|460:147,1,65.9999979858399,2|0,0:2|0:0,0:0:0:0:
468,293,196676,2,0,P|397:296|355:248,1,131.99999597168,0|8,1:3|0:2,0:0:0:0:
163,18,197184,2,0,L|143:80,1,65.9999979858399,0|0,1:0|0:0,0:0:0:0:
0,169,197439,5,0,1:0:0:0:
265,147,197693,1,2,0:3:0:0:
257,48,197820,1,0,1:0:0:0:
163,18,197947,1,10,0:2:0:0:
112,302,198201,1,0,1:0:0:0:
365,260,198456,2,0,L|381:323,1,65.9999979858399,2|0,0:2|0:0,0:0:0:0:
232,204,198710,2,0,L|264:147,1,65.9999979858399,0|0,1:3|0:0,0:0:0:0:
243,0,198964,2,0,P|295:36|364:20,1,131.99999597168,10|2,0:2|2:3,0:0:0:0:
394,40,199345,1,0,0:0:0:0:
429,237,199473,6,0,P|376:235|344:278,1,110,4|2,1:0|0:3,0:0:0:0:
346,329,199854,1,0,1:0:0:0:
439,361,199981,1,10,0:2:0:0:
502,161,200235,1,0,1:0:0:0:
252,295,200617,1,0,1:0:0:0:
163,340,200744,1,0,0:3:0:0:
13,201,200998,2,0,L|67:198,1,55,10|0,1:2|0:0,0:0:0:0:
157,156,201252,1,2,1:2:0:0:
260,1,201506,6,0,P|280:50|327:77,1,110,0|2,1:0|0:3,0:0:0:0:
376,83,201888,1,0,1:0:0:0:
468,48,202015,1,10,0:2:0:0:
259,1,202269,2,0,P|217:40|203:106,1,110,0|0,1:0|0:0,0:0:0:0:
209,137,202650,1,0,1:0:0:0:
306,155,202778,1,0,0:0:0:0:
248,344,203032,1,10,1:2:0:0:
186,330,203159,1,0,0:0:0:0:
226,287,203286,1,2,1:2:0:0:
432,284,203540,6,0,P|400:328|351:350,1,110,0|2,1:0|0:3,0:0:0:0:
301,347,203922,1,0,1:0:0:0:
326,251,204049,1,10,0:2:0:0:
512,188,204303,1,0,1:0:0:0:
251,63,204684,1,0,1:0:0:0:
259,161,204812,1,0,0:0:0:0:
429,60,205066,1,10,1:2:0:0:
251,63,205320,6,0,L|194:62,1,55,2|0,1:2|0:0,0:0:0:0:
96,60,205574,1,0,1:0:0:0:
0,216,205828,2,0,L|57:215,1,55,2|0,0:3|1:0,0:0:0:0:
155,213,206083,1,10,0:2:0:0:
270,372,206337,2,0,L|213:371,1,55,0|0,1:0|0:0,0:0:0:0:
118,382,206591,5,2,3:2:0:0:
75,335,206718,1,2,3:2:0:0:
132,321,206845,1,0,1:0:0:0:
347,258,207100,5,10,3:2:0:0:
285,272,207227,1,2,3:2:0:0:
301,215,207354,1,0,1:0:0:0:
325,49,207608,6,0,P|378:40|428:61,1,110,0|2,1:0|0:3,0:0:0:0:
411,160,207989,1,0,1:0:0:0:
411,160,208117,2,0,P|357:168|307:147,2,110,8|0|0,0:2|1:0|0:0,0:0:0:0:
458,266,208752,2,0,P|431:273|403:274,1,55,0|0,1:0|0:0,0:0:0:0:
253,154,209134,2,0,P|279:147|307:146,1,55,10|0,1:2|0:0,0:0:0:0:
182,221,209388,1,2,1:2:0:0:
75,23,209642,6,0,P|128:14|178:35,1,110,0|2,1:0|0:3,0:0:0:0:
281,47,210023,1,0,1:0:0:0:
281,47,210150,2,0,P|334:38|384:59,2,110,8|0|0,0:2|1:0|0:0,0:0:0:0:
253,154,210786,2,0,P|226:160|198:161,1,55,0|0,1:0|0:0,0:0:0:0:
149,352,211167,2,0,P|122:358|94:359,1,55,10|0,1:2|0:0,0:0:0:0:
220,285,211422,1,2,1:2:0:0:
426,216,211676,6,0,P|460:258|465:325,1,110,0|2,1:0|0:3,0:0:0:0:
372,345,212057,1,0,1:0:0:0:
372,345,212184,2,0,P|337:302|330:249,2,110,8|0|0,0:2|1:0|0:0,0:0:0:0:
254,361,212820,2,0,P|227:353|203:340,1,55,0|0,1:0|0:0,0:0:0:0:
60,202,213201,2,0,P|33:195|5:194,1,55,10|0,1:2|0:0,0:0:0:0:
131,269,213456,1,2,1:2:0:0:
204,95,213710,6,0,P|197:41|162:0,1,110,0|2,1:0|0:3,0:0:0:0:
116,7,214091,1,0,1:0:0:0:
50,116,214218,2,0,L|112:110,1,55,8|0,0:2|0:0,0:0:0:0:
204,95,214473,1,0,1:0:0:0:
417,150,214727,5,2,3:2:0:0:
360,165,214854,1,2,3:2:0:0:
374,104,214981,1,0,1:0:0:0:
463,325,215235,5,10,3:2:0:0:
444,384,215362,1,2,3:2:0:0:
403,342,215489,2,0,L|326:364,1,55,0|0,1:0|0:0,0:0:0:0:
