osu file format v14

[General]
AudioFilename: audio.mp3
AudioLeadIn: 2000
PreviewTime: 166930
Countdown: 0
SampleSet: Drum
StackLeniency: 0.7
Mode: 0
LetterboxInBreaks: 0
WidescreenStoryboard: 1

[Editor]
Bookmarks: 36761,53032,85574,117990,134388,150659
DistanceSpacing: 1.5
BeatDivisor: 4
GridSize: 8
TimelineZoom: 1

[Metadata]
Title:Worship
TitleUnicode:Worship
Artist:Years & Years
ArtistUnicode:Years & Years
Creator:vivicat
Version:Crazy
Source:
Tags:english pop Communion (Deluxe) Electronica Olly Alexander Mikey Goldsworthy Emre Turkmen Beren Yusomi ruchuers Puvn
BeatmapID:2800368
BeatmapSetID:1352008

[Difficulty]
HPDrainRate:6
CircleSize:3.7
OverallDifficulty:8
ApproachRate:9.3
SliderMultiplier:3.4
SliderTickRate:1

[Events]
//Background and Video events
0,0,"bg.jpg",0,0
//Break Periods
//Storyboard Layer 0 (Background)
//Storyboard Layer 1 (Fail)
//Storyboard Layer 2 (Pass)
//Storyboard Layer 3 (Foreground)
//Storyboard Layer 4 (Overlay)
//Storyboard Sound Samples

[TimingPoints]
151,508.474576271186,4,2,0,30,1,0
3711,-100,4,2,0,50,0,0
4219,-100,4,2,0,70,0,0
16422,-100,4,2,0,80,0,0
17947,-200,4,2,0,80,0,0
18456,-100,4,2,0,80,0,0
34218,-200,4,2,0,80,0,0
34727,-100,4,2,0,80,0,0
36761,-200,4,2,1,70,0,0
44896,-200,4,1,0,80,0,0
50998,-200,4,3,1,60,0,0
52523,-833.333333333333,4,3,0,60,0,0
53032,-81.9672131147541,4,2,2,100,0,1
69303,-100,4,3,0,90,0,0
85066,-133.333333333333,4,2,0,80,0,0
85574,-100,4,2,0,80,0,0
92439,-192.307692307692,4,2,0,80,0,0
93710,-100,4,2,0,80,0,0
116083,-200,4,3,1,60,0,0
117608,-833.333333333333,4,3,1,60,0,0
118117,-81.9672131147541,4,2,2,100,0,1
134388,-100,4,2,0,90,0,0
150405,-833.333333333333,4,2,1,80,0,0
150792,-133.333333333333,4,2,1,70,0,0
154727,-133.333333333333,4,2,1,75,0,0
158795,-133.333333333333,4,2,1,80,0,0
162863,-133.333333333333,4,2,1,85,0,0
166930,-81.9672131147541,4,2,2,100,0,1
199473,-100,4,2,0,90,0,0
215617,-100,4,2,0,5,0,0

[Colours]
Combo1 : 235,210,220
Combo2 : 120,142,177
Combo3 : 35,79,158
Combo4 : 146,180,198

[HitObjects]
155,48,3201,6,0,L|70:57,2,85,2|0|0,0:0|0:0|0:0,0:0:0:0:
253,94,3710,2,0,L|344:85,2,85,2|0|0,0:0|0:0|0:0,0:0:0:0:
182,176,4218,21,4,3:2:0:0:
112,197,4345,1,0,3:0:0:0:
112,271,4473,1,0,3:0:0:0:
182,294,4600,1,0,3:0:0:0:
224,235,4727,1,8,3:2:0:0:
194,88,4981,1,0,3:0:0:0:
194,88,5108,1,0,0:0:0:0:
194,88,5235,2,0,L|282:96,1,85,2|0,0:0|0:0,0:0:0:0:
428,143,5489,2,0,L|512:150,1,85,0|0,3:2|0:0,0:0:0:0:
361,28,5744,2,0,B|346:197,1,170,10|0,0:2|3:3,0:0:0:0:
345,197,6252,5,0,3:0:0:0:
415,219,6379,1,0,3:0:0:0:
415,293,6506,1,0,3:0:0:0:
345,316,6634,1,0,3:0:0:0:
303,257,6761,1,8,3:2:0:0:
318,114,7015,1,0,3:0:0:0:
318,114,7142,1,0,0:0:0:0:
318,114,7269,2,0,L|230:122,1,85,2|0,0:0|0:0,0:0:0:0:
85,173,7523,2,0,L|1:180,1,85,0|0,3:2|0:0,0:0:0:0:
153,50,7778,2,0,B|168:219,1,170,10|0,0:2|3:0,0:0:0:0:
168,219,8286,5,0,3:0:0:0:
209,159,8413,1,0,3:0:0:0:
168,99,8540,1,0,3:0:0:0:
97,122,8667,1,0,3:0:0:0:
97,196,8795,1,8,3:2:0:0:
91,384,9049,1,0,3:0:0:0:
91,384,9176,1,0,0:0:0:0:
91,384,9303,2,0,L|112:296,1,85,2|0,0:0|0:0,0:0:0:0:
187,162,9557,2,0,L|206:80,1,85,0|0,3:2|0:0,0:0:0:0:
44,209,9812,2,0,L|215:247,1,170,10|0,0:2|3:2,0:0:0:0:
209,245,10320,5,0,3:0:0:0:
270,290,10447,1,0,3:0:0:0:
327,245,10574,1,0,3:0:0:0:
305,174,10701,1,0,3:0:0:0:
231,175,10828,1,8,3:2:0:0:
436,86,11083,2,0,B|367:76|367:76|356:65|356:65|265:48,1,170,2|0,3:2|2:0,0:0:0:0:
154,144,11591,2,0,B|237:159|237:159|248:170|248:170|317:180,1,170,2|8,3:2|2:0,0:0:0:0:
318,181,12100,1,2,3:2:0:0:
318,181,12354,5,0,3:0:0:0:
359,122,12481,1,0,3:0:0:0:
428,144,12608,1,0,3:0:0:0:
428,217,12735,1,0,3:0:0:0:
357,245,12862,2,0,B|272:311|272:311|177:283,1,170,8|0,3:2|0:0,0:0:0:0:
262,79,13625,1,0,3:2:0:0:
210,297,13879,2,0,B|269:314|269:314|354:248,1,170,10|0,3:2|3:2,0:0:0:0:
323,123,14388,5,0,3:0:0:0:
262,79,14515,1,0,3:0:0:0:
201,123,14642,1,0,3:0:0:0:
225,195,14769,1,0,3:0:0:0:
300,195,14896,1,8,3:2:0:0:
300,195,15150,2,0,L|316:371,1,170,2|0,3:2|0:0,0:0:0:0:
99,147,15659,2,0,L|91:62,1,85,2|0,3:2|0:0,0:0:0:0:
206,195,15913,2,0,B|231:233|274:246|274:246|333:231|333:231|314:285|314:285|245:295,1,255,10|0,3:2|0:0,0:0:0:0:
264,292,16422,5,6,3:2:0:0:
407,158,16676,1,2,0:3:0:0:
407,158,16803,2,0,L|411:74,1,85,0|8,3:2|2:0,0:0:0:0:
206,195,17057,1,0,0:0:0:0:
206,195,17184,2,0,L|209:279,1,85,2|0,3:3|2:0,0:0:0:0:
324,175,17439,2,0,L|411:158,1,85,0|0,3:2|0:0,0:0:0:0:
226,77,17693,2,0,L|132:93,1,85,2|0,3:3|0:0,0:0:0:0:
376,265,17947,2,0,L|472:278,1,85,8|2,3:2|0:3,0:0:0:0:
460,275,18456,5,0,3:2:0:0:
281,275,18710,1,2,0:3:0:0:
281,275,18837,2,0,L|268:368,1,85,0|8,3:2|0:0,0:0:0:0:
198,159,19091,1,0,0:0:0:0:
198,159,19218,2,0,L|193:70,1,85,2|0,3:3|0:0,0:0:0:0:
281,170,19473,2,0,L|191:160,1,85,2|0,1:2|0:0,0:0:0:0:
13,262,19727,2,0,L|100:267,1,85,0|0,1:3|0:0,0:0:0:0:
291,176,19981,2,0,L|375:185,2,85,2|0|0,1:2|3:0|3:3,0:0:0:0:
122,208,20489,5,4,3:2:0:0:
109,324,20617,1,0,3:0:0:0:
51,224,20744,1,0,3:0:0:0:
160,271,20871,1,0,3:0:0:0:
42,295,20998,1,8,3:2:0:0:
399,249,21252,1,0,3:0:0:0:
399,249,21379,1,0,0:0:0:0:
399,249,21506,2,0,L|304:240,1,85,2|0,0:0|0:0,0:0:0:0:
75,263,21761,2,0,L|165:271,1,85,0|0,3:2|0:0,0:0:0:0:
240,152,22015,2,0,L|233:321,1,170,10|0,0:2|3:0,0:0:0:0:
347,29,22523,5,0,3:0:0:0:
359,141,22650,1,0,3:0:0:0:
415,44,22778,1,0,3:0:0:0:
311,90,22905,1,0,3:0:0:0:
423,112,23032,1,8,3:2:0:0:
173,347,23286,1,0,3:0:0:0:
173,347,23413,1,0,0:0:0:0:
173,347,23540,2,0,L|189:246,1,85,2|0,0:0|0:0,0:0:0:0:
262,35,23795,2,0,L|251:120,1,85,0|0,3:2|0:0,0:0:0:0:
120,176,24049,2,0,L|289:200,1,170,10|0,0:2|3:0,0:0:0:0:
67,259,24557,5,0,3:0:0:0:
183,272,24684,1,0,3:0:0:0:
83,330,24812,1,0,3:0:0:0:
130,221,24939,1,0,3:0:0:0:
154,339,25066,1,8,3:2:0:0:
338,375,25320,1,0,3:0:0:0:
338,375,25447,1,0,0:0:0:0:
338,375,25574,2,0,L|359:274,1,85,2|0,0:0|0:0,0:0:0:0:
442,70,25828,2,0,L|427:154,1,85,0|0,3:2|0:0,0:0:0:0:
295,204,26083,2,0,L|461:237,1,170,10|0,0:0|3:0,0:0:0:0:
426,122,26591,5,0,3:0:0:0:
308,109,26718,1,0,3:0:0:0:
409,50,26845,1,0,3:0:0:0:
362,158,26973,1,0,3:0:0:0:
338,41,27100,1,8,3:2:0:0:
384,316,27354,2,0,B|344:244|344:244|368:132,1,170,2|0,3:2|0:0,0:0:0:0:
376,160,27862,2,0,B|358:246|358:246|398:318,1,170,2|8,3:2|3:2,0:0:0:0:
392,320,28371,1,0,3:2:0:0:
156,107,28625,5,0,3:0:0:0:
148,224,28752,1,0,3:0:0:0:
86,126,28879,1,0,3:0:0:0:
196,169,29006,1,0,3:0:0:0:
75,201,29134,2,0,B|31:237|31:237|53:396,1,170,8|0,3:2|3:0,0:0:0:0:
56,344,29896,2,0,B|40:223|40:223|77:193,1,170,2|8,3:2|0:2,0:0:0:0:
332,281,30405,1,2,3:2:0:0:
199,54,30659,5,0,3:0:0:0:
211,170,30786,1,0,3:0:0:0:
269,70,30913,1,0,3:0:0:0:
161,117,31040,1,0,3:0:0:0:
278,141,31167,1,8,3:2:0:0:
439,82,31422,2,0,L|264:70,1,170,2|0,3:2|0:0,0:0:0:0:
377,296,31930,1,2,3:2:0:0:
280,80,32184,2,0,L|450:92,1,170,10|0,3:2|3:2,0:0:0:0:
449,91,32693,5,6,3:2:0:0:
168,205,32947,1,2,0:3:0:0:
168,205,33074,2,0,L|60:211,1,85,0|8,3:2|0:0,0:0:0:0:
374,85,33328,1,0,0:0:0:0:
374,85,33456,2,0,L|467:82,1,85,2|0,3:3|0:0,0:0:0:0:
264,88,33710,2,0,L|253:-4,1,85,0|0,3:2|0:0,0:0:0:0:
362,247,33964,2,0,L|369:355,1,85,2|0,3:3|0:0,0:0:0:0:
208,184,34218,2,0,L|176:104,1,85,8|2,3:2|0:3,0:0:0:0:
176,105,34727,5,0,3:2:0:0:
104,270,34981,1,2,0:3:0:0:
104,270,35108,2,0,L|106:372,1,85,0|8,3:2|3:2,0:0:0:0:
290,134,35362,1,0,0:0:0:0:
290,134,35489,2,0,L|300:41,1,85,2|0,3:3|0:0,0:0:0:0:
128,80,35744,2,0,L|40:74,1,85,2|0,1:2|0:0,0:0:0:0:
244,231,35998,2,0,L|329:243,1,85,2|0,1:3|0:0,0:0:0:0:
83,192,36252,2,0,L|81:278,2,85,10|0|0,1:2|3:0|3:3,0:0:0:0:
280,192,36761,6,0,L|389:182,1,85,6|2,0:0|0:0,0:0:0:0:
382,195,37142,1,0,0:0:0:0:
231,286,37269,2,0,L|146:276,1,85,10|2,0:0|0:0,0:0:0:0:
127,286,37650,1,0,0:0:0:0:
39,84,37778,2,0,L|134:77,1,85,2|2,0:0|0:0,0:0:0:0:
143,84,38159,1,0,0:0:0:0:
375,166,38286,2,0,L|283:170,1,85,10|2,0:0|0:0,0:0:0:0:
280,184,38667,1,0,0:0:0:0:
280,184,38795,6,2,P|336:209|396:192,1,85,2|0,0:0|0:0,0:0:0:0:
398,77,39303,2,2,P|342:52|282:69,1,85,10|0,0:0|0:0,0:0:0:0:
297,295,39812,2,2,P|355:278|391:226,1,85,2|0,0:0|0:0,0:0:0:0:
295,120,40320,2,2,P|236:136|200:188,1,85,10|0,0:0|0:0,0:0:0:0:
369,297,40828,6,0,P|391:258|387:196,1,85,2|2,0:0|0:0,0:0:0:0:
393,198,41210,1,0,0:0:0:0:
273,113,41337,2,0,P|291:151|291:194,1,85,10|2,0:0|0:0,0:0:0:0:
287,215,41718,1,0,0:0:0:0:
193,169,41845,2,0,P|172:133|137:109,1,85,2|2,0:0|0:0,0:0:0:0:
117,100,42227,1,0,0:0:0:0:
17,177,42354,2,0,P|59:181|95:202,1,85,10|2,0:0|0:0,0:0:0:0:
81,212,42735,1,0,0:0:0:0:
81,212,42862,6,2,B|77:258|77:258|89:302,1,85,2|0,0:0|0:0,0:0:0:0:
335,220,43371,2,2,B|346:182|346:182|342:137,1,85,10|0,0:0|0:0,0:0:0:0:
170,137,43879,2,2,B|165:182|165:182|177:227,1,85,2|0,0:0|0:0,0:0:0:0:
423,295,44388,2,2,B|434:257|434:257|430:211,1,85,10|0,0:0|0:0,0:0:0:0:
430,188,44896,6,0,L|317:201,1,85,0|0,1:0|2:0,0:0:0:0:
218,219,45278,1,0,1:0:0:0:
202,227,45405,1,8,3:2:0:0:
343,209,45659,2,0,L|442:195,1,85,0|0,0:0|2:0,0:0:0:0:
430,188,46167,1,0,0:0:0:0:
185,236,46422,2,0,L|100:247,1,85,8|0,2:0|2:3,0:0:0:0:
192,64,46930,6,0,L|207:184,1,85,0|0,0:0|2:0,0:0:0:0:
220,275,47312,1,0,0:0:0:0:
231,289,47439,1,8,3:2:0:0:
210,138,47693,2,0,L|199:53,1,85,0|0,0:0|2:0,0:0:0:0:
191,45,48201,1,0,0:0:0:0:
223,300,48456,2,0,L|234:385,1,85,8|0,3:2|2:3,0:0:0:0:
64,208,48964,6,0,L|160:216,1,85,0|0,0:0|2:0,0:0:0:0:
275,227,49345,1,0,0:0:0:0:
291,235,49473,1,8,3:2:0:0:
144,227,49727,2,0,L|56:219,1,85,0|0,0:0|2:0,0:0:0:0:
54,212,50235,1,0,0:0:0:0:
291,235,50489,2,0,L|379:243,1,85,8|0,3:2|2:3,0:0:0:0:
402,123,50998,6,0,L|412:168,1,42.5,2|0,3:3|2:2,0:0:0:0:
262,125,51252,2,0,L|269:81,1,42.5,2|0,3:3|2:2,0:0:0:0:
312,248,51506,2,0,P|296:312|292:400,1,127.5,0|0,3:0|2:0,0:0:0:0:
206,136,52015,6,0,L|165:123,1,42.5,2|0,3:3|2:0,0:0:0:0:
155,260,52269,2,0,L|197:254,1,42.5,2|0,3:3|2:0,0:0:0:0:
76,193,52523,2,0,L|40:192,1,30.6000007470703,0|0,3:0|2:0,0:0:0:0:
32,184,53032,6,0,B|120:184|120:184|168:208|168:208|256:208,1,207.399991455384,4|2,1:0|2:3,0:0:0:0:
233,208,53413,1,0,1:0:0:0:
108,290,53540,1,10,0:2:0:0:
171,83,53667,1,0,0:0:0:0:
417,148,53795,2,0,B|305:227|305:227|239:205,1,207.399991455384,0|2,1:3|0:2,0:0:0:0:
170,102,54176,1,0,0:0:0:0:
254,294,54303,1,2,1:3:0:0:
366,66,54430,1,0,0:0:0:0:
261,282,54557,2,0,L|238:418,1,103.699995727692,10|0,0:2|0:0,0:0:0:0:
74,166,54812,2,0,L|72:48,1,103.699995727692,0|0,1:3|0:0,0:0:0:0:
60,177,55066,6,0,B|40:344|40:344|160:296,1,207.399991455384,0|2,1:0|0:3,0:0:0:0:
76,329,55447,1,0,1:0:0:0:
228,126,55574,1,10,0:2:0:0:
50,184,55701,1,0,0:0:0:0:
197,210,55828,2,0,B|335:230|335:230|271:110,1,207.399991455384,0|2,1:3|0:2,0:0:0:0:
96,48,56210,1,0,0:0:0:0:
120,241,56337,2,0,L|130:385,1,103.699995727692,0|0,1:3|0:0,0:0:0:0:
207,63,56591,2,0,B|375:39|375:39|439:95,1,207.399991455384,10|0,1:2|1:3,0:0:0:0:
403,63,56973,1,0,0:0:0:0:
384,296,57100,6,0,B|296:288|296:288|280:296|280:296|168:280,1,207.399991455384,0|2,1:0|0:3,0:0:0:0:
40,251,57481,1,0,1:0:0:0:
224,160,57608,1,10,0:2:0:0:
211,384,57735,1,0,0:0:0:0:
107,158,57862,2,0,B|59:49|59:49|27:153,1,207.399991455384,0|2,1:3|0:2,0:0:0:0:
23,250,58244,1,0,0:0:0:0:
292,223,58371,1,2,1:2:0:0:
179,281,58498,1,0,0:0:0:0:
304,131,58625,2,0,B|408:31|408:31|400:109,1,207.399991455384,8|2,1:2|1:2,0:0:0:0:
501,162,59006,1,0,0:0:0:0:
288,312,59134,6,0,L|81:325,1,207.399991455384,0|2,1:0|0:2,0:0:0:0:
81,324,59515,1,0,1:0:0:0:
226,79,59642,2,0,L|338:71,1,103.699995727692,8|0,0:2|0:0,0:0:0:0:
152,160,59896,2,0,L|40:168,1,103.699995727692,2|0,1:2|0:0,0:0:0:0:
17,172,60150,5,2,3:2:0:0:
158,238,60278,1,2,3:2:0:0:
305,288,60405,2,0,P|280:287|313:312,1,103.699995727692,0|0,1:0|2:0,0:0:0:0:
309,318,60659,5,10,3:2:0:0:
158,272,60786,1,2,3:2:0:0:
12,244,60913,2,0,P|44:244|12:276,1,103.699995727692,0|0,1:0|0:0,0:0:0:0:
13,277,61167,6,0,B|106:237|106:237|208:265,1,207.399991455384,4|2,1:0|0:3,0:0:0:0:
208,265,61549,1,0,1:0:0:0:
195,126,61676,1,10,0:2:0:0:
92,336,61803,1,0,0:0:0:0:
364,327,61930,2,0,B|485:318|485:318|457:230,1,207.399991455384,0|2,1:3|0:2,0:0:0:0:
458,234,62312,1,0,0:0:0:0:
208,266,62439,1,0,1:3:0:0:
170,50,62566,1,0,0:0:0:0:
309,166,62693,2,0,L|297:269,1,103.699995727692,10|0,1:2|0:1,0:0:0:0:
45,199,62947,2,0,L|40:96,1,103.699995727692,0|0,1:3|0:0,0:0:0:0:
247,196,63201,6,0,B|232:337|232:337|192:285,1,207.399991455384,0|2,1:0|0:3,0:0:0:0:
120,167,63583,1,0,1:0:0:0:
266,63,63710,1,10,0:2:0:0:
323,303,63837,1,0,0:0:0:0:
98,252,63964,2,0,B|4:226|4:226|40:356,1,207.399991455384,0|2,1:3|0:2,0:0:0:0:
33,331,64345,1,0,0:0:0:0:
259,276,64473,1,0,1:3:0:0:
33,122,64600,1,0,0:0:0:0:
136,32,64727,2,0,B|136:112|136:112|160:160|160:160|160:240,1,207.399991455384,10|0,1:2|1:3,0:0:0:0:
160,233,65108,1,0,0:0:0:0:
320,48,65235,6,0,B|419:55|419:55|351:151,1,207.399991455384,0|2,1:0|0:3,0:0:0:0:
356,142,65617,1,0,1:0:0:0:
112,318,65744,2,0,B|132:340|132:340|282:328|282:328|296:352,1,207.399991455384,10|0,0:2|1:3,0:0:0:0:
296,352,66125,1,0,0:0:0:0:
277,104,66252,2,0,L|485:117,1,207.399991455384,2|0,0:2|1:3,0:0:0:0:
483,116,66634,1,0,0:0:0:0:
371,234,66761,1,8,0:1:0:0:
371,234,67015,2,0,L|480:240,1,103.699995727692,0|0,1:3|0:0,0:0:0:0:
272,344,67269,6,0,B|227:296|227:296|72:286,1,207.399991455384,2|2,1:2|0:3,0:0:0:0:
85,286,67650,1,0,1:0:0:0:
173,96,67778,2,0,L|277:104,1,103.699995727692,10|0,0:2|0:0,0:0:0:0:
448,256,68032,2,0,L|336:248,1,103.699995727692,0|0,1:0|0:0,0:0:0:0:
14,162,68286,2,0,L|118:170,1,103.699995727692,2|0,0:2|0:0,0:0:0:0:
258,257,68540,2,0,L|154:249,1,103.699995727692,0|0,1:3|0:0,0:0:0:0:
410,117,68795,2,0,L|424:323,1,207.399991455384,10|0,1:2|1:0,0:0:0:0:
165,44,69303,6,0,B|227:107|227:107|216:192,1,170,4|2,1:0|0:3,0:0:0:0:
216,187,69684,1,0,1:0:0:0:
94,323,69812,2,0,B|80:240,1,85,8|0,0:2|2:0,0:0:0:0:
328,225,70066,2,0,B|290:304|290:304|207:322,1,170,0|0,1:0|0:0,0:0:0:0:
93,228,70447,1,0,0:0:0:0:
324,216,70574,1,0,1:3:0:0:
200,320,70701,1,0,0:0:0:0:
12,271,70828,2,0,L|96:288,1,85,8|0,1:2|0:0,0:0:0:0:
0,240,71083,2,0,L|83:260,1,85,0|0,1:0|0:0,0:0:0:0:
347,44,71337,6,0,B|285:107|285:107|296:192,1,170,0|2,1:0|0:3,0:0:0:0:
295,187,71718,1,0,1:0:0:0:
410,263,71845,2,0,B|424:179,1,85,8|0,0:2|2:0,0:0:0:0:
185,232,72100,2,0,B|223:311|223:311|306:329,1,170,0|0,1:0|0:0,0:0:0:0:
413,271,72481,1,0,0:0:0:0:
416,88,72608,1,0,1:3:0:0:
250,185,72735,1,0,0:0:0:0:
416,288,72862,2,0,L|500:271,1,85,8|0,1:2|0:0,0:0:0:0:
429,260,73117,2,0,L|512:240,1,85,0|0,1:0|0:0,0:0:0:0:
276,144,73371,6,0,B|266:225|266:225|328:288,1,170,0|2,1:0|0:3,0:0:0:0:
327,287,73752,1,0,1:0:0:0:
408,128,73879,2,0,B|423:214,1,85,8|0,0:2|2:0,0:0:0:0:
227,369,74134,2,0,B|308:352|308:352|346:273,1,170,0|0,1:0|0:0,0:0:0:0:
332,139,74515,1,0,0:0:0:0:
197,97,74642,1,0,1:3:0:0:
217,249,74769,1,0,0:0:0:0:
376,272,74896,2,0,L|460:289,1,85,8|0,1:2|0:0,0:0:0:0:
376,304,75150,2,0,L|459:324,1,85,0|0,1:0|0:0,0:0:0:0:
184,288,75405,6,0,B|246:225|246:225|235:140,1,170,2|0,1:2|0:2,0:0:0:0:
235,144,75786,1,0,1:0:0:0:
386,65,75913,2,0,B|371:151,1,85,10|0,0:2|2:0,0:0:0:0:
312,280,76167,2,0,B|403:283,1,85,0|0,1:2|2:0,0:0:0:0:
262,345,76422,5,2,3:2:0:0:
249,235,76549,1,2,3:2:0:0:
226,127,76676,2,0,P|190:125|226:135,1,85,0|0,1:0|2:0,0:0:0:0:
376,86,76930,5,10,3:2:0:0:
351,193,77057,1,2,3:2:0:0:
328,296,77184,2,0,P|296:288|320:304,1,85,0|0,1:0|0:0,0:0:0:0:
312,336,77439,6,0,B|374:273|374:273|363:188,1,170,4|2,1:0|0:3,0:0:0:0:
363,192,77820,1,0,1:0:0:0:
156,218,77947,2,0,B|240:232,1,85,8|0,0:2|2:0,0:0:0:0:
433,147,78201,2,0,B|395:68|395:68|312:50,1,170,0|0,1:0|0:0,0:0:0:0:
149,201,78583,1,0,0:0:0:0:
315,196,78710,1,0,1:3:0:0:
212,73,78837,1,0,0:0:0:0:
12,113,78964,2,0,L|96:96,1,85,8|0,1:2|0:0,0:0:0:0:
0,144,79218,2,0,L|83:124,1,85,0|0,1:0|0:0,0:0:0:0:
347,340,79473,6,0,B|285:277|285:277|296:192,1,170,0|2,1:0|0:3,0:0:0:0:
295,196,79854,1,0,1:0:0:0:
92,246,79981,2,0,B|176:232,1,85,8|0,0:2|2:0,0:0:0:0:
213,48,80235,2,0,B|133:66|133:66|95:145,1,170,0|0,1:0|0:0,0:0:0:0:
178,317,80617,1,0,0:0:0:0:
256,143,80744,1,0,1:3:0:0:
363,263,80871,1,0,0:0:0:0:
416,96,80998,2,0,L|500:113,1,85,8|0,1:2|0:0,0:0:0:0:
429,124,81252,2,0,L|512:144,1,85,0|0,1:0|0:0,0:0:0:0:
328,96,81506,6,0,B|266:159|266:159|277:244,1,170,0|2,1:0|0:3,0:0:0:0:
276,239,81888,1,0,1:0:0:0:
182,346,82015,2,0,B|190:262,1,85,8|0,0:2|2:0,0:0:0:0:
55,71,82269,2,0,B|136:89|136:89|174:168,1,170,0|0,1:0|0:0,0:0:0:0:
72,256,82650,1,0,0:0:0:0:
228,86,82778,1,0,1:3:0:0:
272,240,82905,1,0,0:0:0:0:
40,160,83032,2,0,L|124:143,1,85,8|0,1:2|0:0,0:0:0:0:
40,128,83286,2,0,L|123:108,1,85,0|0,1:0|0:0,0:0:0:0:
336,64,83540,6,0,B|398:127|398:127|387:212,1,170,0|2,1:0|0:3,0:0:0:0:
387,207,83922,1,0,1:0:0:0:
211,186,84049,2,0,L|198:103,1,85,8|0,0:2|2:0,0:0:0:0:
303,271,84303,2,0,B|309:362,1,85,0|0,1:0|0:0,0:0:0:0:
310,153,84557,2,0,P|366:220|305:301,1,170,2|0,0:2|2:0,0:0:0:0:
352,296,85066,6,0,P|381:220|304:136,1,191.250007295609,2|0,0:0|2:0,0:0:0:0:
318,139,85574,5,4,3:2:0:0:
246,175,85701,1,0,3:0:0:0:
375,197,85828,1,0,3:0:0:0:
260,255,85956,1,0,3:0:0:0:
339,268,86083,1,8,3:2:0:0:
160,248,86337,1,0,3:0:0:0:
160,248,86464,1,0,0:0:0:0:
160,248,86591,2,0,L|162:344,1,85,2|0,0:0|0:0,0:0:0:0:
432,288,86845,2,0,L|397:366,1,85,0|0,3:2|0:0,0:0:0:0:
301,258,87100,2,0,B|331:91,1,170,10|0,3:2|3:0,0:0:0:0:
193,141,87608,5,0,3:0:0:0:
265,177,87735,1,0,3:0:0:0:
135,200,87862,1,0,3:0:0:0:
251,257,87989,1,0,3:0:0:0:
171,270,88117,1,8,3:2:0:0:
352,232,88371,1,0,3:0:0:0:
352,232,88498,1,0,0:0:0:0:
352,232,88625,2,0,L|349:328,1,85,2|0,0:0|0:0,0:0:0:0:
80,280,88879,2,0,L|110:359,1,85,0|0,3:2|0:0,0:0:0:0:
209,258,89134,2,0,B|181:91,1,170,10|0,3:2|3:0,0:0:0:0:
255,119,89642,5,0,3:0:0:0:
191,168,89769,1,0,3:0:0:0:
322,167,89896,1,0,3:0:0:0:
218,244,90023,1,0,3:0:0:0:
299,244,90150,1,8,3:2:0:0:
424,200,90405,1,0,0:0:0:0:
424,200,90532,1,0,0:0:0:0:
424,200,90659,2,0,L|403:105,1,85,2|0,0:0|0:0,0:0:0:0:
112,120,90913,2,0,L|96:203,1,85,0|0,3:2|0:0,0:0:0:0:
256,378,91167,2,0,B|256:208,1,170,10|2,0:2|2:0,0:0:0:0:
264,200,91930,5,2,2:0:0:0:
256,192,92439,6,0,B|256:104,1,88.3999994604492,2|0,2:0|0:0,0:0:0:0:
264,184,92947,6,0,B|264:96,1,88.3999994604492,2|8,2:0|0:2,0:0:0:0:
264,95,93456,1,0,3:0:0:0:
454,125,93710,5,0,3:0:0:0:
380,101,93837,1,0,3:0:0:0:
447,198,93964,1,0,3:0:0:0:
338,162,94091,1,0,3:0:0:0:
379,223,94218,2,0,B|368:304|368:304|286:388,1,170,8|0,3:2|3:0,0:0:0:0:
128,208,94981,1,2,3:2:0:0:
306,367,95235,2,0,B|368:304|368:304|379:223,1,170,8|2,3:2|3:2,0:0:0:0:
312,68,95744,5,0,3:0:0:0:
286,139,95871,1,0,3:0:0:0:
250,24,95998,1,0,3:0:0:0:
213,140,96125,1,0,3:0:0:0:
188,68,96252,1,8,3:2:0:0:
128,208,96506,2,0,L|144:384,1,170,2|0,3:2|0:0,0:0:0:0:
32,192,97015,2,0,L|24:104,1,85,2|0,3:2|0:0,0:0:0:0:
280,235,97269,2,0,L|288:320,1,85,8|0,3:2|0:0,0:0:0:0:
472,269,97523,2,0,L|480:184,1,85,2|0,3:2|0:0,0:0:0:0:
328,56,97778,5,0,3:0:0:0:
398,78,97905,1,0,3:2:0:0:
286,115,98032,1,0,3:0:0:0:
398,152,98159,1,0,3:0:0:0:
331,184,98286,1,8,0:2:0:0:
331,184,98540,2,0,B|303:256|303:256|322:410,1,170,2|0,3:2|0:0,0:0:0:0:
153,181,99049,2,0,L|55:192,1,85,2|0,3:2|0:0,0:0:0:0:
331,186,99303,2,0,P|449:137|481:169,1,170,10|0,0:0|3:2,0:0:0:0:
250,277,99812,5,0,3:0:0:0:
226,200,99939,1,0,3:0:0:0:
182,325,100066,1,0,3:0:0:0:
146,200,100193,1,0,3:0:0:0:
118,275,100320,1,8,3:2:0:0:
118,275,100574,2,0,L|32:272,1,85,0|0,3:0|0:0,0:0:0:0:
339,199,100828,2,0,L|424:208,1,85,2|0,1:2|0:0,0:0:0:0:
266,332,101083,2,0,L|180:324,1,85,2|0,1:2|0:0,0:0:0:0:
352,192,101337,2,0,L|440:200,2,85,2|0|0,1:2|3:0|3:0,0:0:0:0:
178,180,101845,5,4,3:2:0:0:
165,296,101973,1,0,3:0:0:0:
106,196,102100,1,0,3:0:0:0:
215,243,102227,1,0,3:0:0:0:
98,268,102354,2,0,L|0:280,1,85,8|0,3:2|0:0,0:0:0:0:
255,177,102608,2,0,L|359:137,1,85,0|0,3:0|0:0,0:0:0:0:
375,254,102862,2,0,L|283:249,1,85,2|0,3:2|0:0,0:0:0:0:
72,232,103117,2,0,L|157:234,1,85,2|0,3:2|0:0,0:0:0:0:
240,152,103371,2,0,L|233:321,1,170,10|0,3:2|3:0,0:0:0:0:
354,27,103879,5,0,3:0:0:0:
367,150,104006,1,0,3:0:0:0:
429,44,104134,1,0,3:0:0:0:
314,93,104261,1,0,3:0:0:0:
440,123,104388,2,0,L|434:370,1,170,8|0,3:2|3:0,0:0:0:0:
176,352,104896,2,0,L|192:251,1,85,2|0,3:2|0:0,0:0:0:0:
267,29,105150,2,0,L|256:114,1,85,0|0,3:2|0:0,0:0:0:0:
120,176,105405,2,0,L|289:200,1,170,10|0,0:2|3:0,0:0:0:0:
57,214,105913,5,0,3:0:0:0:
173,226,106040,1,0,3:0:0:0:
73,284,106167,1,0,3:0:0:0:
120,176,106295,1,0,3:0:0:0:
146,292,106422,2,0,L|240:287,1,85,8|0,3:2|0:0,0:0:0:0:
474,334,106676,2,0,L|389:338,1,85,0|0,3:0|0:0,0:0:0:0:
337,204,106930,2,0,L|320:288,1,85,2|0,3:2|0:0,0:0:0:0:
459,83,107184,2,0,L|474:-1,1,85,2|0,3:2|0:0,0:0:0:0:
305,126,107439,2,0,L|471:159,1,170,10|0,0:2|3:0,0:0:0:0:
305,126,107947,5,0,3:0:0:0:
288,54,108074,1,0,3:0:0:0:
187,113,108201,1,0,3:0:0:0:
241,162,108328,1,0,3:0:0:0:
217,48,108456,2,0,B|129:24|129:24|110:116,1,170,8|0,3:2|3:0,0:0:0:0:
91,309,108964,1,2,3:2:0:0:
91,309,109218,2,0,B|52:283|52:283|191:300,2,170,0|10|0,3:0|0:0|3:0,0:0:0:0:
156,86,109981,5,0,3:0:0:0:
147,202,110108,1,0,3:0:0:0:
85,105,110235,1,0,3:0:0:0:
195,148,110362,1,0,3:0:0:0:
80,176,110489,2,0,B|-8:240,1,85,8|0,3:2|0:0,0:0:0:0:
231,77,110744,2,0,B|299:27,1,85,0|0,3:0|0:0,0:0:0:0:
85,105,110998,2,0,B|-23:116,1,85,2|0,3:2|0:0,0:0:0:0:
268,144,111252,2,0,B|352:135,1,85,2|0,3:2|0:0,0:0:0:0:
116,285,111506,2,0,B|118:221|118:221|204:137,1,170,10|0,3:2|3:0,0:0:0:0:
194,147,112015,5,0,3:0:0:0:
206,263,112142,1,0,3:0:0:0:
264,163,112269,1,0,3:0:0:0:
156,210,112396,1,0,3:0:0:0:
273,234,112523,1,8,3:2:0:0:
460,46,112778,2,0,L|285:34,1,170,0|2,3:0|0:0,0:0:0:0:
337,295,113286,2,0,L|325:206,1,85,0|0,3:0|0:0,0:0:0:0:
280,48,113540,2,0,L|450:60,1,170,10|0,3:2|2:0,0:0:0:0:
329,176,114049,5,0,3:0:0:0:
316,290,114176,1,0,3:0:0:0:
259,191,114303,1,0,3:0:0:0:
365,237,114430,1,0,3:0:0:0:
251,262,114557,2,0,L|168:280,1,85,8|0,3:2|0:0,0:0:0:0:
13,362,114812,2,0,L|96:344,1,85,0|0,3:0|0:0,0:0:0:0:
0,130,115066,2,0,L|9:215,1,85,2|0,3:2|0:2,0:0:0:0:
225,92,115320,2,0,L|222:7,1,85,2|0,3:2|0:0,0:0:0:0:
123,100,115574,2,0,L|103:272,1,170,10|0,3:2|3:0,0:0:0:0:
104,270,116083,6,0,L|96:320,1,42.5,2|0,3:3|2:0,0:0:0:0:
224,310,116337,2,0,L|272:321,1,42.5,2|0,3:3|2:0,0:0:0:0:
208,208,116591,2,0,P|218:160|192:88,1,127.5,0|0,0:0|2:0,0:0:0:0:
112,161,117100,6,0,L|68:153,1,42.5,2|0,3:3|2:0,0:0:0:0:
163,282,117354,2,0,L|228:277,1,42.5,2|0,3:3|2:0,0:0:0:0:
304,176,117608,2,0,L|273:176,1,30.6000007470703,0|0,0:0|2:0,0:0:0:0:
256,168,118117,6,0,B|296:312|296:312|280:376,1,207.399991455384,4|2,1:0|0:3,0:0:0:0:
281,368,118498,1,0,1:0:0:0:
165,308,118625,1,10,0:2:0:0:
371,245,118752,1,0,0:0:0:0:
128,152,118879,2,0,B|344:160,1,207.399991455384,0|2,1:3|0:2,0:0:0:0:
335,159,119261,1,0,0:0:0:0:
179,248,119388,1,2,1:3:0:0:
237,44,119515,1,0,0:0:0:0:
280,280,119642,2,0,L|288:384,1,103.699995727692,10|0,1:2|0:0,0:0:0:0:
472,128,119896,2,0,L|480:24,1,103.699995727692,0|0,1:3|0:0,0:0:0:0:
248,208,120150,6,0,B|224:352|224:352|160:328,1,207.399991455384,0|2,1:0|0:3,0:0:0:0:
166,330,120532,1,0,1:1:0:0:
126,133,120659,1,10,0:2:0:0:
331,155,120786,1,0,0:0:0:0:
109,136,120913,2,0,B|78:196|78:196|216:168,1,207.399991455384,0|2,1:3|0:2,0:0:0:0:
302,64,121295,1,0,0:0:0:0:
440,237,121422,2,0,L|338:259,1,103.699995727692,2|0,1:3|0:0,0:0:0:0:
109,135,121676,2,0,B|85:303|85:303|109:332,1,207.399991455384,10|0,0:2|1:3,0:0:0:0:
109,332,122057,1,0,0:0:0:0:
245,244,122184,6,0,B|317:284|317:284|454:248,1,207.399991455384,0|2,1:0|0:3,0:0:0:0:
486,187,122566,1,0,1:0:0:0:
405,358,122693,1,10,0:2:0:0:
309,151,122820,1,0,0:0:0:0:
238,256,122947,2,0,B|310:296|310:296|436:264,1,207.399991455384,0|2,1:3|0:2,0:0:0:0:
431,265,123328,1,0,0:0:0:0:
317,135,123456,1,2,1:2:0:0:
475,193,123583,1,0,0:0:0:0:
208,175,123710,2,0,B|56:159|56:159|96:223,1,207.399991455384,8|2,1:2|1:2,0:0:0:0:
84,205,124091,1,0,0:0:0:0:
270,53,124218,6,0,L|486:74,1,207.399991455384,0|2,1:2|0:3,0:0:0:0:
476,73,124600,1,0,1:0:0:0:
381,262,124727,2,0,L|277:254,1,103.699995727692,8|0,0:2|0:0,0:0:0:0:
80,152,124981,2,0,L|183:159,1,103.699995727692,2|0,1:2|0:0,0:0:0:0:
489,198,125235,5,2,3:2:0:0:
336,228,125362,1,2,3:2:0:0:
184,263,125489,2,0,P|144:263|184:247,1,103.699995727692,0|0,1:0|2:0,0:0:0:0:
174,236,125744,5,10,3:2:0:0:
337,213,125871,1,2,3:2:0:0:
494,179,125998,2,0,P|471:180|502:163,1,103.699995727692,0|0,1:0|2:0,0:0:0:0:
502,164,126252,6,0,B|409:124|409:124|307:152,1,207.399991455384,4|2,1:1|0:3,0:0:0:0:
26,167,126634,1,0,1:0:0:0:
214,212,126761,1,10,0:2:0:0:
107,52,126888,1,0,0:0:0:0:
113,238,127015,2,0,B|106:373|106:373|178:349,1,207.399991455384,0|2,1:3|0:2,0:0:0:0:
336,273,127396,1,0,0:0:0:0:
112,147,127523,1,2,1:3:0:0:
314,113,127650,1,0,0:0:0:0:
240,264,127778,2,0,L|252:367,1,103.699995727692,10|0,1:2|0:0,0:0:0:0:
472,136,128032,2,0,L|477:33,1,103.699995727692,0|0,1:3|0:0,0:0:0:0:
303,167,128286,6,0,B|318:308|318:308|358:256,1,207.399991455384,0|2,1:0|0:3,0:0:0:0:
357,256,128667,1,0,1:0:0:0:
184,204,128795,1,10,0:2:0:0:
453,238,128922,1,0,0:0:0:0:
303,167,129049,2,0,B|296:86|296:86|408:142,1,207.399991455384,0|2,1:3|0:2,0:0:0:0:
408,142,129430,1,0,0:0:0:0:
168,104,129557,1,2,1:3:0:0:
270,254,129684,1,0,0:0:0:0:
376,32,129812,2,0,B|368:256,1,207.399991455384,10|0,1:2|1:3,0:0:0:0:
368,239,130193,1,0,0:0:0:0:
209,179,130320,6,0,B|95:188|95:188|154:103,1,207.399991455384,0|2,1:0|3:3,0:0:0:0:
189,47,130701,1,0,1:0:0:0:
224,256,130828,2,0,L|0:272,1,207.399991455384,10|0,0:2|1:3,0:0:0:0:
17,270,131210,1,0,0:0:0:0:
189,47,131337,2,0,B|253:114|253:114|139:123,1,207.399991455384,2|0,0:2|1:0,0:0:0:0:
138,123,131718,1,0,0:0:0:0:
5,47,131845,1,8,1:1:0:0:
5,47,132100,2,0,L|109:55,1,103.699995727692,0|0,1:3|0:0,0:0:0:0:
418,233,132354,6,0,B|366:201|366:201|222:225,1,207.399991455384,0|2,1:0|0:3,0:0:0:0:
221,225,132735,1,0,1:0:0:0:
376,96,132862,2,0,L|480:104,1,103.699995727692,10|0,0:2|0:0,0:0:0:0:
166,162,133117,2,0,L|62:154,1,103.699995727692,0|0,1:3|0:0,0:0:0:0:
353,326,133371,2,0,L|457:335,1,103.699995727692,2|0,0:2|0:0,0:0:0:0:
283,141,133625,2,0,L|179:133,1,103.699995727692,0|0,1:2|0:0,0:0:0:0:
440,152,133879,2,0,B|488:200|488:200|454:346,2,207.399991455384,10|0|4,1:2|3:0|1:1,0:0:0:0:
256,192,134642,12,0,136422,1:0:0:0:
85,148,136676,5,0,3:0:0:0:
128,298,136803,1,0,1:0:0:0:
231,184,136930,2,0,P|202:214|200:256,1,85,10|0,3:2|2:0,0:0:0:0:
400,328,137184,2,0,P|358:325|328:296,1,85,0|0,1:2|0:0,0:0:0:0:
139,181,137439,2,0,L|224:176,1,85,0|0,3:0|2:0,0:0:0:0:
448,144,137693,2,0,L|432:240,1,85,0|0,1:2|2:0,0:0:0:0:
248,80,137947,2,0,P|341:90|427:51,1,170,10|0,0:2|1:2,0:0:0:0:
410,62,138328,1,2,0:0:0:0:
239,62,138456,5,4,1:0:0:0:
256,192,138583,12,0,140489,1:0:0:0:
168,112,140871,5,0,1:0:0:0:
168,112,140998,2,0,P|200:192|160:264,1,170,10|0,0:2|1:3,0:0:0:0:
11,198,141506,2,0,L|96:192,1,85,0|0,3:0|2:0,0:0:0:0:
307,174,141761,2,0,L|392:168,1,85,0|0,1:0|2:0,0:0:0:0:
216,256,142015,2,0,P|184:176|224:104,1,170,10|0,0:2|0:3,0:0:0:0:
224,112,142396,1,2,3:2:0:0:
320,248,142523,6,0,B|440:280|440:280|496:256,1,170,0|0,1:0|0:3,0:0:0:0:
482,261,142905,1,0,1:0:0:0:
392,120,143032,1,10,0:0:0:0:
392,120,143286,2,0,L|376:24,1,85,0|0,1:0|0:0,0:0:0:0:
208,160,143540,2,0,L|200:264,1,85,0|0,3:0|0:0,0:0:0:0:
387,254,143795,2,0,L|472:248,1,85,0|0,1:0|0:0,0:0:0:0:
200,72,144049,2,0,P|199:152|273:181,1,170,10|0,0:2|0:3,0:0:0:0:
273,181,144430,1,2,3:2:0:0:
96,144,144557,6,0,B|81:285|81:285|41:260,1,170,0|0,1:0|0:3,0:0:0:0:
57,270,144939,1,0,1:0:0:0:
232,240,145066,2,0,P|320:232|401:227,1,170,10|0,0:2|1:0,0:0:0:0:
401,226,145447,1,0,0:2:0:0:
309,283,145574,2,0,L|322:199,1,85,0|0,3:0|2:0,0:0:0:0:
448,96,145828,1,0,1:0:0:0:
409,215,145956,1,0,2:0:0:0:
217,73,146083,2,0,B|205:144|205:144|233:185|233:185|239:253,1,170,10|0,0:2|0:3,0:0:0:0:
237,233,146464,1,2,3:2:0:0:
24,184,146591,6,0,P|102:168|102:264,1,170,0|0,1:0|0:3,0:0:0:0:
136,336,146973,1,0,1:0:0:0:
197,160,147100,1,10,0:0:0:0:
48,295,147227,1,0,2:0:0:0:
295,155,147354,2,0,L|288:240,1,85,0|0,1:0|2:0,0:0:0:0:
480,64,147608,2,0,L|307:59,1,170,0|0,3:0|1:0,0:0:0:0:
104,120,147989,1,0,3:0:0:0:
192,192,148117,1,10,0:2:0:0:
376,136,148244,1,0,2:0:0:0:
304,66,148371,2,0,L|220:62,1,85,0|0,3:3|0:0,0:0:0:0:
87,198,148625,6,0,B|192:191|192:191|248:224,1,170,0|2,1:0|0:2,0:0:0:0:
247,223,149006,1,0,1:0:0:0:
72,216,149134,2,0,L|184:208,1,85,10|0,0:2|0:0,0:0:0:0:
240,344,149388,2,0,L|155:350,1,85,0|0,1:0|0:0,0:0:0:0:
56,192,149642,5,2,0:0:0:0:
272,352,149769,1,0,0:0:0:0:
332,185,149896,2,0,L|248:192,1,85,0|0,1:2|0:0,0:0:0:0:
296,360,150150,2,0,L|380:352,1,85,10|0,0:2|0:0,0:0:0:0:
320,176,150405,6,0,L|272:184,1,40.8000009960938,2|0,3:2|0:0,0:0:0:0:
188,203,151040,5,0,0:0:0:0:
191,215,151167,2,0,P|143:256|91:218,1,127.500004863739,2|0,0:0|0:0,0:0:0:0:
91,214,151676,2,0,P|143:242|187:201,1,127.500004863739,0|0,0:0|0:0,0:0:0:0:
184,189,152184,2,0,P|136:230|84:192,1,127.500004863739,2|0,0:0|0:0,0:0:0:0:
311,82,152947,5,0,0:0:0:0:
311,82,153074,1,0,0:0:0:0:
311,82,153201,2,0,P|358:40|410:78,1,127.500004863739,2|0,0:0|0:0,0:0:0:0:
412,83,153710,2,0,P|359:54|315:95,1,127.500004863739,0|0,0:0|0:0,0:0:0:0:
319,109,154218,2,0,P|366:67|418:105,1,127.500004863739,2|0,0:0|0:0,0:0:0:0:
312,256,154981,5,0,0:0:0:0:
312,256,155108,1,0,0:0:0:0:
312,256,155235,2,0,P|373:240|403:296,1,127.500004863739,10|0,0:0|0:0,0:0:0:0:
396,307,155744,2,0,P|335:323|305:267,1,127.500004863739,0|0,0:0|0:0,0:0:0:0:
312,256,156252,2,0,P|373:240|403:296,1,127.500004863739,10|0,0:0|0:0,0:0:0:0:
200,128,157015,5,0,0:0:0:0:
200,128,157142,1,0,0:0:0:0:
200,128,157269,2,0,P|139:144|109:88,1,127.500004863739,10|0,0:0|0:0,0:0:0:0:
116,77,157778,2,0,P|177:61|207:117,1,127.500004863739,0|0,0:0|0:0,0:0:0:0:
200,128,158286,2,0,P|139:144|109:88,1,127.500004863739,10|0,0:0|0:0,0:0:0:0:
325,227,158795,6,0,L|312:360,1,127.500004863739,0|0,3:0|0:0,0:0:0:0:
311,351,159176,1,0,0:0:0:0:
110,319,159303,2,0,P|174:303|246:311,1,127.500004863739,10|0,0:0|0:0,0:0:0:0:
312,352,159684,1,0,0:0:0:0:
509,383,159812,2,0,P|458:343|398:324,1,127.500004863739,0|0,0:0|0:0,0:0:0:0:
312,352,160193,1,0,0:0:0:0:
103,310,160320,2,0,P|164:294|227:298,1,127.500004863739,10|0,0:0|0:0,0:0:0:0:
180,42,160828,6,0,L|192:178,1,127.500004863739,0|0,3:0|0:0,0:0:0:0:
193,169,161210,1,0,0:0:0:0:
392,110,161337,2,0,P|328:94|256:102,1,127.500004863739,10|0,0:0|0:0,0:0:0:0:
185,167,161718,1,0,0:0:0:0:
0,170,161845,2,0,P|51:130|111:111,1,127.500004863739,0|0,0:0|0:0,0:0:0:0:
185,167,162227,1,0,0:0:0:0:
392,101,162354,2,0,P|331:85|268:89,1,127.500004863739,10|0,0:0|0:0,0:0:0:0:
272,368,162862,6,0,L|280:240,1,127.500004863739,0|0,3:0|0:0,0:0:0:0:
288,152,163244,1,0,0:0:0:0:
368,72,163371,2,0,P|392:136|380:196,1,127.500004863739,10|0,0:0|0:0,0:0:0:0:
288,144,163752,1,0,0:0:0:0:
200,216,163879,2,0,P|176:152|188:92,1,127.500004863739,0|0,0:0|0:0,0:0:0:0:
288,136,164261,1,0,0:0:0:0:
368,72,164388,2,0,P|392:136|380:196,1,127.500004863739,10|0,0:0|0:0,0:0:0:0:
256,192,164896,12,0,166676,2:0:0:0:
48,224,166930,6,0,B|254:239,1,207.399991455384,4|2,1:0|0:3,0:0:0:0:
254,239,167312,1,0,1:0:0:0:
218,353,167439,1,10,0:2:0:0:
145,124,167566,1,0,0:0:0:0:
75,239,167693,2,0,B|283:255,1,207.399991455384,0|2,1:0|0:2,0:0:0:0:
281,254,168074,1,0,0:0:0:0:
138,132,168201,1,0,1:3:0:0:
354,116,168328,1,0,0:0:0:0:
144,232,168456,2,0,L|152:336,1,103.699995727692,10|0,0:2|0:0,0:0:0:0:
368,123,168710,2,0,L|376:19,1,103.699995727692,0|0,1:3|0:0,0:0:0:0:
256,216,168964,6,0,B|234:273|234:273|378:297,1,207.399991455384,0|2,1:0|0:3,0:0:0:0:
378,297,169345,1,0,1:1:0:0:
382,124,169473,1,10,0:2:0:0:
165,224,169600,1,0,0:0:0:0:
371,219,169727,2,0,B|515:213|515:213|478:157,1,207.399991455384,0|2,1:0|0:2,0:0:0:0:
480,160,170108,1,0,0:0:0:0:
208,107,170235,2,0,L|106:121,1,103.699995727692,0|0,1:3|0:0,0:0:0:0:
168,280,170489,2,0,B|232:272|232:272|312:288|312:288|384:272,1,207.399991455384,10|0,1:2|1:0,0:0:0:0:
371,274,170871,1,0,0:0:0:0:
176,96,170998,6,0,B|167:303,1,207.399991455384,0|2,1:0|0:3,0:0:0:0:
166,303,171379,1,0,1:0:0:0:
258,235,171506,1,10,0:2:0:0:
86,128,171634,1,0,0:0:0:0:
352,150,171761,2,0,B|444:161|444:161|420:273,1,207.399991455384,0|2,1:0|0:2,0:0:0:0:
419,273,172142,1,0,0:0:0:0:
170,184,172269,1,2,1:2:0:0:
291,71,172396,1,0,0:0:0:0:
224,288,172523,2,0,B|72:272|72:272|100:318,1,207.399991455384,8|2,0:2|1:2,0:0:0:0:
100,318,172905,1,0,0:0:0:0:
243,96,173032,6,0,L|219:302,1,207.399991455384,0|2,1:0|0:3,0:0:0:0:
218,302,173413,1,0,1:0:0:0:
362,168,173540,2,0,L|466:176,1,103.699995727692,8|0,0:2|0:0,0:0:0:0:
402,287,173795,2,0,L|299:280,1,103.699995727692,2|0,1:2|0:0,0:0:0:0:
290,291,174049,5,2,3:2:0:0:
222,151,174176,1,2,3:2:0:0:
149,13,174303,2,0,P|125:13|157:29,1,103.699995727692,0|0,1:0|2:0,0:0:0:0:
162,4,174557,5,10,3:2:0:0:
233,141,174684,1,2,3:2:0:0:
290,291,174812,2,0,P|320:314|282:309,1,103.699995727692,0|0,1:0|2:0,0:0:0:0:
282,308,175066,6,0,B|384:280|384:280|477:320,1,207.399991455384,4|2,1:1|0:3,0:0:0:0:
477,320,175447,1,0,1:0:0:0:
296,149,175574,1,10,0:2:0:0:
344,366,175701,1,0,0:0:0:0:
478,138,175828,2,0,B|412:116|412:116|450:249,1,207.399991455384,0|2,1:0|0:2,0:0:0:0:
449,248,176210,1,0,0:0:0:0:
199,255,176337,1,0,1:3:0:0:
332,103,176464,1,0,0:0:0:0:
224,56,176591,2,0,L|236:159,1,103.699995727692,10|0,1:2|0:0,0:0:0:0:
440,320,176845,2,0,L|448:216,1,103.699995727692,0|0,1:0|0:0,0:0:0:0:
224,40,177100,6,0,B|209:181|209:181|169:129,1,207.399991455384,0|2,1:0|0:3,0:0:0:0:
169,129,177481,1,0,1:0:0:0:
146,318,177608,1,10,0:2:0:0:
54,95,177735,1,0,0:0:0:0:
256,224,177862,2,0,B|344:280|344:280|384:184,1,207.399991455384,0|2,1:0|0:2,0:0:0:0:
383,184,178244,1,0,0:0:0:0:
451,297,178371,1,0,1:3:0:0:
192,154,178498,1,0,0:0:0:0:
408,168,178625,2,0,B|368:264|368:264|280:208,1,207.399991455384,10|0,0:2|1:0,0:0:0:0:
280,208,179006,1,0,0:0:0:0:
299,64,179134,6,0,B|441:52|441:52|485:114,1,207.399991455384,0|2,1:0|3:3,0:0:0:0:
305,203,179515,1,0,1:0:0:0:
120,144,179642,2,0,L|136:368,1,207.399991455384,10|0,0:2|1:0,0:0:0:0:
134,350,180023,1,0,0:0:0:0:
23,112,180150,2,0,L|38:319,1,207.399991455384,2|0,0:2|1:3,0:0:0:0:
37,318,180532,1,0,0:0:0:0:
211,220,180659,1,8,0:1:0:0:
217,231,180913,2,0,B|224:335,1,103.699995727692,0|0,1:0|0:0,0:0:0:0:
280,128,181167,6,0,B|376:80|376:80|476:136,1,207.399991455384,0|2,1:0|0:3,0:0:0:0:
463,128,181549,1,0,1:0:0:0:
304,240,181676,2,0,L|296:344,1,103.699995727692,10|0,0:2|0:0,0:0:0:0:
144,144,181930,2,0,L|152:40,1,103.699995727692,0|0,1:0|0:0,0:0:0:0:
292,251,182184,2,0,L|396:259,1,103.699995727692,2|0,0:2|0:0,0:0:0:0:
139,128,182439,2,0,L|35:120,1,103.699995727692,0|0,1:3|0:0,0:0:0:0:
0,304,182693,2,0,B|70:274|70:274|216:312,1,207.399991455384,10|0,0:2|1:0,0:0:0:0:
197,307,183201,6,0,B|323:339|323:339|394:310,1,207.399991455384,4|2,1:1|0:3,0:0:0:0:
394,309,183583,1,0,1:0:0:0:
335,159,183710,1,10,0:2:0:0:
189,318,183837,1,0,0:0:0:0:
128,152,183964,2,0,B|344:160,1,207.399991455384,0|2,1:0|0:2,0:0:0:0:
427,218,184345,1,0,0:0:0:0:
280,45,184473,1,0,1:3:0:0:
188,232,184600,1,0,0:0:0:0:
32,56,184727,2,0,L|40:160,1,103.699995727692,10|0,1:2|0:0,0:0:0:0:
352,324,184981,2,0,L|360:220,1,103.699995727692,0|0,1:0|0:0,0:0:0:0:
176,320,185235,6,0,B|312:296|312:296|368:352,1,207.399991455384,0|2,1:0|0:3,0:0:0:0:
361,345,185617,1,0,1:0:0:0:
352,145,185744,1,10,0:2:0:0:
449,238,185871,1,0,0:0:0:0:
217,219,185998,2,0,B|80:208|80:208|24:152,1,207.399991455384,0|2,1:0|0:2,0:0:0:0:
30,158,186379,1,0,0:0:0:0:
216,236,186506,2,0,L|229:338,1,103.699995727692,0|0,1:3|0:0,0:0:0:0:
88,286,186761,2,0,B|104:80,1,207.399991455384,10|0,0:2|1:0,0:0:0:0:
104,79,187142,1,0,0:0:0:0:
232,244,187269,6,0,B|263:297|263:297|409:254,1,207.399991455384,0|2,1:0|0:3,0:0:0:0:
401,258,187650,1,0,1:0:0:0:
234,162,187778,1,10,0:2:0:0:
214,359,187905,1,0,0:0:0:0:
152,256,188032,2,0,B|139:140|139:140|96:232,1,207.399991455384,0|2,1:0|0:2,0:0:0:0:
100,222,188413,1,0,0:0:0:0:
168,48,188540,1,2,1:2:0:0:
188,323,188667,1,0,0:0:0:0:
83,211,188795,2,0,B|55:165|55:165|207:181,1,207.399991455384,8|2,1:2|1:2,0:0:0:0:
207,181,189176,1,0,0:0:0:0:
104,320,189303,6,0,L|319:344,1,207.399991455384,0|2,1:0|0:3,0:0:0:0:
310,343,189684,1,0,1:0:0:0:
287,147,189812,2,0,L|295:43,1,103.699995727692,8|0,0:2|0:0,0:0:0:0:
430,237,190066,2,0,L|422:341,1,103.699995727692,2|0,1:2|0:0,0:0:0:0:
400,344,190320,5,2,3:2:0:0:
360,193,190447,1,2,3:2:0:0:
312,45,190574,2,0,P|312:21|320:53,1,103.699995727692,0|0,1:0|2:0,0:0:0:0:
348,49,190828,5,10,3:2:0:0:
382,201,190956,1,2,3:2:0:0:
416,352,191083,2,0,P|416:376|408:344,1,103.699995727692,0|0,1:0|2:0,0:0:0:0:
379,347,191337,6,0,B|286:307|286:307|184:335,1,207.399991455384,4|2,1:0|0:3,0:0:0:0:
183,335,191718,1,0,1:0:0:0:
305,207,191845,1,10,0:2:0:0:
64,160,191973,1,0,0:0:0:0:
224,16,192100,2,0,B|252:151|252:151|305:96,1,207.399991455384,0|2,1:0|0:2,0:0:0:0:
300,100,192481,1,0,0:0:0:0:
174,253,192608,1,0,1:3:0:0:
88,80,192735,1,0,0:0:0:0:
296,224,192862,2,0,L|308:327,1,103.699995727692,10|0,0:2|0:0,0:0:0:0:
112,120,193117,2,0,L|117:17,1,103.699995727692,0|0,1:0|0:0,0:0:0:0:
304,168,193371,6,0,B|319:309|319:309|359:257,1,207.399991455384,0|2,1:0|0:3,0:0:0:0:
358,257,193752,1,0,1:0:0:0:
208,336,193879,1,10,0:2:0:0:
184,154,194006,1,0,0:0:0:0:
144,256,194134,2,0,B|6:221|6:221|41:277,1,207.399991455384,0|2,1:0|0:2,0:0:0:0:
40,276,194515,1,0,0:0:0:0:
180,172,194642,1,0,1:3:0:0:
236,339,194769,1,0,0:0:0:0:
368,256,194896,2,0,B|505:221|505:221|470:277,1,207.399991455384,10|0,0:2|1:0,0:0:0:0:
470,277,195278,1,0,0:0:0:0:
160,152,195405,6,0,L|368:160,1,207.399991455384,0|2,1:0|3:3,0:0:0:0:
367,159,195786,1,0,1:0:0:0:
192,74,195913,2,0,B|280:144|280:144|213:215,1,207.399991455384,10|0,0:2|1:0,0:0:0:0:
216,212,196295,1,0,0:0:0:0:
366,158,196422,2,0,B|381:365,1,207.399991455384,2|0,0:2|1:3,0:0:0:0:
381,365,196803,1,0,0:0:0:0:
147,322,196930,1,8,0:2:0:0:
147,322,197184,2,0,L|251:330,1,103.699995727692,0|0,1:0|0:0,0:0:0:0:
240,144,197439,6,0,B|272:196|272:196|248:340,1,207.399991455384,0|2,1:0|0:3,0:0:0:0:
247,340,197820,1,0,1:0:0:0:
64,208,197947,2,0,L|168:216,1,103.699995727692,10|0,0:2|0:0,0:0:0:0:
429,103,198201,2,0,L|325:95,1,103.699995727692,0|0,1:0|0:0,0:0:0:0:
394,250,198456,2,0,L|498:258,1,103.699995727692,2|0,0:2|0:0,0:0:0:0:
245,152,198710,2,0,L|253:256,1,103.699995727692,0|0,1:3|0:0,0:0:0:0:
0,336,198964,2,0,B|96:328|96:328|112:336|112:336|208:328,1,207.399991455384,10|2,0:2|2:3,0:0:0:0:
266,36,199473,6,0,P|314:105|296:194,1,170,4|2,1:0|0:3,0:0:0:0:
301,185,199854,1,0,1:0:0:0:
112,120,199981,2,0,L|16:128,1,85,10|0,0:2|0:0,0:0:0:0:
153,222,200235,2,0,P|222:173|312:192,1,170,0|0,1:0|0:0,0:0:0:0:
157,325,200617,2,0,L|53:317,2,85,0|0|0,1:0|0:3|0:0,0:0:0:0:
248,272,200998,1,10,1:2:0:0:
248,272,201125,1,0,0:0:0:0:
352,352,201252,1,2,1:2:0:0:
352,352,201379,1,0,0:0:0:0:
307,147,201506,6,0,P|237:194|251:276,1,170,0|2,1:0|0:3,0:0:0:0:
246,270,201888,1,0,1:0:0:0:
352,240,202015,2,0,L|448:248,1,85,10|0,0:2|0:0,0:0:0:0:
307,147,202269,2,0,P|237:98|148:116,1,170,0|0,1:0|0:0,0:0:0:0:
96,200,202650,2,0,L|11:206,2,85,0|0|0,1:0|0:0|0:0,0:0:0:0:
224,248,203032,1,10,1:2:0:0:
224,248,203159,1,0,0:0:0:0:
160,360,203286,1,2,1:2:0:0:
160,360,203413,1,0,0:0:0:0:
373,284,203540,6,0,P|303:235|214:253,1,170,0|2,1:0|0:3,0:0:0:0:
223,247,203922,1,0,1:0:0:0:
16,296,204049,2,0,L|112:304,1,85,10|0,0:2|0:0,0:0:0:0:
187,98,204303,2,0,P|235:165|223:247,1,170,0|0,1:0|0:3,0:0:0:0:
336,176,204684,2,0,L|440:168,2,85,0|0|0,1:0|0:0|0:0,0:0:0:0:
280,296,205066,1,10,1:2:0:0:
280,296,205193,1,0,0:0:0:0:
168,240,205320,1,2,1:2:0:0:
168,240,205447,1,0,0:0:0:0:
64,312,205574,6,0,P|133:360|222:342,1,170,0|2,1:0|0:3,0:0:0:0:
213,347,205956,1,0,1:0:0:0:
256,195,206083,2,0,L|264:291,1,85,10|0,0:2|0:0,0:0:0:0:
360,112,206337,2,0,L|352:208,1,85,0|0,1:0|0:0,0:0:0:0:
352,216,206591,5,2,3:2:0:0:
248,192,206718,1,2,3:2:0:0:
136,168,206845,2,0,P|104:160|128:184,1,85,0|0,1:0|0:0,0:0:0:0:
64,336,207100,5,10,3:2:0:0:
168,312,207227,1,2,3:2:0:0:
279,289,207354,2,0,P|310:280|291:306,1,85,0|0,1:0|0:0,0:0:0:0:
245,36,207608,6,0,P|196:105|214:194,1,170,0|2,1:0|0:3,0:0:0:0:
208,185,207989,1,0,1:0:0:0:
408,136,208117,2,0,L|504:144,1,85,8|0,0:2|0:0,0:0:0:0:
358,222,208371,2,0,P|289:173|200:192,1,170,0|0,1:0|0:0,0:0:0:0:
376,320,208752,2,0,L|480:312,2,85,0|0|0,1:0|0:0|0:0,0:0:0:0:
264,272,209134,1,10,1:2:0:0:
264,272,209261,1,0,0:0:0:0:
192,376,209388,1,2,1:2:0:0:
192,376,209515,1,0,0:0:0:0:
80,144,209642,6,0,P|149:191|136:273,1,170,0|2,1:0|0:3,0:0:0:0:
139,268,210023,1,0,1:0:0:0:
64,152,210150,2,0,L|148:144,1,85,8|0,0:2|0:0,0:0:0:0:
256,232,210405,2,0,P|333:254|389:194,1,170,0|0,1:0|0:0,0:0:0:0:
480,288,210786,2,0,L|474:372,2,85,0|0|0,1:0|0:0|0:0,0:0:0:0:
392,200,211167,1,10,1:2:0:0:
392,200,211295,1,0,0:0:0:0:
472,112,211422,1,2,1:2:0:0:
472,112,211549,1,0,0:0:0:0:
357,67,211676,6,0,P|332:143|391:199,1,170,0|2,1:0|0:3,0:0:0:0:
390,198,212057,1,0,1:0:0:0:
312,272,212184,2,0,L|216:280,1,85,8|0,0:2|0:0,0:0:0:0:
80,104,212439,2,0,P|71:184|139:228,1,170,0|0,1:0|0:0,0:0:0:0:
272,56,212820,2,0,L|376:48,2,85,0|0|0,1:0|0:0|0:0,0:0:0:0:
176,144,213201,1,10,1:2:0:0:
176,144,213328,1,0,0:0:0:0:
272,240,213456,1,2,1:2:0:0:
272,240,213583,1,0,0:0:0:0:
96,368,213710,6,0,P|165:321|152:239,1,170,0|2,1:0|0:3,0:0:0:0:
155,243,214091,1,0,1:0:0:0:
176,136,214218,2,0,L|80:128,1,85,8|0,0:2|0:0,0:0:0:0:
288,256,214473,2,0,L|384:248,1,85,0|0,1:0|0:0,0:0:0:0:
386,237,214727,5,2,3:2:0:0:
279,212,214854,1,2,3:2:0:0:
170,189,214981,2,0,P|138:181|162:205,1,85,0|0,1:0|0:0,0:0:0:0:
257,359,215235,5,10,3:2:0:0:
364,335,215362,1,2,3:2:0:0:
472,312,215489,2,0,P|503:303|484:329,1,85,0|0,1:0|0:0,0:0:0:0:
