osu file format v14

[General]
AudioFilename: audio.mp3
AudioLeadIn: 2000
PreviewTime: 166930
Countdown: 0
SampleSet: Soft
StackLeniency: 0.7
Mode: 0
LetterboxInBreaks: 0
WidescreenStoryboard: 1

[Editor]
Bookmarks: 3202,36761,53032,85574,117990,134388,150659
DistanceSpacing: 1.8
BeatDivisor: 4
GridSize: 4
TimelineZoom: 2.5

[Metadata]
Title:Worship
TitleUnicode:Worship
Artist:Years & Years
ArtistUnicode:Years & Years
Creator:vivicat
Version:Beren's Hard
Source:
Tags:english pop Communion (Deluxe) Electronica Olly Alexander Mikey Goldsworthy Emre Turkmen Beren Yusomi ruchuers Puvn
BeatmapID:2800584
BeatmapSetID:1352008

[Difficulty]
HPDrainRate:3
CircleSize:3
OverallDifficulty:6
ApproachRate:7.5
SliderMultiplier:1.6
SliderTickRate:1

[Events]
//Background and Video events
0,0,"bg.jpg",0,0
//Break Periods
2,69503,84749
2,150605,154156
//Storyboard Layer 0 (Background)
//Storyboard Layer 1 (Fail)
//Storyboard Layer 2 (Pass)
//Storyboard Layer 3 (Foreground)
//Storyboard Layer 4 (Overlay)
//Storyboard Sound Samples

[TimingPoints]
151,508.474576271186,4,2,0,30,1,0
3710,-100,4,2,0,50,0,0
4218,-100,4,2,0,70,0,0
16421,-100,4,2,0,80,0,0
36760,-100,4,2,1,70,0,0
44895,-100,4,1,0,80,0,0
50997,-100,4,3,1,60,0,0
52522,-100,4,3,0,60,0,0
53032,-100,4,2,2,100,0,1
69303,-100,4,3,0,90,0,0
85065,-100,4,2,0,80,0,0
116082,-100,4,3,1,60,0,0
117607,-100,4,3,1,60,0,0
118117,-100,4,2,2,100,0,1
134388,-100,4,2,0,90,0,0
150404,-100,4,2,1,80,0,0
150791,-100,4,2,1,70,0,0
154726,-100,4,2,1,75,0,0
158794,-100,4,2,1,80,0,0
162862,-100,4,2,1,85,0,0
165912,-100,4,2,1,85,0,0
166930,-100,4,2,2,100,0,1
199473,-100,4,2,0,90,0,0
215616,-100,4,2,0,5,0,0
215743,-100,4,2,0,5,0,0
217777,-100,4,2,0,5,0,0

[Colours]
Combo1 : 235,210,220
Combo2 : 120,142,177
Combo3 : 35,79,158
Combo4 : 146,180,198

[HitObjects]
136,88,3201,6,0,L|64:80,2,40,2|0|0,0:0|0:0|0:0,0:0:0:0:
44,220,3710,6,0,L|-16:228,2,40,2|0|0,0:0|0:0|0:0,0:0:0:0:
236,328,4218,5,4,3:2:0:0:
236,328,4345,1,0,3:0:0:0:
236,328,4473,2,0,L|224:368,2,40,0|0|8,3:0|3:0|3:2,0:0:0:0:
390,344,4981,2,0,P|428:276|398:189,1,160,0|0,3:0|3:2,0:0:0:0:
407,200,5744,2,0,L|503:187,1,80,10|0,0:2|3:3,0:0:0:0:
373,67,6252,6,0,L|311:66,1,40,0|0,3:0|3:0,0:0:0:0:
268,96,6506,2,0,L|254:167,1,40,0|0,3:0|3:0,0:0:0:0:
207,185,6761,1,8,3:2:0:0:
207,185,7015,2,0,P|130:197|72:137,1,160,0|0,3:0|3:2,0:0:0:0:
74,144,7778,2,0,L|89:60,1,80,10|0,0:2|3:0,0:0:0:0:
104,300,8286,5,0,3:0:0:0:
104,300,8413,1,0,3:0:0:0:
104,300,8540,2,0,L|80:364,2,40,0|0|8,3:0|3:0|3:2,0:0:0:0:
245,317,9049,2,0,P|280:274|346:336,1,160,0|0,3:0|3:2,0:0:0:0:
347,327,9812,2,0,L|453:322,1,80,10|0,0:2|3:2,0:0:0:0:
454,122,10320,6,0,L|443:193,1,40,0|0,3:0|3:0,0:0:0:0:
376,151,10574,2,0,L|324:141,1,40,0|0,3:0|3:0,0:0:0:0:
278,109,10828,1,8,3:2:0:0:
278,109,11083,2,0,P|195:153|202:212,1,160,2|2,3:2|3:2,0:0:0:0:
199,207,11845,2,0,L|234:299,1,80,8|2,2:0|3:2,0:0:0:0:
48,176,12354,5,0,3:0:0:0:
48,176,12481,1,0,3:0:0:0:
48,176,12608,2,0,L|-20:192,2,40,0|0|8,3:0|3:0|3:2,0:0:0:0:
155,88,13117,2,0,P|210:119|309:68,1,160,0|0,3:0|3:2,0:0:0:0:
295,87,13879,2,0,L|391:93,1,80,10|0,3:2|3:2,0:0:0:0:
482,273,14388,6,0,L|477:331,1,40,0|0,3:0|3:0,0:0:0:0:
406,318,14642,2,0,L|373:261,1,40,0|0,3:0|3:0,0:0:0:0:
331,236,14896,1,8,3:2:0:0:
331,236,15150,2,0,P|235:273|254:334,1,160,2|2,3:2|3:2,0:0:0:0:
238,311,15913,2,0,L|123:319,1,80,10|0,3:2|0:0,0:0:0:0:
15,179,16422,5,4,3:2:0:0:
106,68,16676,1,2,0:3:0:0:
106,68,16803,1,0,3:2:0:0:
252,90,17057,1,0,0:0:0:0:
252,90,17184,1,2,3:3:0:0:
358,186,17439,1,0,3:2:0:0:
496,146,17693,1,2,3:3:0:0:
409,30,17947,1,8,3:2:0:0:
39,62,18456,5,0,3:2:0:0:
47,205,18710,2,0,L|52:256,1,40,2|0,0:3|3:2,0:0:0:0:
143,352,19091,2,0,L|166:296,1,40,0|2,0:0|3:3,0:0:0:0:
297,278,19473,2,0,L|336:359,2,80,2|0|2,1:2|1:3|1:2,0:0:0:0:
296,64,20489,5,4,3:2:0:0:
296,64,20617,1,0,3:0:0:0:
296,64,20744,2,0,L|284:0,2,40,0|0|8,3:0|3:0|3:2,0:0:0:0:
440,109,21252,2,0,L|442:281,1,160,0|0,3:0|3:2,0:0:0:0:
441,268,22015,2,0,P|390:266|363:288,1,80,10|0,0:2|3:0,0:0:0:0:
236,345,22523,6,0,L|174:340,1,40,0|0,3:0|3:0,0:0:0:0:
132,307,22778,2,0,L|65:318,1,40,0|0,3:0|3:0,0:0:0:0:
28,282,23032,1,8,3:2:0:0:
28,282,23286,2,0,L|52:112,1,160,0|0,3:0|3:2,0:0:0:0:
50,123,24049,2,0,P|106:98|145:112,1,80,10|0,0:2|3:0,0:0:0:0:
268,156,24557,5,0,3:0:0:0:
268,156,24684,1,0,3:0:0:0:
268,156,24812,2,0,L|276:100,2,40,0|0|8,3:0|3:0|3:2,0:0:0:0:
280,308,25320,2,0,B|356:324|356:324|445:304,1,160,0|0,3:0|3:2,0:0:0:0:
436,305,26083,2,0,P|492:304|517:318,1,80,10|0,0:0|3:0,0:0:0:0:
468,178,26591,6,0,L|459:106,1,40,0|0,3:0|3:0,0:0:0:0:
406,92,26845,2,0,L|389:22,1,40,0|0,3:0|3:0,0:0:0:0:
331,38,27100,1,8,3:2:0:0:
331,38,27354,2,0,B|247:52|247:52|182:132,1,160,2|2,3:2|3:2,0:0:0:0:
199,110,28117,2,0,L|103:112,1,80,8|0,3:2|3:2,0:0:0:0:
176,264,28625,5,0,3:0:0:0:
176,264,28752,1,0,3:0:0:0:
176,264,28879,2,0,L|168:320,2,40,0|0|8,3:0|3:0|3:2,0:0:0:0:
323,304,29388,2,0,B|383:315|383:315|372:192,1,160,0|2,3:0|3:2,0:0:0:0:
374,216,30150,2,0,L|464:210,1,80,8|2,0:2|3:2,0:0:0:0:
403,48,30659,6,0,L|333:48,1,40,0|0,3:0|3:0,0:0:0:0:
303,88,30913,2,0,L|241:92,1,40,0|0,3:0|3:0,0:0:0:0:
206,55,31167,1,8,3:2:0:0:
206,55,31422,2,0,B|130:58|130:58|153:176,1,160,2|2,3:2|3:2,0:0:0:0:
146,140,32184,2,0,L|51:140,1,80,10|0,3:2|3:2,0:0:0:0:
52,307,32693,5,4,3:2:0:0:
182,243,32947,1,2,0:3:0:0:
182,243,33074,1,0,3:2:0:0:
267,366,33328,1,0,0:0:0:0:
267,366,33456,1,2,3:3:0:0:
410,366,33710,1,0,3:2:0:0:
499,253,33964,1,2,3:3:0:0:
465,113,34218,1,8,3:2:0:0:
237,40,34727,5,0,3:2:0:0:
195,177,34981,2,0,L|207:225,1,40,2|0,0:3|3:2,0:0:0:0:
291,331,35362,2,0,L|262:384,1,40,0|2,0:0|3:3,0:0:0:0:
128,348,35744,2,0,L|31:356,2,80,2|2|10,1:2|1:3|1:2,0:0:0:0:
483,357,36761,5,6,0:0:0:0:
507,215,37015,1,2,0:0:0:0:
441,86,37269,2,0,P|407:50|310:91,2,160,10|2|10,0:0|0:0|0:0,0:0:0:0:
201,174,38795,2,0,P|119:174|82:89,2,160,2|10|2,0:0|0:0|0:0,0:0:0:0:
324,287,40320,6,0,L|304:380,1,80,10|0,0:0|0:0,0:0:0:0:
201,255,40828,2,0,L|201:173,1,80,2|2,0:0|0:0,0:0:0:0:
301,89,41337,2,0,P|380:67|455:116,2,160,10|2|10,0:0|0:0|0:0,0:0:0:0:
81,195,42862,6,0,P|87:106|174:84,1,160,2|10,0:0|0:0,0:0:0:0:
222,307,43879,2,0,L|63:326,1,160,2|10,0:0|0:0,0:0:0:0:
278,176,44896,5,0,1:0:0:0:
389,285,45150,1,0,2:0:0:0:
389,285,45278,1,0,1:0:0:0:
389,285,45405,2,0,P|402:376|402:376,1,80,8|0,3:2|0:0,0:0:0:0:
256,360,45913,2,0,L|176:362,2,80,0|0|8,2:0|0:0|2:0,0:0:0:0:
419,122,46930,5,0,0:0:0:0:
297,193,47184,1,0,2:0:0:0:
297,193,47312,1,0,0:0:0:0:
297,193,47439,2,0,P|273:133|285:92,1,80,8|0,3:2|0:0,0:0:0:0:
158,33,47947,2,0,L|72:26,2,80,0|0|8,2:0|0:0|3:2,0:0:0:0:
105,316,48964,5,0,0:0:0:0:
226,235,49218,1,0,2:0:0:0:
226,235,49345,1,0,0:0:0:0:
226,235,49473,2,0,L|311:242,1,80,8|0,3:2|0:0,0:0:0:0:
449,239,49981,2,0,P|457:185|450:136,2,80,0|0|8,2:0|0:0|3:2,0:0:0:0:
256,192,50998,12,0,52778,0:0:0:0:
380,212,53032,6,0,P|432:208|452:228,1,80,4|2,1:0|2:3,0:0:0:0:
508,300,53413,1,0,1:0:0:0:
508,300,53540,1,10,0:2:0:0:
336,332,53795,2,0,B|248:324|248:324|260:244,1,160,0|2,1:3|1:3,0:0:0:0:
264,76,54557,1,10,0:2:0:0:
440,80,54812,1,0,1:3:0:0:
264,76,55066,6,0,L|172:72,1,80,0|2,1:0|0:3,0:0:0:0:
104,100,55447,1,0,1:0:0:0:
104,100,55574,2,0,L|114:192,1,80,10|0,0:2|1:3,0:0:0:0:
44,340,56083,2,0,L|24:260,2,80,2|0|10,0:2|1:3|1:2,0:0:0:0:
196,252,56845,1,0,1:3:0:0:
340,352,57100,6,0,L|420:352,1,80,0|2,1:0|0:3,0:0:0:0:
492,300,57481,1,0,1:0:0:0:
492,300,57608,1,10,0:2:0:0:
472,124,57862,2,0,B|408:116|408:116|412:224,1,160,0|2,1:3|1:2,0:0:0:0:
304,352,58625,1,8,1:2:0:0:
328,176,58879,1,2,1:2:0:0:
188,68,59134,6,0,L|100:80,1,80,0|2,1:0|0:2,0:0:0:0:
28,108,59515,1,0,1:0:0:0:
28,108,59642,2,0,L|0:32,2,80,8|2|2,0:2|1:2|3:2,0:0:0:0:
0,320,60405,1,0,1:0:0:0:
120,192,60659,1,10,3:2:0:0:
148,364,60913,1,0,1:0:0:0:
280,244,61167,6,0,B|320:232|320:232|357:238,1,80,4|2,1:0|0:3,0:0:0:0:
436,292,61549,1,0,1:0:0:0:
436,292,61676,1,10,0:2:0:0:
468,120,61930,2,0,P|444:40|404:88,1,160,0|0,1:3|1:3,0:0:0:0:
236,108,62693,1,10,1:2:0:0:
284,276,62947,1,0,1:3:0:0:
124,352,63201,6,0,L|136:248,1,80,0|2,1:0|0:3,0:0:0:0:
88,204,63583,1,0,1:0:0:0:
88,204,63710,2,0,L|4:184,1,80,10|0,0:2|1:3,0:0:0:0:
144,72,64218,2,0,L|152:-8,2,80,2|0|10,0:2|1:3|1:2,0:0:0:0:
196,240,64981,1,0,1:3:0:0:
320,364,65235,6,0,B|368:364|368:364|380:316,1,80,0|2,1:0|0:3,0:0:0:0:
388,248,65617,1,0,1:0:0:0:
388,248,65744,2,0,L|476:252,1,80,10|0,0:2|1:3,0:0:0:0:
476,76,66252,1,2,0:2:0:0:
304,120,66506,1,0,1:3:0:0:
304,120,67015,1,0,1:3:0:0:
256,288,67269,6,0,B|248:332|248:332|212:336,1,80,2|2,1:2|0:3,0:0:0:0:
148,284,67650,1,0,1:0:0:0:
148,284,67778,2,0,L|60:272,1,80,10|0,0:2|1:0,0:0:0:0:
108,100,68286,1,2,0:2:0:0:
280,60,68540,1,0,1:3:0:0:
456,68,68795,2,0,L|468:160,2,80,10|0|4,1:2|1:0|1:0,0:0:0:0:
76,152,85574,5,4,3:2:0:0:
76,152,85701,1,0,3:0:0:0:
76,152,85828,2,0,L|8:144,2,40,0|0|8,3:0|3:0|3:2,0:0:0:0:
182,59,86337,2,0,P|272:43|342:85,1,160,0|0,3:0|3:2,0:0:0:0:
330,72,87100,2,0,L|443:65,1,80,10|0,3:2|3:0,0:0:0:0:
469,198,87608,6,0,L|432:250,1,40,0|0,3:0|3:0,0:0:0:0:
444,303,87862,2,0,L|469:365,2,40,0|0|8,3:0|3:0|3:2,0:0:0:0:
330,214,88371,2,0,B|280:240|280:240|299:361,1,160,0|0,3:0|3:2,0:0:0:0:
296,342,89134,2,0,L|202:344,1,80,10|0,3:2|3:0,0:0:0:0:
116,176,89642,5,0,3:0:0:0:
116,176,89769,1,0,3:0:0:0:
116,176,89896,2,0,L|104:232,2,40,0|0|8,3:0|3:0|3:2,0:0:0:0:
192,51,90405,2,0,B|245:85|245:85|360:43,1,160,0|0,0:0|3:2,0:0:0:0:
336,51,91167,2,0,L|342:160,1,80,10|2,0:2|2:0,0:0:0:0:
492,290,91930,5,2,2:0:0:0:
341,227,92439,2,0,P|282:240|318:329,1,160,2|2,2:0|2:0,0:0:0:0:
294,322,93201,2,0,L|205:356,1,80,8|0,0:2|3:0,0:0:0:0:
56,268,93710,5,0,3:0:0:0:
56,268,93837,1,0,3:0:0:0:
56,268,93964,2,0,L|13:253,2,40,0|0|8,3:0|3:0|3:2,0:0:0:0:
98,119,94473,2,0,B|164:109|164:109|188:89|188:89|282:78,1,160,0|2,3:0|3:2,0:0:0:0:
249,81,95235,2,0,L|263:172,1,80,8|2,3:2|3:2,0:0:0:0:
260,304,95744,6,0,L|255:365,1,40,0|0,3:0|3:0,0:0:0:0:
319,308,95998,2,0,L|338:266,2,40,0|0|8,3:0|3:0|3:2,0:0:0:0:
459,342,96506,2,0,P|492:288|455:198,1,160,2|2,3:2|3:2,0:0:0:0:
460,202,97269,2,0,L|469:94,1,80,8|2,3:2|3:2,0:0:0:0:
240,68,97778,5,0,3:0:0:0:
240,68,97905,1,0,3:2:0:0:
240,68,98032,2,0,L|224:10,2,40,0|0|8,3:0|3:0|0:2,0:0:0:0:
71,117,98540,2,0,B|68:190|44:223|44:223|54:289,1,160,2|2,3:2|3:2,0:0:0:0:
51,271,99303,2,0,L|141:298,1,80,10|0,0:0|3:2,0:0:0:0:
270,314,99812,6,0,L|262:266,1,40,0|0,3:0|3:0,0:0:0:0:
254,203,100066,2,0,L|267:151,2,40,0|0|8,3:0|3:0|3:2,0:0:0:0:
395,228,100574,1,0,3:0:0:0:
483,113,100828,2,0,L|464:-3,2,80,2|2|2,1:2|1:2|1:2,0:0:0:0:
296,332,101845,6,0,L|210:344,1,80,4|0,3:2|3:0,0:0:0:0:
145,352,102227,1,0,3:0:0:0:
145,352,102354,2,0,P|108:293|117:249,1,80,8|0,3:2|3:0,0:0:0:0:
88,142,102862,1,2,3:2:0:0:
179,30,103117,1,2,3:2:0:0:
35,28,103371,1,10,3:2:0:0:
309,115,103879,6,0,L|401:103,1,80,0|0,3:0|3:0,0:0:0:0:
460,103,104261,1,0,3:0:0:0:
460,103,104388,2,0,P|484:151|484:195,2,80,8|0|2,3:2|3:0|3:2,0:0:0:0:
362,209,105150,1,0,3:2:0:0:
359,352,105405,2,0,P|285:367|220:303,1,160,10|0,0:2|3:0,0:0:0:0:
179,189,106167,5,0,3:0:0:0:
179,189,106295,1,0,3:0:0:0:
179,189,106422,2,0,L|76:185,1,80,8|0,3:2|3:0,0:0:0:0:
79,43,106930,1,2,3:2:0:0:
221,21,107184,1,2,3:2:0:0:
330,113,107439,1,10,0:2:0:0:
493,349,107947,6,0,L|485:244,1,80,0|0,3:0|3:0,0:0:0:0:
418,267,108328,1,0,3:0:0:0:
418,267,108456,2,0,P|375:270|329:299,2,80,8|0|2,3:2|3:0|3:2,0:0:0:0:
470,132,109218,1,0,3:0:0:0:
347,54,109473,2,0,P|283:38|197:116,1,160,10|0,0:0|3:0,0:0:0:0:
139,216,110235,5,0,3:0:0:0:
139,216,110362,1,0,3:0:0:0:
139,216,110489,2,0,L|49:213,1,80,8|0,3:2|3:0,0:0:0:0:
62,357,110998,1,2,3:2:0:0:
205,360,111252,1,2,3:2:0:0:
255,224,111506,1,10,3:2:0:0:
475,38,112015,6,0,L|376:31,1,80,0|0,3:0|3:0,0:0:0:0:
325,14,112396,1,0,3:0:0:0:
325,14,112523,2,0,P|305:69|312:126,2,80,8|0|2,3:2|3:0|0:0,0:0:0:0:
401,135,113286,1,0,3:0:0:0:
266,188,113540,2,0,P|200:228|115:187,1,160,10|0,3:2|3:0,0:0:0:0:
119,66,114303,5,0,3:0:0:0:
119,66,114430,1,0,3:0:0:0:
119,66,114557,2,0,L|202:57,1,80,8|0,3:2|3:0,0:0:0:0:
273,180,115066,1,2,3:2:0:0:
195,300,115320,1,2,3:2:0:0:
323,364,115574,1,10,3:2:0:0:
256,192,116083,12,0,117862,0:0:0:0:
114,80,118117,6,0,P|96:120|112:160,1,80,4|2,1:0|0:3,0:0:0:0:
112,240,118498,1,0,1:0:0:0:
112,240,118625,1,10,0:2:0:0:
232,368,118879,2,0,B|304:360|304:360|268:248,1,160,0|2,1:3|1:3,0:0:0:0:
256,100,119642,1,10,1:2:0:0:
360,240,119896,1,0,1:3:0:0:
416,72,120150,6,0,L|500:76,1,80,0|2,1:0|0:3,0:0:0:0:
508,168,120532,1,0,1:1:0:0:
508,168,120659,2,0,P|520:216|508:248,1,80,10|0,0:2|1:3,0:0:0:0:
368,344,121167,2,0,L|364:252,2,80,2|2|10,0:2|1:3|0:2,0:0:0:0:
192,360,121930,1,0,1:3:0:0:
80,224,122184,6,0,P|136:208|172:232,1,80,0|2,1:0|0:3,0:0:0:0:
240,236,122566,1,0,1:0:0:0:
240,236,122693,1,10,0:2:0:0:
232,60,122947,2,0,L|316:72,1,80,0|2,1:3|0:2,0:0:0:0:
484,40,123456,1,2,1:2:0:0:
492,216,123710,1,8,1:2:0:0:
320,188,123964,1,2,1:2:0:0:
212,328,124218,6,0,L|116:328,1,80,0|2,1:2|0:3,0:0:0:0:
64,280,124600,1,0,1:0:0:0:
64,280,124727,2,0,L|64:184,2,80,8|2|2,0:2|1:2|3:2,0:0:0:0:
220,200,125489,1,0,1:0:0:0:
320,56,125744,1,10,3:2:0:0:
496,40,125998,1,0,1:0:0:0:
484,208,126252,6,0,L|504:304,1,80,4|2,1:1|0:3,0:0:0:0:
452,360,126634,1,0,1:0:0:0:
452,360,126761,1,10,0:2:0:0:
276,336,127015,2,0,P|252:252|312:196,1,160,0|2,1:3|1:3,0:0:0:0:
472,184,127778,1,10,1:2:0:0:
428,12,128032,1,0,1:3:0:0:
260,56,128286,6,0,L|168:68,1,80,0|2,1:0|0:3,0:0:0:0:
92,80,128667,1,0,1:0:0:0:
92,80,128795,2,0,P|72:144|88:180,1,80,10|0,0:2|1:3,0:0:0:0:
244,204,129303,2,0,L|332:208,2,80,2|2|10,0:2|1:3|1:2,0:0:0:0:
80,272,130066,1,0,1:3:0:0:
232,360,130320,6,0,P|256:320|232:260,1,80,0|2,1:0|3:3,0:0:0:0:
244,204,130701,1,0,1:0:0:0:
244,204,130828,2,0,L|248:104,1,80,10|0,0:2|1:3,0:0:0:0:
396,32,131337,1,2,0:2:0:0:
500,176,131591,1,0,1:0:0:0:
500,176,132100,1,0,1:3:0:0:
420,332,132354,6,0,P|364:356|320:344,1,80,0|2,1:0|0:3,0:0:0:0:
276,304,132735,1,0,1:0:0:0:
276,304,132862,2,0,L|276:200,1,80,10|0,0:2|1:3,0:0:0:0:
396,96,133371,1,2,0:2:0:0:
228,44,133625,1,0,1:2:0:0:
140,196,133879,2,0,L|56:200,1,80,10|0,1:2|3:0,0:0:0:0:
164,340,134388,6,0,P|208:336|248:340,1,80,4|2,1:1|0:3,0:0:0:0:
284,264,134769,1,0,1:0:0:0:
284,264,134896,1,8,0:0:0:0:
276,120,135150,2,0,P|348:72|420:132,1,160,0|0,1:0|1:0,0:0:0:0:
452,240,135913,2,0,B|468:320|468:320|384:344,1,160,8|0,0:0|1:0,0:0:0:0:
256,344,136676,5,0,3:0:0:0:
256,344,136803,1,0,1:0:0:0:
256,344,136930,1,10,3:2:0:0:
244,200,137184,2,0,B|252:96|252:96|192:60,1,160,0|0,1:2|1:2,0:0:0:0:
80,140,137947,2,0,L|72:312,1,160,10|4,0:2|1:0,0:0:0:0:
204,232,138710,5,0,0:0:0:0:
204,232,138837,1,0,1:0:0:0:
204,232,138964,1,8,0:0:0:0:
280,108,139218,2,0,P|368:84|428:124,1,160,0|0,1:0|1:0,0:0:0:0:
448,260,139981,2,0,B|460:312|460:312|344:348,1,160,8|0,0:0|1:0,0:0:0:0:
220,356,140744,5,0,0:0:0:0:
220,356,140871,1,0,1:0:0:0:
220,356,140998,1,10,0:2:0:0:
132,244,141252,2,0,P|80:160|92:92,1,160,0|0,1:3|1:0,0:0:0:0:
228,68,142015,2,0,P|308:60|360:128,1,160,10|0,0:2|1:0,0:0:0:0:
472,200,142778,5,0,0:3:0:0:
472,200,142905,1,0,1:0:0:0:
472,200,143032,1,10,0:0:0:0:
472,344,143286,2,0,B|412:360|412:360|408:296|408:296|344:292,1,160,0|0,1:0|1:0,0:0:0:0:
228,296,144049,2,0,B|144:296|144:296|124:376,1,160,10|0,0:2|1:0,0:0:0:0:
20,272,144812,5,0,0:3:0:0:
20,272,144939,1,0,1:0:0:0:
20,272,145066,1,10,0:2:0:0:
20,128,145320,2,0,B|32:68|32:68|144:72,1,160,0|0,1:0|1:0,0:0:0:0:
272,52,146083,2,0,B|319:87|319:87|291:216,1,160,10|0,0:2|1:0,0:0:0:0:
328,332,146845,5,0,0:3:0:0:
328,332,146973,1,0,1:0:0:0:
328,332,147100,2,0,L|413:318,1,80,10|0,0:0|1:0,0:0:0:0:
164,164,147862,1,0,1:0:0:0:
112,300,148117,2,0,P|52:281|30:178,1,160,10|0,0:2|1:0,0:0:0:0:
100,76,148879,5,0,0:3:0:0:
100,76,149006,1,0,1:0:0:0:
100,76,149134,2,0,L|191:62,1,80,10|0,0:2|1:0,0:0:0:0:
312,52,149642,1,2,0:0:0:0:
444,128,149896,1,0,1:2:0:0:
440,288,150150,1,10,0:2:0:0:
252,364,150405,1,2,3:2:0:0:
245,72,154981,5,0,0:0:0:0:
245,72,155108,1,0,0:0:0:0:
245,72,155235,2,0,P|261:120|246:162,1,80,10|0,0:0|0:0,0:0:0:0:
110,148,155744,2,0,L|26:163,1,80,0|0,0:0|0:0,0:0:0:0:
35,305,156252,2,0,L|141:317,1,80,10|0,0:0|0:0,0:0:0:0:
401,346,157015,5,0,0:0:0:0:
401,346,157142,1,0,0:0:0:0:
401,346,157269,2,0,L|297:357,1,80,10|0,0:0|0:0,0:0:0:0:
301,211,157778,2,0,P|302:154|328:110,1,80,0|0,0:0|0:0,0:0:0:0:
437,64,158286,2,0,P|459:106|444:149,1,80,10|0,0:0|0:0,0:0:0:0:
310,133,158795,6,0,L|217:132,1,80,0|0,3:0|0:0,0:0:0:0:
158,132,159176,1,0,0:0:0:0:
158,132,159303,2,0,P|149:70|171:24,1,80,10|0,0:0|0:0,0:0:0:0:
54,160,159812,2,0,L|34:260,1,80,0|0,0:0|0:0,0:0:0:0:
134,345,160320,2,0,L|162:265,1,80,10|0,0:0|0:0,0:0:0:0:
450,337,161083,5,0,0:0:0:0:
450,337,161210,1,0,0:0:0:0:
450,337,161337,2,0,L|349:355,1,80,10|0,0:0|0:0,0:0:0:0:
296,227,161845,2,0,P|286:158|292:131,1,80,0|0,0:0|0:0,0:0:0:0:
410,74,162354,2,0,L|504:71,1,80,10|0,0:0|0:0,0:0:0:0:
201,65,163117,5,0,0:0:0:0:
201,65,163244,1,0,0:0:0:0:
201,65,163371,2,0,L|213:153,1,80,10|0,0:0|0:0,0:0:0:0:
308,252,163879,2,0,L|197:264,1,80,0|0,0:0|0:0,0:0:0:0:
126,362,164388,2,0,L|16:362,1,80,10|0,0:0|0:0,0:0:0:0:
256,192,164896,12,0,166676,2:0:0:0:
223,149,166930,6,0,L|302:158,1,80,4|2,1:0|0:3,0:0:0:0:
296,72,167312,1,0,1:0:0:0:
296,72,167439,1,10,0:2:0:0:
124,48,167693,2,0,B|84:148|84:148|168:156,1,160,0|0,1:0|1:3,0:0:0:0:
68,316,168456,1,10,0:2:0:0:
224,236,168710,1,0,1:3:0:0:
360,348,168964,6,0,L|444:352,1,80,0|2,1:0|0:3,0:0:0:0:
472,272,169345,1,0,1:1:0:0:
472,272,169473,2,0,P|484:224|472:192,1,80,10|0,0:2|1:0,0:0:0:0:
336,88,169981,2,0,L|332:-4,2,80,2|0|10,0:2|1:3|1:2,0:0:0:0:
340,264,170744,1,0,1:0:0:0:
232,124,170998,6,0,P|176:108|140:132,1,80,0|2,1:0|0:3,0:0:0:0:
72,136,171379,1,0,1:0:0:0:
72,136,171506,1,10,0:2:0:0:
20,304,171761,2,0,L|104:316,1,80,0|2,1:0|0:2,0:0:0:0:
268,372,172269,1,2,1:2:0:0:
344,212,172523,1,8,0:2:0:0:
464,340,172778,1,2,1:2:0:0:
476,164,173032,6,0,L|476:68,1,80,0|2,1:0|0:3,0:0:0:0:
392,88,173413,1,0,1:0:0:0:
392,88,173540,2,0,L|392:-8,2,80,8|2|2,0:2|1:2|3:2,0:0:0:0:
220,124,174303,1,0,1:0:0:0:
376,208,174557,1,10,3:2:0:0:
372,384,174812,1,0,1:0:0:0:
200,348,175066,6,0,L|96:356,1,80,4|2,1:1|0:3,0:0:0:0:
36,360,175447,1,0,1:0:0:0:
36,360,175574,1,10,0:2:0:0:
16,184,175828,2,0,B|32:120|32:120|128:148,1,160,0|0,1:0|1:3,0:0:0:0:
276,232,176591,1,10,1:2:0:0:
280,56,176845,1,0,1:0:0:0:
456,64,177100,6,0,L|476:144,1,80,0|2,1:0|0:3,0:0:0:0:
488,232,177481,1,0,1:0:0:0:
488,232,177608,2,0,P|424:252|388:236,1,80,10|0,0:2|1:0,0:0:0:0:
240,268,178117,2,0,L|236:356,2,80,2|0|10,0:2|1:3|0:2,0:0:0:0:
336,120,178879,1,0,1:0:0:0:
168,68,179134,6,0,P|128:44|68:68,1,80,0|2,1:0|3:3,0:0:0:0:
24,96,179515,1,0,1:0:0:0:
24,96,179642,2,0,L|28:196,1,80,10|0,0:2|1:0,0:0:0:0:
44,352,180150,1,2,0:2:0:0:
208,288,180405,1,0,1:3:0:0:
208,288,180913,1,0,1:0:0:0:
384,312,181167,6,0,P|440:336|484:324,1,80,0|2,1:0|0:3,0:0:0:0:
476,252,181549,1,0,1:0:0:0:
476,252,181676,2,0,L|476:148,1,80,10|0,0:2|1:0,0:0:0:0:
372,28,182184,1,2,0:2:0:0:
196,48,182439,1,0,1:3:0:0:
224,224,182693,2,0,L|303:220,1,80,10|0,0:2|1:0,0:0:0:0:
480,200,183201,6,0,L|480:292,1,80,4|2,1:1|0:3,0:0:0:0:
440,360,183583,1,0,1:0:0:0:
440,360,183710,1,10,0:2:0:0:
264,340,183964,2,0,B|164:336|164:336|144:252,1,160,0|0,1:0|1:3,0:0:0:0:
44,136,184727,1,10,1:2:0:0:
52,312,184981,1,0,1:0:0:0:
164,176,185235,6,0,L|248:180,1,80,0|2,1:0|0:3,0:0:0:0:
292,108,185617,1,0,1:0:0:0:
292,108,185744,2,0,P|304:60|292:28,1,80,10|0,0:2|1:0,0:0:0:0:
120,32,186252,2,0,L|28:36,2,80,2|0|10,0:2|1:3|0:2,0:0:0:0:
294,32,187015,1,0,1:0:0:0:
468,68,187269,6,0,P|484:124|460:160,1,80,0|2,1:0|0:3,0:0:0:0:
456,228,187650,1,0,1:0:0:0:
456,228,187778,1,10,0:2:0:0:
332,352,188032,2,0,L|248:364,1,80,0|2,1:0|0:2,0:0:0:0:
204,192,188540,1,2,1:2:0:0:
364,264,188795,1,8,1:2:0:0:
372,88,189049,1,2,1:2:0:0:
200,52,189303,6,0,L|104:52,1,80,0|2,1:0|0:3,0:0:0:0:
40,88,189684,1,0,1:0:0:0:
40,88,189812,2,0,L|40:-8,2,80,8|2|2,0:2|1:2|3:2,0:0:0:0:
48,264,190574,1,0,1:0:0:0:
196,172,190828,1,10,3:2:0:0:
200,348,191083,1,0,1:0:0:0:
372,304,191337,6,0,L|476:312,1,80,4|2,1:0|0:3,0:0:0:0:
496,236,191718,1,0,1:0:0:0:
496,236,191845,1,10,0:2:0:0:
468,64,192100,2,0,B|400:84|400:84|400:176,1,160,0|0,1:0|1:3,0:0:0:0:
232,220,192862,1,10,0:2:0:0:
200,48,193117,1,0,1:0:0:0:
60,156,193371,6,0,L|80:236,1,80,0|2,1:0|0:3,0:0:0:0:
68,324,193752,1,0,1:0:0:0:
68,324,193879,2,0,P|134:320|163:293,1,80,10|0,0:2|1:0,0:0:0:0:
316,284,194388,2,0,L|312:372,2,80,2|0|10,0:2|1:3|0:2,0:0:0:0:
232,128,195150,1,0,1:0:0:0:
384,40,195405,6,0,P|424:16|484:40,1,80,0|2,1:0|3:3,0:0:0:0:
472,112,195786,1,0,1:0:0:0:
472,112,195913,2,0,L|476:212,1,80,10|0,0:2|1:0,0:0:0:0:
332,296,196422,1,2,0:2:0:0:
204,176,196676,1,0,1:3:0:0:
204,176,197184,1,0,1:0:0:0:
108,324,197439,6,0,P|52:348|8:336,1,80,0|2,1:0|0:3,0:0:0:0:
16,264,197820,1,0,1:0:0:0:
16,264,197947,2,0,L|16:160,1,80,10|0,0:2|1:0,0:0:0:0:
180,124,198456,1,2,0:2:0:0:
356,104,198710,1,0,1:3:0:0:
376,280,198964,2,0,L|455:276,1,80,10|2,0:2|2:3,0:0:0:0:
456,100,199473,6,0,P|452:56|456:16,1,80,4|2,1:0|0:3,0:0:0:0:
372,24,199854,1,0,1:0:0:0:
372,24,199981,2,0,P|318:14|289:40,1,80,10|0,0:2|1:0,0:0:0:0:
92,224,200744,1,0,0:3:0:0:
60,84,200998,1,10,1:2:0:0:
184,156,201252,1,2,1:2:0:0:
308,80,201506,6,0,L|386:94,1,80,0|2,1:0|0:3,0:0:0:0:
464,104,201888,1,0,1:0:0:0:
464,104,202015,2,0,P|476:156|452:202,1,80,10|0,0:2|1:0,0:0:0:0:
244,360,202778,1,0,0:0:0:0:
220,220,203032,1,10,1:2:0:0:
76,232,203286,1,2,1:2:0:0:
64,88,203540,6,0,L|152:80,1,80,0|2,1:0|0:3,0:0:0:0:
220,88,203922,1,0,1:0:0:0:
220,88,204049,2,0,L|309:64,1,80,10|0,0:2|1:0,0:0:0:0:
448,312,204812,1,0,0:0:0:0:
472,172,205066,1,10,1:2:0:0:
328,196,205320,1,2,1:2:0:0:
296,336,205574,6,0,L|208:340,1,80,0|2,1:0|0:3,0:0:0:0:
144,340,205956,1,0,1:0:0:0:
144,340,206083,2,0,L|124:232,1,80,10|0,0:2|1:0,0:0:0:0:
80,128,206591,2,0,L|176:104,1,80,2|0,3:2|1:0,0:0:0:0:
288,48,207100,1,10,3:2:0:0:
273,191,207354,1,0,1:0:0:0:
416,188,207608,6,0,L|508:192,1,80,0|2,1:0|0:3,0:0:0:0:
496,264,207989,1,0,1:0:0:0:
496,264,208117,2,0,L|472:344,1,80,8|0,0:2|1:0,0:0:0:0:
303,108,208879,1,0,0:0:0:0:
224,228,209134,1,10,1:2:0:0:
192,368,209388,1,2,1:2:0:0:
60,308,209642,6,0,L|76:208,1,80,0|2,1:0|0:3,0:0:0:0:
56,160,210023,1,0,1:0:0:0:
56,160,210150,2,0,L|80:72,1,80,8|0,0:2|1:0,0:0:0:0:
364,70,210913,1,0,0:0:0:0:
345,209,211167,1,10,1:2:0:0:
201,227,211422,1,2,1:2:0:0:
280,348,211676,6,0,L|372:348,1,80,0|2,1:0|0:3,0:0:0:0:
432,356,212057,1,0,1:0:0:0:
432,356,212184,2,0,L|440:240,1,80,8|0,0:2|1:0,0:0:0:0:
333,7,212947,1,0,0:0:0:0:
192,40,213201,1,10,1:2:0:0:
244,176,213456,1,2,1:2:0:0:
100,188,213710,6,0,L|16:196,1,80,0|2,1:0|0:3,0:0:0:0:
24,268,214091,1,0,1:0:0:0:
24,268,214218,2,0,L|24:368,1,80,8|0,0:2|1:0,0:0:0:0:
168,324,214727,1,2,3:2:0:0:
168,324,214854,1,2,3:2:0:0:
168,324,214981,1,0,1:0:0:0:
292,248,215235,2,0,P|348:256|284:288,1,160,10|0,3:2|0:0,0:0:0:0:
