osu file format v14

[General]
AudioFilename: audio.mp3
AudioLeadIn: 0
PreviewTime: -1
Countdown: 1
SampleSet: None
StackLeniency: 0.7
Mode: 0
LetterboxInBreaks: 0
WidescreenStoryboard: 0

[Editor]
DistanceSpacing: 1
BeatDivisor: 1
GridSize: 32
TimelineZoom: 3.299999

[Metadata]
Title:Sleep Deprivation
TitleUnicode:Sleep Deprivation
Artist:Yeanling3696
ArtistUnicode:Yeanling3696
Creator:TeeVex
Version:Easy
Source:
Tags:
BeatmapID:1468856
BeatmapSetID:694269

[Difficulty]
HPDrainRate:5
CircleSize:5
OverallDifficulty:5
ApproachRate:5
SliderMultiplier:1.4
SliderTickRate:1

[Events]
//Background and Video events
0,0,"phaseosu.jpg",0,0
//Break Periods
2,8562,12162
2,66895,72162
2,73562,78829
2,80229,85495
//Storyboard Layer 0 (Background)
//Storyboard Layer 1 (Fail)
//Storyboard Layer 2 (Pass)
//Storyboard Layer 3 (Foreground)
//Storyboard Sound Samples

[TimingPoints]
32529.2916666667,833.333333333333,4,1,0,100,1,0

[HitObjects]
160,96,29,6,0,B|64:256|96:256|96:256|384:256,1,420
448,192,3362,1,0,0:0:0:0:
64,64,5862,5,0,0:0:0:0:
160,96,6695,1,0,0:0:0:0:
288,128,7529,1,0,0:0:0:0:
192,224,8362,1,0,0:0:0:0:
128,96,13362,5,0,0:0:0:0:
96,96,16695,1,0,0:0:0:0:
224,128,17529,1,0,0:0:0:0:
160,256,19195,1,0,0:0:0:0:
288,256,20029,1,0,0:0:0:0:
320,128,20862,1,0,0:0:0:0:
192,160,21695,1,0,0:0:0:0:
288,224,24195,1,0,0:0:0:0:
32,128,25862,1,0,0:0:0:0:
160,160,26695,1,0,0:0:0:0:
256,224,27529,1,0,0:0:0:0:
128,224,28362,1,0,0:0:0:0:
256,224,29195,1,0,0:0:0:0:
160,256,30029,1,0,0:0:0:0:
224,224,32529,1,0,0:0:0:0:
224,224,33362,1,0,0:0:0:0:
224,224,34195,1,0,0:0:0:0:
224,224,35029,1,0,0:0:0:0:
224,224,35862,1,0,0:0:0:0:
224,224,36695,1,0,0:0:0:0:
224,224,39195,1,0,0:0:0:0:
224,224,40029,1,0,0:0:0:0:
224,224,41695,1,0,0:0:0:0:
224,224,42529,1,0,0:0:0:0:
224,224,43362,1,0,0:0:0:0:
224,224,44195,1,0,0:0:0:0:
224,224,45029,1,0,0:0:0:0:
224,224,45862,1,0,0:0:0:0:
224,224,46695,1,0,0:0:0:0:
224,224,47529,1,0,0:0:0:0:
224,224,48362,1,0,0:0:0:0:
224,224,50029,1,0,0:0:0:0:
224,224,50862,1,0,0:0:0:0:
224,224,51695,1,0,0:0:0:0:
224,224,52529,1,0,0:0:0:0:
224,224,53362,1,0,0:0:0:0:
224,224,55029,1,0,0:0:0:0:
224,224,56695,1,0,0:0:0:0:
32,64,58362,1,0,0:0:0:0:
128,96,59195,1,0,0:0:0:0:
96,192,60029,1,0,0:0:0:0:
352,128,61695,1,0,0:0:0:0:
96,192,63362,1,0,0:0:0:0:
192,160,66695,5,0,0:0:0:0:
448,64,73362,5,0,0:0:0:0:
480,352,80029,5,0,0:0:0:0:
64,96,86695,5,0,0:0:0:0:
384,96,90862,1,0,0:0:0:0:
256,128,91695,1,0,0:0:0:0:
160,160,92529,1,0,0:0:0:0:
320,224,93362,1,0,0:0:0:0:
256,192,95029,12,0,102529,0:0:0:0:
