osu file format v14

[General]
AudioFilename: audio.mp3
AudioLeadIn: 0
PreviewTime: 45921
Countdown: 0
SampleSet: Normal
StackLeniency: 0.8
Mode: 0
LetterboxInBreaks: 0
WidescreenStoryboard: 1

[Editor]
Bookmarks: 62037,62287,62537,62787,63037,63287,63538,63788,64038,64288,64538,64788,65039,65289,65539,65789,66039,66289,66540,66790,67040,67290,67540,67790,68041,68291,68541,68791,69041,69291,69542,136106,136336,136586,136836,137087,137337,137587,137837,138087,138337,138588,138838,139088,139338,139588,139838,140089,140339,140589,140839,141089,141339,141590,141840,142110
DistanceSpacing: 1.2
BeatDivisor: 16
GridSize: 4
TimelineZoom: 2.899999

[Metadata]
Title:Maps
TitleUnicode:Maps
Artist:Yeah Yeah Yeahs
ArtistUnicode:Yeah Yeah Yeahs
Creator:rHO
Version:PandaHero's Insane
Source:
Tags:pandahero fever to tell english rock garage revival indie
BeatmapID:4552618
BeatmapSetID:2159262

[Difficulty]
HPDrainRate:6
CircleSize:4
OverallDifficulty:7
ApproachRate:8
SliderMultiplier:1.6
SliderTickRate:1

[Events]
//Background and Video events
0,0,"5d2567c2-5334-4663-9b3a-2a75024387db.jpg",0,0
//Break Periods
2,61983,68827
2,136106,141337
//Storyboard Layer 0 (Background)
//Storyboard Layer 1 (Fail)
//Storyboard Layer 2 (Pass)
//Storyboard Layer 3 (Foreground)
//Storyboard Layer 4 (Overlay)
//Storyboard Sound Samples

[TimingPoints]
14020,500.834724540902,4,1,1,50,1,0
20030,497.512437810945,4,1,1,50,1,0
24010,526.315789473684,4,1,1,50,1,0
24799,485.436893203884,4,1,1,50,1,0
26014,502.092050209205,4,1,1,50,1,0
29528,-100,4,1,1,40,0,0
30034,500.333555703803,4,1,1,60,1,0
30034,-83.3333333333333,4,1,1,60,0,0
34036,495.867768595041,4,1,1,60,1,0
34036,-83.3333333333333,4,1,1,60,0,0
36019,504.201680672269,4,1,1,60,1,0
36019,-83.3333333333333,4,1,1,60,0,0
40052,500.333555703803,4,1,1,60,1,0
40052,-83.3333333333333,4,1,1,60,0,0
44054,508.474576271186,4,1,1,60,1,0
44054,-83.3333333333333,4,1,1,60,0,0
45579,483.870967741935,4,1,1,40,1,0
45579,-200,4,1,1,40,0,0
46062,498.338870431894,4,1,1,60,1,0
46062,-66.6666666666667,4,1,1,60,0,0
54053,500,4,1,1,50,1,0
58053,497.512437810945,4,1,1,60,1,0
58053,-66.6666666666667,4,1,1,60,0,0
62033,502.933780385583,4,1,1,60,1,0
69577,-100,4,1,1,40,0,0
70079,500.333555703803,4,1,1,50,1,0
70079,-83.3333333333333,4,1,1,50,0,0
76083,508.474576271186,4,1,1,50,1,0
76083,-83.3333333333333,4,1,1,50,0,0
78087,500.333555703803,4,1,1,50,1,0
78087,-83.3333333333333,4,1,1,50,0,0
86092,498.338870431894,4,1,1,60,1,0
86092,-66.6666666666667,4,1,1,60,0,0
94065,502.092050209205,4,1,1,50,1,0
98081,-66.6666666666667,4,1,1,60,0,0
102107,500.333555703803,4,1,1,60,1,0
103569,500.333555703803,4,1,1,40,1,0
103569,-142.857142857143,4,1,1,40,0,0
104084,500.333555703803,4,1,1,60,1,0
104084,-66.6666666666667,4,1,1,60,0,0
116619,500.333555703803,4,1,1,60,1,0
117619,-66.6666666666667,4,1,1,60,0,0
118120,494.233937397035,4,1,1,65,1,0
118120,-62.5,4,1,1,65,0,0
120095,500.333555703803,4,1,1,65,1,0
120345,-62.5,4,1,1,65,0,0
121846,540.540540540541,4,1,1,65,1,0
122118,500.333555703803,4,1,1,65,1,0
122118,-62.5,4,1,1,65,0,0
124085,500.333555703803,4,1,1,65,1,0
126086,-62.5,4,1,1,65,0,0
130089,512.820512820513,4,1,1,65,1,0
130089,-62.5,4,1,1,65,0,0
131339,491.803278688525,4,1,1,50,1,0
132090,504.201680672269,4,1,1,65,1,0
132090,-62.5,4,1,1,65,0,0
134106,500,4,1,1,65,1,0
142087,500.834724540902,4,1,1,35,1,0
142587,-125,4,1,1,35,0,0
148097,-125,4,1,1,40,0,0
150127,497.512437810945,4,1,1,55,1,0
150127,-76.9230769230769,4,1,1,55,0,0
154107,500.333555703803,4,1,1,55,1,0
154107,-76.9230769230769,4,1,1,55,0,0
167115,-66.6666666666667,4,1,1,55,0,0
168129,500.333555703803,4,1,1,60,1,0
168129,-66.6666666666667,4,1,1,60,0,0
170118,500.333555703803,4,1,1,60,1,0
170118,-66.6666666666667,4,1,1,60,0,0
178123,497.512437810945,4,1,1,60,1,0
178123,-66.6666666666667,4,1,1,60,0,0
180610,-100,4,1,1,60,0,0
182103,500,4,1,1,65,1,0
182103,-58.8235294117647,4,1,1,65,0,0
183625,500,4,1,1,65,1,0
183625,-58.8235294117647,4,1,1,65,0,0
184125,500.333555703803,4,1,1,65,1,0
184375,-58.8235294117647,4,1,1,65,0,0
191129,521.739130434783,4,1,1,65,1,0
191650,-58.8235294117647,4,1,1,65,0,0
192139,500,4,1,1,65,1,0
192389,-58.8235294117647,4,1,1,65,0,0
192853,508.474576271186,4,1,1,65,1,0
193107,-58.8235294117647,4,1,1,65,0,0
194124,500,4,1,1,65,1,0
194124,-58.8235294117647,4,1,1,65,0,0
195624,512.820512820513,4,1,1,65,1,0
195624,-58.8235294117647,4,1,1,65,0,0
196136,540.540540540541,4,1,1,65,1,0
196136,-58.8235294117647,4,1,1,65,0,0
196676,555.555555555556,4,1,1,65,1,0
196676,-58.8235294117647,4,1,1,65,0,0
196953,-52.6315789473684,4,1,1,65,0,0
197241,500.333555703803,4,1,1,65,1,0
212000,-100,4,1,1,15,0,0

[Colours]
Combo1 : 17,254,176
Combo2 : 173,255,95
Combo3 : 255,88,100
Combo4 : 255,94,55

[HitObjects]
44,308,14020,6,0,P|81:308|160:312,1,80,4|0,1:3|1:0,1:0:0:0:
242,352,14520,1,4,1:3:0:0:
286,290,14771,2,0,P|285:248|287:187,1,80,8|0,1:0|1:0,1:0:0:0:
192,240,15272,1,4,1:3:0:0:
374,356,15522,2,0,P|377:317|378:261,1,80,8|0,1:0|1:0,1:0:0:0:
411,189,16023,6,0,P|448:194|500:198,2,80,4|0|0,1:3|1:0|1:0,1:0:0:0:
296,118,16774,1,8,1:0:0:0:
369,59,17025,1,4,1:3:0:0:
369,59,17275,1,0,1:0:0:0:
269,151,17525,1,8,1:0:0:0:
223,62,17776,1,4,1:3:0:0:
102,114,18026,5,4,1:3:0:0:
109,122,18151,1,0,1:0:0:0:
109,122,18277,1,4,1:3:0:0:
11,201,18527,1,4,1:3:0:0:
81,239,18777,2,0,P|116:233|168:230,1,80,8|0,1:0|1:0,1:0:0:0:
14,362,19278,1,4,1:3:0:0:
169,325,19529,2,0,P|129:327|89:333,1,80,8|0,1:0|1:0,1:0:0:0:
9,270,20030,6,0,P|11:227|14:171,2,80,4|0|0,1:3|1:0|1:0,1:0:0:0:
118,170,20776,1,8,1:0:0:0:
62,75,21025,1,4,1:3:0:0:
118,170,21273,1,0,1:0:0:0:
241,57,21522,1,8,1:0:0:0:
154,0,21771,1,4,1:3:0:0:
235,162,22020,5,4,1:3:0:0:
235,162,22144,1,0,1:0:0:0:
235,162,22268,1,4,1:3:0:0:
338,174,22517,1,4,1:3:0:0:
437,284,22766,2,0,P|391:282|345:283,1,80,8|0,1:0|1:0,1:0:0:0:
220,361,23263,1,4,1:3:0:0:
220,361,23512,2,0,P|265:365|319:363,1,80,8|0,1:0|1:0,1:0:0:0:
119,325,24010,5,4,1:3:0:0:
119,325,24273,1,0,1:0:0:0:
119,325,24536,1,0,1:0:0:0:
25,183,24799,2,0,L|29:287,1,80,8|0,1:0|1:0,1:0:0:0:
118,155,25284,1,4,1:3:0:0:
205,262,25527,2,0,L|209:183,1,80,8|0,1:0|1:0,1:0:0:0:
218,83,26014,5,4,1:3:0:0:
218,83,26139,1,0,1:3:0:0:
218,83,26265,1,4,1:3:0:0:
290,138,26516,1,4,1:3:0:0:
374,85,26767,2,0,L|371:-17,2,80,8|0|0,1:0|1:0|1:0,1:0:0:0:
485,164,27520,2,0,L|492:55,1,80,8|0,1:0|1:0,1:0:0:0:
376,192,28022,5,4,1:3:0:0:
342,280,28273,1,0,1:0:0:0:
412,344,28524,1,4,1:3:0:0:
277,137,28775,5,8,1:0:0:0:
261,230,29026,1,4,1:3:0:0:
342,280,29277,1,0,1:0:0:0:
161,162,29528,6,0,L|161:252,1,80,8|4,1:0|1:2,1:0:0:0:
142,320,30034,6,0,P|92:242|9:238,1,144,4|2,1:0|1:2,1:0:0:0:
46,230,30534,1,4,1:3:0:0:
67,356,30784,1,8,1:0:0:0:
228,372,31034,2,0,L|242:181,1,192,4|2,1:3|1:2,1:0:0:0:
242,180,31785,1,0,1:0:0:0:
385,221,32035,6,0,P|376:287|441:340,1,144,4|2,1:2|1:2,1:0:0:0:
427,337,32535,1,4,1:3:0:0:
506,241,32785,1,8,1:0:0:0:
438,134,33036,2,0,L|326:136,1,96,4|2,1:3|1:2,1:0:0:0:
233,76,33536,2,0,L|125:79,1,96,2|0,1:2|1:0,1:0:0:0:
115,67,33911,1,4,1:2:0:0:
93,53,34036,6,0,P|69:115|107:211,1,144,4|2,1:0|1:2,1:0:0:0:
87,187,34531,2,0,P|137:185|202:184,1,96,4|2,1:3|1:2,1:0:0:0:
121,320,35027,2,0,P|71:318|6:317,1,96,4|0,1:3|1:0,1:0:0:0:
235,352,35523,1,2,1:2:0:0:
261,260,35771,1,0,1:0:0:0:
381,265,36019,6,0,P|352:330|361:374,1,96,4|0,1:2|1:0,1:0:0:0:
196,184,36523,2,0,P|225:119|216:75,2,96,4|6|0,1:3|1:2|1:0,1:0:0:0:
74,202,37279,1,4,1:3:0:0:
26,118,37531,1,6,1:2:0:0:
86,43,37783,1,0,1:2:0:0:
196,184,38035,6,0,P|225:249|216:293,1,96,4|0,1:0|1:0,1:0:0:0:
90,372,38540,2,0,P|25:343|-19:352,2,96,4|2|0,1:3|1:2|1:0,1:0:0:0:
185,361,39296,1,4,1:3:0:0:
223,271,39548,2,0,P|220:223|195:183,1,96,6|0,1:2|1:0,1:0:0:0:
309,36,40052,6,0,P|280:101|289:145,1,96,4|0,1:2|1:0,1:0:0:0:
415,224,40552,2,0,P|480:195|524:204,2,96,4|2|0,1:3|1:2|1:0,1:0:0:0:
320,213,41302,1,4,1:3:0:0:
282,123,41553,2,0,P|284:75|309:35,1,96,6|4,1:2|1:2,1:0:0:0:
218,199,41928,1,4,1:2:0:0:
218,199,42053,6,0,P|163:186|103:206,1,96,4|0,1:0|1:0,1:0:0:0:
159,306,42553,2,0,P|107:282|44:290,1,96,4|2,1:3|1:2,1:0:0:0:
61,304,42928,1,0,1:2:0:0:
50,325,43054,2,0,P|24:259|-1:224,1,96,4|0,1:3|1:0,1:0:0:0:
252,260,43554,1,6,1:2:0:0:
306,345,43804,1,0,1:0:0:0:
434,357,44054,6,0,P|441:288|438:224,1,96,4|0,1:0|1:0,1:0:0:0:
421,247,44435,1,4,1:2:0:0:
403,230,44562,2,0,P|396:161|399:97,1,96,4|6,1:3|1:2,1:0:0:0:
452,59,45070,1,4,1:3:0:0:
255,299,45325,1,8,1:0:0:0:
192,256,45579,2,2,L|126:255,1,60,4|0,1:3|2:0,1:2:0:0:
86,286,46062,6,0,P|91:206|60:125,1,120,4|8,1:0|1:0,1:0:0:0:
81,167,46435,1,8,1:0:0:0:
81,167,46560,1,2,1:2:0:0:
15,78,46809,1,8,1:0:0:0:
149,82,47058,1,8,1:0:0:0:
149,82,47183,1,8,1:0:0:0:
149,82,47307,1,2,1:2:0:0:
22,61,47557,1,8,1:0:0:0:
144,104,47806,1,2,1:2:0:0:
245,142,48055,6,0,P|292:85|347:74,1,120,4|8,1:0|1:0,1:0:0:0:
363,79,48429,1,8,1:0:0:0:
383,100,48553,2,0,P|375:166|369:243,1,120,2|8,1:2|1:0,1:0:0:0:
471,342,49052,2,0,P|479:276|485:199,1,120,4|2,1:2|1:2,1:0:0:0:
312,295,49550,1,8,1:0:0:0:
435,332,49799,1,2,1:2:0:0:
240,352,50048,6,0,B|162:329|182:372|81:347,1,120,4|8,1:0|1:0,1:0:0:0:
121,354,50422,1,8,1:0:0:0:
121,354,50547,1,2,1:2:0:0:
14,231,50796,1,8,1:0:0:0:
37,375,51045,1,8,1:0:0:0:
37,375,51169,1,8,1:0:0:0:
37,375,51294,1,2,1:2:0:0:
105,221,51543,2,0,P|153:231|232:220,1,120,8|2,1:0|1:2,1:0:0:0:
324,354,52042,5,4,1:0:0:0:
338,129,52291,1,2,1:2:0:0:
224,252,52540,1,4,1:3:0:0:
434,256,52789,1,8,1:0:0:0:
224,252,53038,1,4,1:2:0:0:
434,256,53287,1,2,1:2:0:0:
224,252,53537,2,0,P|152:235|86:233,1,120,8|4,1:0|1:2,1:0:0:0:
0,89,54053,5,4,1:0:0:0:
123,132,54303,1,8,1:0:0:0:
123,132,54428,1,8,1:0:0:0:
123,132,54553,1,2,1:2:0:0:
15,189,54803,1,8,1:0:0:0:
188,243,55053,5,4,1:0:0:0:
75,308,55303,1,8,1:0:0:0:
75,308,55428,1,8,1:0:0:0:
75,308,55553,1,2,1:2:0:0:
192,344,55803,1,8,1:0:0:0:
242,142,56053,5,4,1:0:0:0:
285,265,56303,1,8,1:0:0:0:
285,265,56428,1,8,1:0:0:0:
285,265,56553,1,2,1:2:0:0:
342,157,56803,1,8,1:0:0:0:
370,354,57053,5,4,1:0:0:0:
435,241,57303,1,8,1:0:0:0:
435,241,57428,1,8,1:0:0:0:
435,241,57553,1,2,1:2:0:0:
471,358,57803,1,8,1:0:0:0:
279,247,58053,6,0,P|301:126|330:64,1,180,4|2,1:0|1:2,1:0:0:0:
324,74,58550,2,0,L|189:80,1,120,4|8,1:2|1:0,1:0:0:0:
54,227,59048,2,0,L|189:221,1,120,4|2,1:2|1:2,1:0:0:0:
204,79,59545,1,8,1:0:0:0:
173,221,59794,1,2,1:2:0:0:
59,124,60043,6,0,P|65:50|105:1,1,120,4|0,1:0|1:0,1:0:0:0:
268,176,60540,1,2,1:2:0:0:
267,304,60789,1,8,1:0:0:0:
153,362,61038,1,4,1:2:0:0:
140,251,61286,1,2,1:2:0:0:
379,364,61535,2,2,L|391:227,1,120,8|2,1:0|2:1,1:0:0:0:
81,308,69577,6,0,P|118:299|188:295,1,80,2|0,1:2|1:0,1:0:0:0:
259,333,70079,6,0,L|427:331,1,144,6|2,1:2|1:2,1:0:0:0:
402,331,70579,2,0,P|405:274|413:217,1,96,4|2,1:3|1:2,1:0:0:0:
332,173,71079,2,0,P|341:122|346:62,1,96,4|0,1:3|1:0,1:0:0:0:
471,151,71580,1,8,1:0:0:0:
468,254,71830,1,2,1:2:0:0:
367,280,72080,6,0,P|310:250|212:267,1,144,4|2,1:2|1:2,1:0:0:0:
232,256,72580,2,0,L|121:256,1,96,4|2,1:3|1:2,1:0:0:0:
97,346,73081,2,0,L|-9:346,1,96,4|0,1:3|1:0,1:0:0:0:
35,246,73581,1,8,1:0:0:0:
66,151,73831,1,4,1:2:0:0:
58,263,74081,6,0,L|84:112,1,144,4|2,1:0|1:2,1:0:0:0:
87,97,74582,1,4,1:3:0:0:
183,137,74832,1,8,1:0:0:0:
158,321,75082,2,0,L|174:216,1,96,4|2,1:2|1:2,1:0:0:0:
248,80,75582,2,0,P|285:100|338:106,1,96,8|2,1:0|1:2,1:0:0:0:
492,104,76083,6,0,P|481:195|479:278,1,144,4|2,1:0|1:2,1:0:0:0:
478,247,76591,1,4,1:3:0:0:
410,352,76845,1,8,1:0:0:0:
357,271,77099,1,4,1:3:0:0:
410,352,77354,1,2,1:2:0:0:
357,271,77608,2,0,P|297:271|228:277,1,96,8|4,1:0|1:2,1:0:0:0:
162,344,78087,6,0,P|101:337|-2:336,1,144,4|2,1:0|1:2,1:0:0:0:
18,335,78587,2,0,P|23:284|22:202,1,96,4|2,1:3|1:2,1:0:0:0:
104,191,79087,2,0,P|99:140|100:57,1,96,4|2,1:3|1:2,1:0:0:0:
184,44,79588,1,8,1:0:0:0:
251,103,79838,1,2,1:2:0:0:
206,192,80088,5,4,1:2:0:0:
206,192,80213,1,0,1:0:0:0:
206,192,80338,1,2,1:2:0:0:
92,189,80588,1,4,1:3:0:0:
181,295,80838,1,8,1:0:0:0:
317,228,81089,2,0,L|321:117,1,96,4|2,1:3|1:2,1:0:0:0:
457,200,81589,2,0,L|449:327,1,96,8|2,1:0|1:2,1:0:0:0:
438,316,81964,1,4,1:2:0:0:
423,334,82089,6,0,P|373:322|293:326,1,96,4|2,1:0|1:2,1:0:0:0:
173,355,82590,1,4,1:3:0:0:
315,289,82840,1,8,1:0:0:0:
169,315,83090,2,0,P|170:249|197:192,1,96,4|2,1:3|1:2,1:0:0:0:
268,90,83590,2,0,L|146:88,1,96,8|4,1:0|1:2,1:0:0:0:
15,49,84091,6,0,P|32:88|31:163,1,96,4|2,1:0|1:2,1:0:0:0:
9,277,84591,1,4,1:3:0:0:
110,197,84841,1,8,1:0:0:0:
110,197,84966,1,0,1:0:0:0:
110,197,85091,1,4,1:3:0:0:
103,352,85341,1,8,1:0:0:0:
178,282,85592,1,4,1:3:0:0:
188,289,86092,6,0,B|256:276|237:319|336:303,1,120,4|8,1:0|1:0,1:0:0:0:
304,306,86465,1,8,1:0:0:0:
304,306,86590,1,2,1:2:0:0:
445,350,86839,1,8,1:0:0:0:
485,228,87088,1,8,1:0:0:0:
485,228,87213,1,8,1:0:0:0:
485,228,87337,1,2,1:2:0:0:
445,350,87587,1,8,1:0:0:0:
312,313,87836,1,2,1:2:0:0:
349,174,88085,6,0,P|365:110|391:42,1,120,4|8,1:2|1:0,1:0:0:0:
383,59,88459,1,8,1:0:0:0:
383,59,88583,1,2,1:2:0:0:
461,139,88832,1,8,1:0:0:0:
410,237,89082,2,0,P|344:227|261:239,1,120,4|2,1:2|1:2,1:0:0:0:
198,314,89580,1,8,1:0:0:0:
108,234,89829,1,2,1:2:0:0:
203,114,90078,6,0,P|269:124|352:112,1,120,4|8,1:0|1:0,1:0:0:0:
321,119,90452,1,8,1:0:0:0:
321,119,90577,1,2,1:2:0:0:
421,44,90826,1,8,1:0:0:0:
318,18,91075,1,8,1:0:0:0:
318,18,91199,1,8,1:0:0:0:
318,18,91324,1,2,1:2:0:0:
473,138,91573,2,0,P|462:192|458:269,1,120,8|2,1:0|1:2,1:0:0:0:
319,358,92072,6,0,P|303:301|264:253,1,120,4|8,1:2|1:0,1:0:0:0:
237,265,92445,1,8,1:0:0:0:
209,277,92570,2,0,P|153:282|77:277,1,120,2|8,1:2|1:0,1:0:0:0:
219,123,93068,2,0,P|275:118|351:123,1,120,4|2,1:2|1:2,1:0:0:0:
165,16,93567,1,8,1:0:0:0:
51,63,93816,1,4,1:2:0:0:
219,123,94065,5,4,1:0:0:0:
101,185,94316,1,8,1:0:0:0:
101,185,94441,1,8,1:0:0:0:
101,185,94567,1,2,1:2:0:0:
216,234,94818,1,8,1:0:0:0:
23,266,95069,5,4,1:0:0:0:
145,319,95320,1,8,1:0:0:0:
145,319,95445,1,8,1:0:0:0:
145,319,95571,1,2,1:2:0:0:
33,376,95822,1,8,1:0:0:0:
261,361,96073,5,4,1:0:0:0:
314,239,96324,1,8,1:0:0:0:
314,239,96449,1,8,1:0:0:0:
314,239,96575,1,2,1:2:0:0:
371,351,96826,1,8,1:0:0:0:
385,116,97077,5,4,1:0:0:0:
446,234,97328,1,8,1:0:0:0:
446,234,97454,1,8,1:0:0:0:
446,234,97579,1,2,1:2:0:0:
495,118,97830,1,8,1:0:0:0:
256,128,98081,6,0,B|163:97|173:174|69:131,1,180,4|2,1:0|1:2,1:0:0:0:
134,197,98583,2,0,P|50:173|3:191,1,120,4|8,1:2|1:0,1:0:0:0:
48,291,99085,1,2,1:2:0:0:
21,181,99336,1,4,1:3:0:0:
167,356,99588,1,8,1:0:0:0:
210,208,99839,1,4,1:2:0:0:
278,306,100090,6,0,P|335:282|440:294,1,120,4|8,1:0|1:0,1:0:0:0:
418,294,100466,1,8,1:0:0:0:
440,313,100592,2,0,P|451:241|448:163,1,120,2|8,1:2|1:0,1:0:0:0:
311,54,101094,2,0,P|300:126|303:204,1,120,4|2,1:2|1:2,1:0:0:0:
374,199,101596,1,8,1:0:0:0:
409,129,101847,1,4,1:2:0:0:
303,353,102107,5,4,1:3:0:0:
303,353,102357,5,4,1:3:0:0:
303,353,102607,5,4,1:3:0:0:
303,353,102857,5,4,1:3:0:0:
303,353,103107,5,4,1:3:0:0:
303,353,103357,5,4,1:3:0:0:
303,353,103569,6,0,P|253:346|211:347,1,83.9999999999999,8|0,1:0|2:0,1:0:0:0:
174,365,104084,6,0,P|174:297|146:219,1,120,4|8,1:0|1:0,1:0:0:0:
160,247,104459,1,8,1:0:0:0:
160,247,104584,1,2,1:2:0:0:
33,330,104834,1,8,1:0:0:0:
157,158,105084,2,0,P|202:177|289:159,1,120,4|2,1:2|1:2,1:0:0:0:
285,39,105585,1,8,1:0:0:0:
153,21,105835,1,4,1:2:0:0:
11,151,106085,6,0,P|13:217|12:289,1,120,4|8,1:0|1:0,1:0:0:0:
12,270,106460,1,8,1:0:0:0:
12,270,106585,1,2,1:2:0:0:
157,343,106835,1,8,1:0:0:0:
246,125,107086,6,0,P|248:191|247:263,1,120,4|8,1:0|1:0,1:0:0:0:
247,244,107461,1,8,1:0:0:0:
247,244,107586,1,2,1:2:0:0:
392,317,107836,1,8,1:0:0:0:
477,39,108086,6,0,P|474:105|476:177,1,120,4|8,1:0|1:0,1:0:0:0:
475,158,108461,1,8,1:0:0:0:
475,158,108587,1,2,1:2:0:0:
331,231,108837,1,8,1:0:0:0:
224,56,109087,6,0,P|221:122|223:194,1,120,4|8,1:0|1:0,1:0:0:0:
223,175,109462,1,8,1:0:0:0:
223,175,109587,1,2,1:2:0:0:
78,248,109837,1,8,1:0:0:0:
256,340,110088,6,0,P|336:335|444:351,1,180,4|2,1:0|1:2,1:0:0:0:
373,299,110588,2,0,P|444:294|489:272,1,120,4|8,1:2|1:0,1:0:0:0:
239,220,111088,2,0,P|293:196|353:194,1,120,4|2,1:2|1:2,1:0:0:0:
141,354,111589,5,8,1:0:0:0:
60,302,111839,1,4,1:2:0:0:
239,220,112089,1,4,1:0:0:0:
233,316,112339,1,0,1:0:0:0:
70,207,112589,1,2,1:2:0:0:
156,164,112839,1,8,1:0:0:0:
140,371,113090,1,4,1:2:0:0:
44,309,113340,1,2,1:2:0:0:
254,212,113590,1,8,1:0:0:0:
247,325,113840,1,4,1:2:0:0:
55,197,114090,5,4,1:0:0:0:
157,146,114340,1,0,1:0:0:0:
268,93,114591,5,2,1:2:0:0:
166,42,114841,1,8,1:0:0:0:
163,252,115091,5,4,1:0:0:0:
273,210,115341,1,2,1:2:0:0:
477,204,115591,5,8,1:0:0:0:
369,241,115841,1,2,1:2:0:0:
287,302,116092,5,4,1:0:0:0:
389,353,116342,1,0,1:0:0:0:
184,265,116619,5,2,1:2:0:0:
220,373,116869,1,8,1:0:0:0:
107,198,117119,5,4,1:2:0:0:
56,299,117369,1,2,1:2:0:0:
34,111,117619,6,2,P|96:166|226:127,1,180,10|0,1:0|2:0,1:0:0:0:
342,55,118120,6,0,L|434:61,1,64,6|0,1:0|2:0,1:0:0:0:
347,84,118367,2,0,L|283:79,1,64,2|0,1:0|2:0,1:0:0:0:
354,116,118614,2,0,L|446:122,1,64,2|0,1:0|2:0,1:0:0:0:
287,193,118861,1,10,1:0:0:0:
287,193,118984,1,2,1:0:0:0:
287,193,119108,2,0,P|291:255|295:360,1,128,4|2,1:2|1:0,1:0:0:0:
477,342,119602,2,2,L|485:185,1,128,10|4,1:0|1:2,1:0:0:0:
378,366,120095,1,6,1:0:0:0:
141,353,120345,6,0,L|69:356,1,64,2|0,1:0|2:0,1:0:0:0:
112,321,120595,2,0,L|40:324,1,64,2|0,1:0|2:0,1:0:0:0:
156,209,120845,6,0,L|228:212,1,64,10|0,1:0|2:0,1:0:0:0:
185,177,121095,2,0,L|257:180,1,64,4|0,1:2|2:0,1:0:0:0:
123,70,121345,6,0,L|51:73,1,64,2|0,1:0|2:0,1:0:0:0:
94,38,121596,2,0,L|22:41,1,64,10|0,1:0|2:0,1:0:0:0:
231,80,121846,5,4,1:2:0:0:
231,80,121981,1,4,1:2:0:0:
231,80,122118,2,0,P|245:144|227:235,1,128,6|2,1:0|1:0,1:0:0:0:
387,305,122618,2,0,P|356:330|319:370,1,64,2|0,1:0|2:0,1:0:0:0:
352,198,122868,2,0,P|321:247|312:266,1,64,10|0,1:0|2:0,1:0:0:0:
465,350,123118,2,0,P|465:279|481:180,1,128,4|2,1:2|1:0,1:0:0:0:
477,191,123493,1,0,1:0:0:0:
485,160,123619,2,0,P|411:157|336:125,1,128,10|0,1:0|1:0,1:0:0:0:
164,21,124085,5,4,1:0:0:0:
123,171,124335,1,2,1:0:0:0:
64,80,124585,1,2,1:0:0:0:
73,269,124835,1,10,1:0:0:0:
204,106,125085,1,4,1:2:0:0:
180,291,125335,1,2,1:0:0:0:
4,172,125586,1,10,1:0:0:0:
18,351,125836,1,4,1:2:0:0:
292,347,126086,6,0,L|292:265,1,64,6|0,1:0|2:0,1:0:0:0:
322,322,126336,2,0,L|322:240,1,64,2|0,1:0|2:0,1:0:0:0:
194,151,126586,2,0,L|194:233,1,64,2|0,1:0|2:0,1:0:0:0:
339,117,126836,1,10,1:0:0:0:
339,117,126961,1,0,1:0:0:0:
339,117,127087,2,0,P|401:150|494:150,1,128,4|2,1:2|1:0,1:0:0:0:
289,31,127587,1,10,1:0:0:0:
207,135,127837,1,4,1:2:0:0:
207,135,127962,1,4,1:2:0:0:
207,135,128087,5,4,1:0:0:0:
190,290,128337,1,2,1:0:0:0:
113,205,128588,1,2,1:0:0:0:
289,217,128838,1,10,1:0:0:0:
113,349,129088,1,4,1:2:0:0:
94,218,129338,1,2,1:0:0:0:
302,231,129588,1,10,1:0:0:0:
280,359,129838,1,4,1:2:0:0:
85,248,130089,6,0,L|-2:246,1,64,6|0,1:0|2:0,1:0:0:0:
128,143,130345,2,0,L|213:143,1,64,2|0,1:0|2:0,1:0:0:0:
88,38,130601,2,0,L|5:38,1,64,2|0,1:0|2:0,1:0:0:0:
194,50,130858,1,10,1:0:0:0:
194,50,130986,1,0,1:0:0:0:
194,50,131114,1,4,1:2:0:0:
196,240,131339,5,2,1:0:0:0:
318,272,131584,1,10,1:0:0:0:
362,149,131830,1,2,1:0:0:0:
174,238,132090,6,0,P|181:302|173:376,1,128,6|2,1:0|1:0,1:0:0:0:
342,135,132594,2,0,P|335:199|343:273,1,128,6|2,1:0|1:0,1:0:0:0:
96,42,133098,5,4,1:2:0:0:
80,173,133350,1,2,1:0:0:0:
63,292,133602,1,10,1:0:0:0:
57,164,133854,1,2,1:0:0:0:
175,365,134106,1,4,1:0:0:0:
58,339,142087,5,4,1:3:0:0:
58,339,142212,1,0,1:3:0:0:
58,339,142337,1,4,1:3:0:0:
134,364,142587,2,0,P|137:331|144:282,1,64,4|2,1:3|1:3,1:0:0:0:
210,263,143088,2,0,P|208:217|184:108,1,128,4|2,1:3|1:3,1:0:0:0:
42,57,144090,5,4,1:3:0:0:
42,57,144215,1,0,1:0:0:0:
42,57,144340,1,4,1:3:0:0:
84,119,144591,2,0,P|89:163|89:199,1,64,4|2,1:3|1:3,1:0:0:0:
22,227,145092,2,0,P|17:271|17:307,2,64,4|0|2,1:3|1:0|1:3,1:0:0:0:
161,326,146093,5,4,1:3:0:0:
161,326,146218,1,0,1:0:0:0:
161,326,146344,1,4,1:3:0:0:
236,309,146594,2,0,L|324:324,1,64,4|2,1:3|1:3,1:0:0:0:
373,344,147095,2,0,L|380:200,1,128,4|2,1:3|1:3,1:0:0:0:
379,137,147846,1,4,1:3:0:0:
461,176,148097,5,4,1:3:0:0:
461,176,148347,2,0,L|458:260,1,64,8|4,1:0|1:3,1:0:0:0:
384,142,148848,1,4,1:3:0:0:
384,142,149098,2,0,L|385:55,1,64,8|4,1:0|1:3,1:0:0:0:
270,30,149599,2,2,L|270:128,1,96,8|0,1:0|2:0,1:2:0:0:
242,157,150127,6,0,P|183:145|134:146,1,104,4|8,1:0|1:0,1:0:0:0:
140,145,150500,1,8,1:0:0:0:
140,145,150624,1,2,1:2:0:0:
19,237,150873,1,8,1:0:0:0:
164,311,151122,1,8,1:0:0:0:
164,311,151246,1,8,1:0:0:0:
164,311,151370,1,2,1:2:0:0:
19,237,151619,1,8,1:0:0:0:
147,151,151868,1,2,1:2:0:0:
140,276,152117,6,0,L|133:393,1,104,4|2,1:0|1:2,1:0:0:0:
272,270,152614,2,0,L|279:137,1,104,4|8,1:3|1:0,1:0:0:0:
283,33,153112,1,4,1:2:0:0:
407,95,153360,1,2,1:2:0:0:
395,219,153609,1,8,1:0:0:0:
416,106,153858,1,4,1:2:0:0:
408,225,154107,6,0,P|400:274|391:354,1,104,4|8,1:0|1:0,1:0:0:0:
393,327,154482,1,8,1:0:0:0:
393,327,154607,1,2,1:2:0:0:
256,280,154857,1,8,1:0:0:0:
153,367,155107,2,0,P|145:307|130:234,1,104,4|2,1:2|1:2,1:0:0:0:
25,175,155608,1,8,1:0:0:0:
144,247,155858,1,4,1:2:0:0:
17,192,156108,6,0,P|4:245|0:308,1,104,4|2,1:0|1:2,1:0:0:0:
170,113,156608,1,4,1:3:0:0:
144,247,156858,1,8,1:0:0:0:
65,51,157109,1,4,1:2:0:0:
277,68,157359,1,2,1:2:0:0:
170,113,157609,1,8,1:0:0:0:
65,51,157859,1,4,1:2:0:0:
277,68,158109,5,4,1:0:0:0:
316,202,158359,1,8,1:0:0:0:
316,202,158484,1,8,1:0:0:0:
316,202,158610,1,2,1:2:0:0:
389,100,158860,1,8,1:0:0:0:
380,297,159110,5,4,1:0:0:0:
471,191,159360,1,8,1:0:0:0:
471,191,159485,1,8,1:0:0:0:
471,191,159610,1,2,1:2:0:0:
494,315,159860,1,8,1:0:0:0:
258,353,160111,5,4,1:0:0:0:
127,304,160361,1,8,1:0:0:0:
127,304,160486,1,8,1:0:0:0:
127,304,160611,1,2,1:2:0:0:
233,239,160861,1,8,1:0:0:0:
74,176,161111,5,4,1:0:0:0:
205,127,161361,1,8,1:0:0:0:
205,127,161486,1,8,1:0:0:0:
205,127,161612,1,2,1:2:0:0:
99,62,161862,1,8,1:0:0:0:
326,78,162112,6,0,P|311:149|341:260,1,156,4|2,1:0|1:2,1:0:0:0:
264,176,162612,2,0,P|283:228|290:288,1,104,4|8,1:2|1:0,1:0:0:0:
159,381,163113,1,4,1:3:0:0:
149,219,163363,1,2,1:2:0:0:
159,381,163613,1,8,1:0:0:0:
21,305,163863,1,4,1:2:0:0:
159,381,164113,6,0,P|209:358|295:363,1,104,4|8,1:0|1:0,1:0:0:0:
282,358,164488,1,8,1:0:0:0:
306,366,164614,2,0,P|318:299|321:254,1,104,2|8,1:2|1:0,1:0:0:0:
467,275,165114,2,0,P|455:208|452:163,1,104,4|2,1:2|1:2,1:0:0:0:
485,31,165614,1,8,1:0:0:0:
423,164,165864,1,4,1:2:0:0:
300,97,166115,5,4,1:0:0:0:
300,97,166365,1,4,1:3:0:0:
423,164,166615,1,4,1:2:0:0:
240,224,166865,1,8,1:0:0:0:
122,165,167115,2,0,L|123:377,1,180,4|2,1:2|1:2,1:0:0:0:
122,344,167616,2,0,P|48:338|0:339,1,120,8|4,1:0|1:2,1:0:0:0:
205,301,168129,6,0,P|278:306|327:305,1,120,4|8,1:0|1:0,1:0:0:0:
324,305,168504,1,8,1:0:0:0:
324,305,168629,1,2,1:2:0:0:
461,345,168879,1,8,1:0:0:0:
337,271,169129,1,4,1:2:0:0:
473,304,169379,1,2,1:2:0:0:
340,236,169630,2,0,P|272:239|198:231,1,120,8|4,1:0|1:2,1:0:0:0:
57,324,170118,6,0,P|64:255|55:188,1,120,4|8,1:0|1:0,1:0:0:0:
87,196,170493,1,8,1:0:0:0:
87,196,170618,2,0,L|88:70,1,120,2|4,1:2|1:2,1:0:0:0:
257,36,171118,6,0,P|250:105|259:172,1,120,4|8,1:0|1:0,1:0:0:0:
280,170,171493,1,8,1:0:0:0:
280,170,171619,2,0,L|279:296,1,120,2|4,1:2|1:2,1:0:0:0:
442,348,172119,6,0,P|449:279|440:212,1,120,4|8,1:0|1:0,1:0:0:0:
420,210,172494,1,8,1:0:0:0:
420,210,172619,2,0,L|421:84,1,120,2|4,1:2|1:2,1:0:0:0:
238,102,173120,6,0,P|231:171|240:238,1,120,4|8,1:0|1:0,1:0:0:0:
260,240,173495,1,8,1:0:0:0:
260,240,173620,2,0,L|259:366,1,120,2|4,1:2|1:2,1:0:0:0:
229,363,173995,1,4,1:2:0:0:
199,364,174120,6,0,P|128:336|25:348,1,180,4|2,1:0|1:2,1:0:0:0:
117,282,174621,2,0,P|51:290|-6:271,1,120,4|8,1:2|1:0,1:0:0:0:
187,173,175121,2,0,P|129:157|70:165,1,120,4|2,1:2|1:2,1:0:0:0:
219,46,175621,5,8,1:0:0:0:
368,93,175871,1,4,1:2:0:0:
326,245,176122,1,4,1:0:0:0:
173,197,176372,1,8,1:0:0:0:
173,197,176497,1,8,1:0:0:0:
173,197,176622,1,2,1:2:0:0:
326,245,176872,1,8,1:0:0:0:
368,93,177122,1,4,1:2:0:0:
219,46,177372,1,2,1:2:0:0:
173,197,177623,2,0,P|175:257|165:335,1,120,8|4,1:0|1:2,1:0:0:0:
7,193,178123,6,0,P|5:133|15:55,1,120,4|2,1:0|1:2,1:0:0:0:
89,221,178620,1,4,1:3:0:0:
252,131,178869,1,8,1:0:0:0:
157,97,179118,1,8,1:0:0:0:
157,97,179242,1,8,1:0:0:0:
157,97,179366,1,2,1:2:0:0:
221,237,179615,1,8,1:0:0:0:
359,176,179864,1,4,1:2:0:0:
252,131,180113,1,4,1:3:0:0:
351,344,180361,5,8,1:0:0:0:
351,344,180610,2,0,P|425:340|466:350,1,80,4|2,1:2|1:2,1:0:0:0:
221,237,181108,2,0,P|295:241|336:231,1,80,4|2,1:0|1:2,1:0:0:0:
95,338,181605,2,0,L|72:214,1,120,8|4,1:0|2:0,1:0:0:0:
83,183,182103,6,0,L|151:183,1,68,6|0,1:0|2:0,1:0:0:0:
74,221,182353,2,0,L|-25:221,1,68,2|0,1:0|2:0,1:0:0:0:
91,147,182603,2,0,L|177:147,1,68,2|0,1:0|2:0,1:0:0:0:
66,256,182853,2,0,L|-14:256,1,68,10|0,1:0|2:0,1:0:0:0:
110,47,183103,1,4,1:2:0:0:
159,147,183353,1,2,1:0:0:0:
288,193,183625,2,0,P|344:148|407:124,1,136,10|4,1:0|1:2,1:0:0:0:
403,124,184000,1,4,1:2:0:0:
403,124,184125,1,4,1:0:0:0:
290,298,184375,6,0,L|208:298,1,68,2|0,1:0|2:0,1:0:0:0:
261,330,184625,2,0,L|179:329,1,68,2|0,1:0|2:0,1:0:0:0:
392,328,184875,6,0,L|474:328,1,68,10|0,1:0|2:0,1:0:0:0:
421,360,185125,2,0,L|503:359,1,68,4|0,1:2|2:0,1:0:0:0:
301,163,185375,6,0,L|219:163,1,68,2|0,1:0|2:0,1:0:0:0:
272,195,185626,2,0,L|190:194,1,68,10|0,1:0|2:0,1:0:0:0:
406,89,185876,5,4,1:2:0:0:
406,89,186001,1,4,1:2:0:0:
406,89,186126,2,0,P|401:160|405:238,1,136,6|2,1:0|1:0,1:0:0:0:
283,363,186626,2,0,L|283:277,1,68,2|0,1:0|2:0,1:0:0:0:
163,216,186876,2,0,L|161:317,1,68,10|0,1:0|2:0,1:0:0:0:
39,360,187127,1,4,1:2:0:0:
25,138,187377,2,0,P|65:137|115:137,1,68,2|0,1:0|2:0,1:0:0:0:
195,59,187627,2,0,P|252:70|355:57,1,136,10|2,1:0|1:0,1:0:0:0:
473,38,188127,5,4,1:0:0:0:
480,287,188377,1,2,1:0:0:0:
395,192,188628,1,2,1:0:0:0:
387,353,188878,1,10,1:0:0:0:
395,192,189128,1,4,1:2:0:0:
290,308,189378,1,2,1:0:0:0:
395,192,189628,1,10,1:0:0:0:
237,197,189878,1,4,1:2:0:0:
395,192,190129,6,0,L|480:191,1,68,6|0,1:0|2:0,1:0:0:0:
366,157,190379,2,0,L|442:156,1,68,2|0,1:0|2:0,1:0:0:0:
271,88,190629,6,0,L|186:87,1,68,2|0,1:0|2:0,1:0:0:0:
300,53,190879,2,0,L|224:52,1,68,10|0,1:0|2:0,1:0:0:0:
50,93,191129,5,4,1:2:0:0:
5,213,191389,1,2,1:0:0:0:
5,213,191520,1,0,1:0:0:0:
5,213,191650,2,0,P|5:302|9:352,1,136,10|4,1:0|1:2,1:0:0:0:
170,362,192139,5,4,1:0:0:0:
206,267,192389,2,0,P|174:200|105:171,1,136,2|2,1:0|1:0,1:0:0:0:
89,278,192853,1,10,1:0:0:0:
257,339,193107,2,0,P|323:337|404:343,1,136,4|2,1:2|1:0,1:0:0:0:
488,205,193615,2,0,P|422:207|341:201,1,136,10|4,1:0|1:2,1:0:0:0:
314,216,193997,1,4,1:2:0:0:
277,235,194124,6,0,P|229:185|142:135,1,136,6|2,1:0|1:0,1:0:0:0:
54,170,194624,1,2,1:0:0:0:
58,331,194874,1,10,1:0:0:0:
172,356,195124,1,4,1:2:0:0:
173,148,195374,6,0,L|173:61,1,68,2|0,1:0|2:0,1:0:0:0:
208,104,195624,2,0,L|206:18,1,68,10|0,1:0|2:0,1:0:0:0:
370,95,195880,6,0,L|370:182,1,68,2|0,1:0|2:0,1:0:0:0:
335,139,196136,2,0,L|337:225,1,68,6|0,1:0|2:0,1:0:0:0:
114,344,196406,6,0,L|114:257,1,68,2|0,1:0|2:0,1:0:0:0:
149,300,196676,2,0,L|147:214,1,68,2|0,1:0|2:0,1:0:0:0:
431,214,196953,6,0,P|430:288|433:339,1,113.999996955872,10|0,1:0|2:0,1:0:0:0:
432,327,197241,1,6,1:0:0:0:
256,192,197366,12,0,212000,1:0:0:0:
