osu file format v14

[General]
AudioFilename: audio.mp3
AudioLeadIn: 0
PreviewTime: 45921
Countdown: 0
SampleSet: Normal
StackLeniency: 0.8
Mode: 0
LetterboxInBreaks: 0
WidescreenStoryboard: 1

[Editor]
Bookmarks: 62037,62287,62537,62787,63037,63287,63538,63788,64038,64288,64538,64788,65039,65289,65539,65789,66039,66289,66540,66790,67040,67290,67540,67790,68041,68291,68541,68791,69041,69291,69542,136106,136336,136586,136836,137087,137337,137587,137837,138087,138337,138588,138838,139088,139338,139588,139838,140089,140339,140589,140839,141089,141339,141590,141840,142110
DistanceSpacing: 1.2
BeatDivisor: 4
GridSize: 4
TimelineZoom: 2.4

[Metadata]
Title:Maps
TitleUnicode:Maps
Artist:Yeah Yeah Yeahs
ArtistUnicode:Yeah Yeah Yeahs
Creator:rHO
Version:Normal
Source:
Tags:pandahero fever to tell english rock garage revival indie
BeatmapID:4553990
BeatmapSetID:2159262

[Difficulty]
HPDrainRate:4
CircleSize:3
OverallDifficulty:5
ApproachRate:5
SliderMultiplier:1.3
SliderTickRate:1

[Events]
//Background and Video events
0,0,"5d2567c2-5334-4663-9b3a-2a75024387db.jpg",0,0
//Break Periods
2,62284,68362
2,134306,140887
//Storyboard Layer 0 (Background)
//Storyboard Layer 1 (Fail)
//Storyboard Layer 2 (Pass)
//Storyboard Layer 3 (Foreground)
//Storyboard Layer 4 (Overlay)
//Storyboard Sound Samples

[TimingPoints]
14020,500.834724540902,4,1,1,50,1,0
20030,497.512437810945,4,1,1,50,1,0
24010,526.315789473684,4,1,1,50,1,0
24799,485.436893203884,4,1,1,50,1,0
26014,502.092050209205,4,1,1,50,1,0
29528,-100,4,1,1,40,0,0
30034,500.333555703803,4,1,1,60,1,0
34036,495.867768595041,4,1,1,60,1,0
36019,504.201680672269,4,1,1,60,1,0
40052,500.333555703803,4,1,1,60,1,0
44054,508.474576271186,4,1,1,60,1,0
45579,483.870967741935,4,1,1,40,1,0
46062,498.338870431894,4,1,1,60,1,0
46062,-86.9565217391304,4,1,1,60,0,1
46809,-100,4,1,1,60,0,1
54035,-100,4,1,1,50,0,1
54053,500,4,1,1,50,1,1
58053,497.512437810945,4,1,1,60,1,1
58301,-86.9565217391304,4,1,1,50,0,1
58549,-86.9565217391304,4,1,1,60,0,1
61535,-100,4,1,1,60,0,1
62033,502.933780385583,4,1,1,50,1,0
69577,-100,4,1,1,40,0,0
69954,-100,4,1,1,50,0,0
70079,500.333555703803,4,1,1,50,1,0
76083,508.474576271186,4,1,1,50,1,0
78087,500.333555703803,4,1,1,50,1,0
86092,498.338870431894,4,1,1,60,1,0
86092,-86.9565217391304,4,1,1,60,0,1
87088,-100,4,1,1,60,0,1
94065,502.092050209205,4,1,1,50,1,1
99336,-100,4,1,1,60,0,1
99588,-86.9565217391304,4,1,1,60,0,1
102107,500.333555703803,4,1,1,60,1,1
103569,500.333555703803,4,1,1,60,1,1
103944,-100,4,1,1,40,0,1
104084,500.333555703803,4,1,1,40,1,1
104584,-100,4,1,1,60,0,1
116619,500.333555703803,4,1,1,60,1,1
118120,494.233937397035,4,1,1,65,1,0
120095,500.333555703803,4,1,1,65,1,0
121846,540.540540540541,4,1,1,65,1,0
122118,500.333555703803,4,1,1,65,1,0
124085,500.333555703803,4,1,1,65,1,0
130089,512.820512820513,4,1,1,65,1,0
131339,491.803278688525,4,1,1,50,1,0
132090,504.201680672269,4,1,1,50,1,0
132587,-100,4,1,1,65,0,0
134106,500,4,1,1,65,1,0
142087,500.834724540902,4,1,1,35,1,0
143339,-100,4,1,1,65,0,0
143589,-100,4,1,1,35,0,0
143839,-100,4,1,1,65,0,0
144090,-100,4,1,1,35,0,0
147345,-100,4,1,1,65,0,0
147596,-100,4,1,1,35,0,0
148097,-100,4,1,1,40,0,0
148722,-100,4,1,1,65,0,0
148848,-100,4,1,1,40,0,0
150100,-86.9565217391304,4,1,1,55,0,0
150127,497.512437810945,4,1,1,55,1,1
153733,-100,4,1,1,65,0,1
153858,-100,4,1,1,55,0,1
154107,500.333555703803,4,1,1,55,1,1
155232,-100,4,1,1,65,0,1
155357,-100,4,1,1,55,0,1
155608,-86.9565217391304,4,1,1,55,0,1
163237,-86.9565217391304,4,1,1,65,0,1
163363,-86.9565217391304,4,1,1,55,0,1
165989,-86.9565217391304,4,1,1,65,0,1
166115,-86.9565217391304,4,1,1,55,0,1
167365,-86.9565217391304,4,1,1,65,0,1
167616,-86.9565217391304,4,1,1,55,0,1
167991,-86.9565217391304,4,1,1,65,0,1
168129,500.333555703803,4,1,1,65,1,1
168629,-100,4,1,1,60,0,1
169129,-86.9565217391304,4,1,1,60,0,1
170118,500.333555703803,4,1,1,60,1,1
170118,-86.9565217391304,4,1,1,60,0,1
178123,497.512437810945,4,1,1,60,1,0
182103,500,4,1,1,65,1,0
183625,500,4,1,1,65,1,0
184125,500.333555703803,4,1,1,65,1,0
187251,-100,4,1,1,60,0,0
187377,-100,4,1,1,65,0,0
191129,521.739130434783,4,1,1,65,1,0
191259,-100,4,1,1,60,0,0
191389,-100,4,1,1,65,0,0
192139,500,4,1,1,65,1,0
192853,508.474576271186,4,1,1,65,1,0
194124,500,4,1,1,65,1,0
195624,512.820512820513,4,1,1,65,1,0
196136,540.540540540541,4,1,1,65,1,0
196676,555.555555555556,4,1,1,65,1,0
197241,500.333555703803,4,1,1,65,1,0
212000,-100,4,1,1,15,0,0

[Colours]
Combo1 : 17,254,176
Combo2 : 173,255,95
Combo3 : 255,88,100
Combo4 : 255,94,55

[HitObjects]
319,127,14020,6,0,P|388:140|453:134,1,130,4|4,1:3|1:3,1:0:0:0:
490,207,14771,2,0,L|484:276,1,65,8|0,1:0|1:0,1:0:0:0:
421,328,15272,1,4,1:3:0:0:
347,285,15522,2,0,P|304:271|258:274,1,65,8|0,1:0|1:0,1:0:0:0:
212,309,16023,1,4,1:3:0:0:
45,350,16524,1,0,1:0:0:0:
98,284,16774,2,0,P|111:215|100:145,1,130,8|0,1:0|1:0,1:0:0:0:
115,72,17525,2,0,L|207:78,1,65,8|4,1:0|1:3,1:0:0:0:
255,37,18026,5,4,1:3:0:0:
190,193,18527,1,4,1:3:0:0:
264,153,18777,2,0,P|313:145|422:161,1,130,8|4,1:0|1:3,1:0:0:0:
465,195,19529,2,0,L|461:274,1,65,8|0,1:0|1:0,1:0:0:0:
410,327,20030,1,4,1:3:0:0:
274,226,20527,1,0,1:0:0:0:
341,175,20776,2,0,P|350:123|338:41,1,130,8|0,1:0|1:0,1:0:0:0:
257,66,21522,1,8,1:0:0:0:
88,75,22020,6,0,L|88:152,1,65,0|0,1:0|1:0,1:0:0:0:
148,199,22517,1,4,1:3:0:0:
228,174,22766,2,0,P|275:176|364:154,1,130,8|4,1:0|1:3,1:0:0:0:
422,209,23512,2,0,P|419:243|425:278,1,65,8|0,1:0|1:0,1:0:0:0:
373,341,24010,1,4,1:3:0:0:
207,303,24536,1,0,1:0:0:0:
131,341,24799,2,0,P|123:295|120:196,1,130,8|4,1:0|1:3,1:0:0:0:
52,160,25527,1,8,1:0:0:0:
88,83,25769,1,0,1:0:0:0:
162,42,26014,6,0,L|234:77,1,65,4|0,1:3|1:3,1:0:0:0:
211,157,26516,1,4,1:3:0:0:
211,157,26767,2,0,P|259:166|362:140,1,130,8|0,1:0|1:0,1:0:0:0:
416,184,27520,1,8,1:0:0:0:
345,341,28022,5,4,1:3:0:0:
345,341,28273,1,0,1:0:0:0:
345,341,28524,1,4,1:3:0:0:
264,365,28775,2,0,P|210:349|113:345,1,130,8|0,1:0|1:0,1:0:0:0:
61,304,29528,2,0,L|72:226,1,65,8|4,1:0|1:2,1:0:0:0:
104,162,30034,6,0,P|154:172|263:156,2,130,4|4|4,1:0|1:3|1:3,1:0:0:0:
248,73,31535,2,0,L|340:73,1,65,2|0,1:2|1:0,1:0:0:0:
388,112,32035,2,0,P|399:161|388:253,2,130,4|4|4,1:2|1:3|1:3,1:0:0:0:
305,261,33536,1,2,1:2:0:0:
305,261,33786,1,0,1:0:0:0:
267,336,34036,2,0,P|231:327|116:333,2,130,4|4|4,1:0|1:3|1:3,1:0:0:0:
118,254,35523,2,0,L|118:180,1,65,2|0,1:2|1:0,1:0:0:0:
169,124,36019,5,4,1:2:0:0:
169,124,36271,1,0,1:0:0:0:
169,124,36523,2,0,P|218:136|264:127,1,65,4|6,1:3|1:2,1:0:0:0:
309,101,37027,2,0,P|323:134|312:247,1,130,0|6,1:0|1:2,1:0:0:0:
187,331,38035,2,0,P|133:344|102:340,1,65,4|0,1:0|1:0,1:0:0:0:
65,283,38540,2,0,P|74:242|65:194,1,65,4|2,1:3|1:2,1:0:0:0:
29,146,39044,2,0,P|83:112|180:124,1,130,0|6,1:0|1:2,1:0:0:0:
313,57,40052,5,4,1:2:0:0:
313,57,40302,1,0,1:0:0:0:
313,57,40552,2,0,P|360:73|407:72,1,65,4|2,1:3|1:2,1:0:0:0:
451,38,41052,2,0,P|463:80|439:178,1,130,0|6,1:0|1:2,1:0:0:0:
489,327,42053,2,0,P|449:315|404:318,1,65,4|0,1:0|1:0,1:0:0:0:
346,344,42553,2,0,P|308:354|273:351,1,65,4|2,1:3|1:2,1:0:0:0:
232,285,43054,2,0,P|223:232|240:148,1,130,4|6,1:3|1:2,1:0:0:0:
319,170,43804,1,0,1:0:0:0:
366,99,44054,2,0,P|425:109|504:96,2,130,4|4|4,1:0|1:3|1:3,1:0:0:0:
206,43,45579,2,2,L|87:43,1,97.5,4|0,1:3|2:0,1:2:0:0:
63,62,46062,6,0,P|53:107|67:167,1,74.7500014257431,4|8,1:0|1:0,1:0:0:0:
137,187,46560,1,2,1:2:0:0:
78,264,46809,2,0,P|119:286|216:259,1,130,8|2,1:0|1:2,1:0:0:0:
275,321,47557,1,8,1:0:0:0:
275,321,47806,1,2,1:2:0:0:
357,301,48055,2,0,P|350:254|355:206,1,65,4|8,1:0|1:0,1:0:0:0:
426,199,48553,2,0,P|427:158|421:119,1,65,2|8,1:2|1:0,1:0:0:0:
387,57,49052,2,0,P|318:64|243:46,1,130,4|8,1:2|1:0,1:0:0:0:
54,93,50048,5,4,1:0:0:0:
54,93,50297,2,0,L|64:175,1,65,8|8,1:0|1:0,1:0:0:0:
144,220,50796,2,0,P|132:285|139:363,1,130,8|2,1:0|1:2,1:0:0:0:
225,333,51543,2,0,P|262:331|317:336,1,65,8|2,1:0|1:2,1:0:0:0:
396,330,52042,6,0,P|442:310|451:219,1,130,4|4,1:0|1:3,1:0:0:0:
468,153,52789,1,8,1:0:0:0:
384,143,53038,2,0,L|311:129,1,65,0|0,1:0|1:0,1:0:0:0:
267,64,53537,1,8,1:0:0:0:
96,40,54053,6,0,P|84:92|98:195,1,130,4|2,1:0|1:2,1:0:0:0:
168,204,54803,1,8,1:0:0:0:
133,280,55053,2,0,P|185:292|284:281,1,130,4|2,1:0|1:2,1:0:0:0:
338,322,55803,1,8,1:0:0:0:
408,275,56053,2,0,P|419:159|411:122,1,130,4|2,1:0|1:2,1:0:0:0:
338,114,56803,1,8,1:0:0:0:
364,33,57053,2,0,P|312:21|216:36,1,130,4|2,1:0|1:2,1:0:0:0:
258,204,58053,5,4,1:0:0:0:
161,196,58301,2,0,L|143:118,1,74.75,0|0,1:0|1:0,1:0:0:0:
62,70,58799,2,0,P|43:109|63:234,1,149.5,8|2,1:0|1:2,1:0:0:0:
39,309,59545,1,8,1:0:0:0:
122,358,59794,1,2,1:2:0:0:
204,306,60043,2,0,P|274:307|381:355,1,149.5,4|2,1:0|1:2,1:0:0:0:
439,298,60789,1,8,1:0:0:0:
492,111,61286,1,2,1:2:0:0:
406,72,61535,2,2,P|329:81|258:65,1,130,8|0,1:0|1:0,1:0:0:0:
248,58,69577,6,0,P|189:72|127:52,1,97.5,2|0,1:2|1:0,1:0:0:0:
115,83,70079,6,0,L|140:230,1,130,6|4,1:2|1:3,1:0:0:0:
79,273,70829,1,2,1:2:0:0:
143,328,71079,2,0,P|188:320|295:333,1,130,4|0,1:3|1:0,1:0:0:0:
346,365,71830,1,2,1:2:0:0:
392,294,72080,2,0,P|402:251|394:141,1,130,4|4,1:2|1:3,1:0:0:0:
459,105,72830,1,2,1:2:0:0:
287,16,73331,1,0,1:0:0:0:
218,65,73581,6,0,P|176:63|129:69,1,65,8|4,1:0|1:2,1:0:0:0:
77,108,74081,2,0,L|79:249,1,130,4|4,1:0|1:3,1:0:0:0:
142,292,74832,1,8,1:0:0:0:
214,248,75082,2,0,P|255:243|296:251,1,65,4|2,1:2|1:2,1:0:0:0:
351,288,75582,1,8,1:0:0:0:
427,250,75832,1,2,1:2:0:0:
400,169,76083,2,0,P|338:181|250:161,1,130,4|4,1:0|1:3,1:0:0:0:
205,119,76845,1,0,1:0:0:0:
205,119,77099,1,0,1:0:0:0:
57,36,77608,1,8,1:0:0:0:
70,204,78087,6,0,P|58:264|78:346,1,130,4|4,1:0|1:3,1:0:0:0:
146,355,78837,1,2,1:2:0:0:
212,303,79087,2,0,P|263:299|299:310,1,65,0|0,1:0|1:0,1:0:0:0:
357,339,79588,1,8,1:0:0:0:
357,339,79838,1,2,1:2:0:0:
426,291,80088,6,0,P|439:253|416:152,1,130,4|4,1:2|1:3,1:0:0:0:
364,106,80838,1,8,1:0:0:0:
201,152,81339,1,2,1:2:0:0:
134,204,81589,2,0,P|140:238|132:288,1,65,8|2,1:0|1:2,1:0:0:0:
193,331,82089,2,0,P|249:329|329:360,1,130,4|4,1:0|1:3,1:0:0:0:
382,297,82840,1,8,1:0:0:0:
336,225,83090,2,0,P|334:168|365:88,1,130,4|8,1:3|1:0,1:0:0:0:
198,40,84091,6,0,P|201:93|198:165,1,97.5,4|0,1:0|1:0,1:0:0:0:
181,182,84591,1,4,1:3:0:0:
99,159,84841,1,8,1:0:0:0:
40,220,85091,1,4,1:3:0:0:
83,299,85341,1,8,1:0:0:0:
83,299,85592,2,0,L|194:299,1,97.5,4|0,1:3|1:0,1:0:0:0:
210,337,86092,6,0,P|286:313|366:323,1,148.903986710963,4|2,1:0|1:2,1:0:0:0:
424,268,86839,1,8,1:0:0:0:
418,171,87088,2,0,P|396:178|342:185,1,65,0|0,1:0|1:0,1:0:0:0:
251,155,87587,1,8,1:0:0:0:
123,301,88085,2,0,P|76:308|33:295,1,65,4|8,1:2|1:0,1:0:0:0:
4,216,88583,2,0,P|18:174|43:146,1,65,2|8,1:2|1:0,1:0:0:0:
125,191,89082,1,4,1:2:0:0:
210,145,89331,2,0,P|262:159|357:142,1,130,2|2,1:2|1:2,1:0:0:0:
432,209,90078,5,4,1:0:0:0:
366,280,90327,2,0,L|356:356,1,65,0|0,1:0|1:0,1:0:0:0:
264,320,90826,2,0,P|191:316|126:343,1,130,8|2,1:0|1:2,1:0:0:0:
36,286,91573,1,8,1:0:0:0:
38,91,92072,1,4,1:2:0:0:
118,145,92321,1,8,1:0:0:0:
194,84,92570,2,0,P|238:93|304:78,1,65,2|8,1:2|1:0,1:0:0:0:
361,64,93068,1,4,1:2:0:0:
439,121,93317,2,0,P|434:165|440:222,1,65,2|8,1:2|1:0,1:0:0:0:
316,349,94065,6,0,P|229:342|170:307,1,130,4|2,1:0|1:2,1:0:0:0:
109,344,94818,1,8,1:0:0:0:
45,288,95069,2,0,P|36:236|54:135,1,130,4|2,1:0|1:2,1:0:0:0:
107,103,95822,1,8,1:0:0:0:
122,19,96073,2,0,P|174:18|271:51,1,130,4|2,1:0|1:2,1:0:0:0:
333,34,96826,1,8,1:0:0:0:
395,91,97077,2,0,P|391:192|376:220,1,130,4|2,1:0|1:2,1:0:0:0:
295,215,97830,1,8,1:0:0:0:
257,290,98081,5,4,1:0:0:0:
93,331,98583,1,4,1:2:0:0:
124,252,98834,2,0,P|105:201|106:177,1,65,8|0,1:0|1:0,1:0:0:0:
113,107,99336,1,4,1:3:0:0:
195,147,99588,2,0,P|237:149|284:123,1,74.75,8|4,1:0|1:2,1:0:0:0:
332,65,100090,1,4,1:0:0:0:
332,65,100341,1,8,1:0:0:0:
414,115,100592,2,0,L|401:227,1,74.75,2|8,1:2|1:0,1:0:0:0:
401,286,101094,1,4,1:2:0:0:
311,323,101345,1,2,1:2:0:0:
244,257,101596,1,8,1:0:0:0:
58,257,102107,5,4,1:3:0:0:
58,257,102357,1,4,1:3:0:0:
58,257,102607,2,0,L|48:167,1,65,4|4,1:3|1:3,1:0:0:0:
48,107,103107,2,0,L|133:95,1,65,4|4,1:3|1:3,1:0:0:0:
196,103,103569,2,0,L|209:218,1,97.5,8|0,1:0|2:0,1:0:0:0:
211,236,104084,1,4,1:0:0:0:
362,314,104584,1,2,1:2:0:0:
431,266,104834,1,8,1:0:0:0:
387,193,105084,2,0,P|382:161|384:104,1,65,4|2,1:2|1:2,1:0:0:0:
433,61,105585,1,8,1:0:0:0:
266,86,106085,6,0,P|223:85|150:70,1,97.5,4|8,1:0|1:0,1:0:0:0:
128,65,106585,1,2,1:2:0:0:
71,128,106835,1,8,1:0:0:0:
120,196,107086,2,0,P|119:239|102:361,1,130,4|2,1:0|1:2,1:0:0:0:
276,344,108086,2,0,P|323:336|400:334,1,97.5,4|8,1:0|1:0,1:0:0:0:
406,306,108587,1,2,1:2:0:0:
460,241,108837,1,8,1:0:0:0:
423,164,109087,2,0,P|358:156|286:139,1,130,4|2,1:0|1:2,1:0:0:0:
123,85,110088,5,4,1:0:0:0:
40,104,110338,2,0,L|57:173,1,65,0|0,1:0|1:0,1:0:0:0:
84,246,110838,2,0,P|151:231|244:241,1,130,8|2,1:0|1:2,1:0:0:0:
285,275,111589,1,8,1:0:0:0:
435,198,112089,2,0,P|441:156|440:107,1,65,4|0,1:0|1:0,1:0:0:0:
409,55,112589,1,2,1:2:0:0:
330,84,112839,2,0,P|279:89|208:77,1,97.5,8|0,1:0|1:0,1:0:0:0:
195,104,113340,1,2,1:2:0:0:
113,80,113590,1,8,1:0:0:0:
53,244,114090,6,0,P|105:248|143:241,1,65,4|0,1:0|1:0,1:0:0:0:
176,310,114591,1,2,1:2:0:0:
258,329,114841,2,0,P|269:268|255:189,1,130,8|2,1:0|1:2,1:0:0:0:
201,139,115591,1,8,1:0:0:0:
258,77,115841,1,2,1:2:0:0:
199,15,116092,1,4,1:0:0:0:
68,121,116619,5,2,1:2:0:0:
24,193,116869,1,8,1:0:0:0:
76,272,117119,1,4,1:2:0:0:
76,272,117369,1,2,1:2:0:0:
76,272,117619,2,2,L|194:272,1,97.5,10|0,1:0|2:0,1:0:0:0:
212,288,118120,6,0,P|217:232|209:198,1,65,6|2,1:0|1:0,1:0:0:0:
281,170,118614,1,2,1:0:0:0:
256,89,118861,2,0,B|193:71|193:71|131:90,1,130,0|0,1:0|1:0,1:0:0:0:
70,161,119602,2,2,L|-11:161,1,65,10|4,1:0|1:2,1:0:0:0:
16,243,120095,1,6,1:0:0:0:
179,285,120595,2,0,P|214:284|254:286,1,65,2|10,1:0|1:0,1:0:0:0:
269,365,121095,2,0,P|303:366|338:365,1,65,4|2,1:2|1:0,1:0:0:0:
414,340,121596,2,0,B|430:284|430:284|406:224,1,100.098266666667,10|4,1:0|1:2,1:0:0:0:
371,229,122118,5,6,1:0:0:0:
416,157,122368,1,2,1:0:0:0:
497,180,122618,1,2,1:0:0:0:
504,96,122868,2,0,L|504:14,1,65,10|4,1:0|1:2,1:0:0:0:
419,24,123368,1,2,1:0:0:0:
336,43,123619,2,0,P|302:50|255:37,1,65,10|0,1:0|1:0,1:0:0:0:
189,51,124085,1,4,1:0:0:0:
122,102,124335,2,0,P|113:156|130:241,1,130,2|10,1:0|1:0,1:0:0:0:
145,311,125085,1,4,1:2:0:0:
304,336,125586,2,0,B|353:349|353:349|428:334,1,97.5,10|0,1:0|1:0,1:0:0:0:
432,316,126086,6,0,P|424:275|436:224,1,65,6|2,1:0|1:0,1:0:0:0:
477,185,126586,1,2,1:0:0:0:
399,151,126836,2,0,P|349:158|296:147,1,97.5,0|0,1:0|1:0,1:0:0:0:
264,167,127337,1,2,1:0:0:0:
207,229,127587,2,0,P|197:263|203:302,1,65,10|4,1:0|1:2,1:0:0:0:
135,346,128087,1,4,1:0:0:0:
62,193,128588,5,2,1:0:0:0:
14,122,128838,1,10,1:0:0:0:
51,46,129088,2,0,P|95:18|130:16,1,65,4|2,1:2|1:0,1:0:0:0:
168,73,129588,2,0,B|178:122|178:122|167:198,1,97.5,10|0,1:0|1:0,1:0:0:0:
194,204,130089,1,6,1:0:0:0:
299,335,130601,1,2,1:0:0:0:
372,293,130858,1,10,1:0:0:0:
455,302,131114,2,0,L|455:228,1,57.1415,4|2,1:2|1:0,1:0:0:0:
398,173,131584,2,0,P|352:177|317:169,1,65,10|2,1:0|1:0,1:0:0:0:
250,188,132090,6,0,P|193:185|91:191,2,130,6|6|4,1:0|1:0|1:2,1:0:0:0:
394,296,133602,1,10,1:0:0:0:
394,296,133854,1,2,1:0:0:0:
394,296,134106,1,4,1:0:0:0:
213,342,142087,6,0,P|253:342|293:339,1,65,0|0,1:0|1:0,1:0:0:0:
354,305,142587,1,0,1:0:0:0:
354,305,142838,1,2,1:3:0:0:
485,198,143339,1,0,1:0:0:0:
485,198,143589,2,0,P|488:161|485:121,1,65,2|0,1:3|1:0,1:0:0:0:
455,54,144090,1,4,1:3:0:0:
349,185,144591,1,4,1:3:0:0:
279,140,144841,2,0,P|238:142|204:138,1,65,2|4,1:3|1:3,1:0:0:0:
155,78,145342,1,0,1:0:0:0:
83,120,145592,1,2,1:3:0:0:
46,284,146093,6,0,P|49:317|41:381,1,65,4|4,1:3|1:3,1:0:0:0:
132,351,146594,2,0,P|165:348|229:356,1,65,4|2,1:3|1:3,1:0:0:0:
281,322,147095,1,4,1:3:0:0:
281,322,147345,1,0,1:0:0:0:
281,322,147596,1,2,1:3:0:0:
447,350,148097,1,4,1:3:0:0:
466,267,148347,2,0,P|462:218|477:141,1,97.5,8|0,1:0|1:0,1:0:0:0:
490,134,148848,1,4,1:3:0:0:
417,90,149098,1,8,1:0:0:0:
261,22,149599,2,2,L|150:21,1,97.5,8|0,1:0|2:0,1:2:0:0:
131,57,150127,6,0,P|108:98|129:182,1,130,4|2,1:0|1:2,1:0:0:0:
182,237,150873,1,8,1:0:0:0:
110,282,151122,2,0,P|70:276|28:283,1,65,8|2,1:0|1:2,1:0:0:0:
13,356,151619,1,8,1:0:0:0:
14,185,152117,1,4,1:0:0:0:
69,105,152365,1,2,1:2:0:0:
164,123,152614,2,0,P|172:163|174:218,1,65,4|8,1:3|1:0,1:0:0:0:
158,270,153112,1,4,1:2:0:0:
228,316,153360,2,0,P|264:317|303:287,1,65,2|0,1:2|1:0,1:0:0:0:
371,325,153858,1,4,1:2:0:0:
424,259,154107,5,4,1:0:0:0:
405,91,154607,1,2,1:2:0:0:
326,60,154857,2,0,P|256:48|202:65,1,97.5,8|0,1:0|1:0,1:0:0:0:
199,80,155357,1,2,1:2:0:0:
103,101,155608,2,0,P|96:140|105:187,1,74.75,8|4,1:0|1:2,1:0:0:0:
112,270,156108,2,0,P|199:258|284:274,1,149.5,4|4,1:0|1:3,1:0:0:0:
354,245,156858,1,8,1:0:0:0:
468,91,157359,1,2,1:2:0:0:
383,44,157609,1,8,1:0:0:0:
189,32,158109,6,0,P|184:77|151:162,1,112.125,4|8,1:0|1:0,1:0:0:0:
132,178,158610,1,2,1:2:0:0:
79,256,158860,1,8,1:0:0:0:
143,328,159110,2,0,P|231:334|311:367,1,149.5,4|2,1:0|1:2,1:0:0:0:
425,214,160111,2,0,P|417:171|419:77,1,112.125,4|8,1:0|1:0,1:0:0:0:
386,64,160611,1,2,1:2:0:0:
295,28,160861,1,8,1:0:0:0:
210,76,161111,2,0,P|136:99|40:97,1,149.5,4|2,1:0|1:2,1:0:0:0:
23,189,161862,1,8,1:0:0:0:
97,251,162112,5,4,1:0:0:0:
258,358,162612,1,4,1:2:0:0:
348,323,162862,2,0,P|357:280|337:191,1,112.125,8|0,1:0|1:0,1:0:0:0:
378,175,163363,1,2,1:2:0:0:
301,115,163613,2,0,L|211:133,1,74.75,8|4,1:0|1:2,1:0:0:0:
136,161,164113,1,4,1:0:0:0:
252,315,164614,1,2,1:2:0:0:
341,352,164864,1,8,1:0:0:0:
421,299,165114,2,0,P|430:257|422:204,1,74.75,4|2,1:2|1:2,1:0:0:0:
345,173,165614,2,0,P|286:166|213:178,1,112.125,8|0,1:0|1:0,1:0:0:0:
197,204,166115,5,4,1:0:0:0:
46,327,166615,1,4,1:2:0:0:
14,235,166865,1,8,1:0:0:0:
78,162,167115,2,0,P|91:117|86:51,1,74.75,4|0,1:2|1:0,1:0:0:0:
171,33,167616,2,0,B|229:42|229:42|300:30,1,112.125,8|0,1:0|1:0,1:0:0:0:
338,60,168129,1,4,1:0:0:0:
228,199,168629,1,2,1:2:0:0:
197,277,168879,1,8,1:0:0:0:
281,324,169129,2,0,P|327:320|381:328,1,74.75,4|2,1:2|1:2,1:0:0:0:
437,270,169630,1,8,1:0:0:0:
389,81,170118,6,0,P|319:67|265:82,1,112.125,4|8,1:0|1:0,1:0:0:0:
227,98,170618,1,2,1:2:0:0:
135,65,170868,1,4,1:2:0:0:
50,112,171118,2,0,P|41:154|56:246,1,112.125,4|8,1:0|1:0,1:0:0:0:
73,263,171619,1,2,1:2:0:0:
257,322,172119,2,0,P|313:326|403:319,1,112.125,4|8,1:0|1:0,1:0:0:0:
397,284,172619,1,2,1:2:0:0:
344,202,172869,1,4,1:2:0:0:
389,115,173120,2,0,P|322:91|225:105,1,149.5,4|2,1:0|1:2,1:0:0:0:
70,183,174120,5,4,1:0:0:0:
143,246,174370,2,0,P|137:284|146:333,1,74.75,0|4,1:0|1:2,1:0:0:0:
235,345,174871,2,0,P|295:338|378:344,1,112.125,8|0,1:0|1:0,1:0:0:0:
385,310,175371,1,2,1:2:0:0:
327,231,175621,1,8,1:0:0:0:
491,127,176122,5,4,1:0:0:0:
421,58,176372,1,8,1:0:0:0:
324,65,176622,2,0,P|329:109|324:155,1,74.75,2|8,1:2|1:0,1:0:0:0:
272,219,177122,1,4,1:2:0:0:
183,178,177372,2,0,P|137:179|93:174,1,74.7500014257431,2|0,1:2|1:0,1:0:0:0:
14,201,177873,1,4,1:2:0:0:
32,282,178123,2,0,B|95:271|95:271|159:285,1,130,4|4,1:0|1:3,1:0:0:0:
221,342,178869,1,8,1:0:0:0:
303,325,179118,2,0,P|301:271|302:227,1,65,0|0,1:0|1:0,1:0:0:0:
375,219,179615,1,0,1:0:0:0:
503,109,180113,5,4,1:3:0:0:
431,63,180361,2,0,P|392:68|331:60,1,65,8|4,1:0|1:2,1:0:0:0:
299,119,180859,1,2,1:2:0:0:
218,91,181108,2,0,P|177:87|138:92,1,65,4|2,1:0|1:2,1:0:0:0:
80,131,181605,2,0,L|90:200,1,65,8|4,1:0|2:0,1:0:0:0:
113,291,182103,5,6,1:0:0:0:
113,291,182353,1,2,1:0:0:0:
113,291,182603,1,2,1:0:0:0:
113,291,182853,1,10,1:0:0:0:
281,321,183353,1,2,1:0:0:0:
360,351,183625,2,0,B|377:302|377:302|353:246,1,97.5,10|4,1:0|1:2,1:0:0:0:
328,230,184125,6,0,L|329:144,1,65,4|2,1:0|1:0,1:0:0:0:
397,116,184625,1,2,1:0:0:0:
359,40,184875,1,10,1:0:0:0:
278,67,185125,2,0,P|183:64|163:69,1,97.5,4|0,1:2|2:0,1:0:0:0:
144,85,185626,1,10,1:0:0:0:
21,200,186126,2,0,L|96:200,1,65,6|2,1:0|1:0,1:0:0:0:
140,264,186626,1,2,1:0:0:0:
218,234,186876,2,0,B|270:247|270:247|335:230,1,97.5,10|0,1:0|1:0,1:0:0:0:
350,255,187377,1,2,1:0:0:0:
430,229,187627,2,0,P|418:189|428:149,1,65,10|2,1:0|1:0,1:0:0:0:
479,105,188127,5,4,1:0:0:0:
310,100,188628,1,2,1:0:0:0:
258,34,188878,1,10,1:0:0:0:
202,96,189128,2,0,P|185:134|209:244,1,130,4|10,1:2|1:0,1:0:0:0:
67,332,190129,2,0,B|79:298|79:298|66:266,1,65,6|2,1:0|1:0,1:0:0:0:
81,187,190629,1,2,1:0:0:0:
31,118,190879,2,0,P|71:79|96:71,1,65,10|0,1:0|1:0,1:0:0:0:
157,46,191389,1,2,1:0:0:0:
226,100,191650,2,0,L|225:178,1,65,10|4,1:0|1:2,1:0:0:0:
194,243,192139,5,4,1:0:0:0:
253,303,192389,2,0,P|322:310|407:297,1,120.64,2|10,1:0|1:0,1:0:0:0:
458,339,193107,1,4,1:2:0:0:
461,170,193615,2,0,L|348:164,1,97.5,10|4,1:0|1:2,1:0:0:0:
324,148,194124,1,6,1:0:0:0:
261,204,194374,1,2,1:0:0:0:
192,154,194624,2,0,P|182:118|190:72,1,65,2|10,1:0|1:0,1:0:0:0:
249,37,195124,1,4,1:2:0:0:
328,64,195374,1,2,1:0:0:0:
409,39,195624,2,0,P|423:78|416:178,1,130,10|6,1:0|1:0,1:0:0:0:
307,284,196676,5,2,1:0:0:0:
209,146,197241,1,6,1:0:0:0:
256,192,197991,12,0,212000,1:0:0:0:
