osu file format v14

[General]
AudioFilename: audio.mp3
AudioLeadIn: 0
PreviewTime: 45921
Countdown: 0
SampleSet: Normal
StackLeniency: 0.8
Mode: 0
LetterboxInBreaks: 0
WidescreenStoryboard: 1

[Editor]
DistanceSpacing: 1.2
BeatDivisor: 16
GridSize: 4
TimelineZoom: 2.3

[Metadata]
Title:Maps
TitleUnicode:Maps
Artist:Yeah Yeah Yeahs
ArtistUnicode:Yeah Yeah Yeahs
Creator:rHO
Version:Hard
Source:
Tags:pandahero fever to tell english rock garage revival indie
BeatmapID:4552617
BeatmapSetID:2159262

[Difficulty]
HPDrainRate:4
CircleSize:3.5
OverallDifficulty:6.5
ApproachRate:7.5
SliderMultiplier:1.6
SliderTickRate:1

[Events]
//Background and Video events
0,0,"5d2567c2-5334-4663-9b3a-2a75024387db.jpg",0,0
//Break Periods
2,62284,68737
2,134306,141262
//Storyboard Layer 0 (Background)
//Storyboard Layer 1 (Fail)
//Storyboard Layer 2 (Pass)
//Storyboard Layer 3 (Foreground)
//Storyboard Layer 4 (Overlay)
//Storyboard Sound Samples

[TimingPoints]
14020,500.834724540902,4,1,1,50,1,0
20030,497.512437810945,4,1,1,50,1,0
24010,526.315789473684,4,1,1,50,1,0
24799,485.436893203884,4,1,1,50,1,0
26014,502.092050209205,4,1,1,50,1,0
29528,-100,4,1,1,40,0,0
30034,500.333555703803,4,1,1,60,1,0
31284,-100,4,1,1,50,0,0
31535,-100,4,1,1,60,0,0
34036,495.867768595041,4,1,1,60,1,0
36019,504.201680672269,4,1,1,60,1,0
40052,500.333555703803,4,1,1,60,1,0
44054,508.474576271186,4,1,1,60,1,0
45579,483.870967741935,4,1,1,40,1,0
46062,498.338870431894,4,1,1,60,1,0
46311,-80,4,1,1,60,0,1
52415,-80,4,1,1,50,0,1
52540,-80,4,1,1,60,0,1
53162,-80,4,1,1,50,0,1
53287,-80,4,1,1,60,0,1
54053,500,4,1,1,50,1,0
54053,-80,4,1,1,50,0,1
55178,-100,4,1,1,50,0,1
55553,-80,4,1,1,50,0,1
58053,497.512437810945,4,1,1,60,1,0
58301,-80,4,1,1,50,0,1
58425,-80,4,1,1,60,0,1
60415,-80,4,1,1,50,0,1
60539,-80,4,1,1,60,0,1
61535,-100,4,1,1,60,0,1
62033,502.933780385583,4,1,1,50,1,0
69577,-100,4,1,1,40,0,0
69954,-100,4,1,1,50,0,0
70079,500.333555703803,4,1,1,50,1,0
76083,508.474576271186,4,1,1,50,1,0
78087,500.333555703803,4,1,1,50,1,0
86092,498.338870431894,4,1,1,60,1,0
87088,-80,4,1,1,60,0,1
89206,-80,4,1,1,50,0,1
89331,-80,4,1,1,60,0,1
94065,502.092050209205,4,1,1,50,1,0
95194,-100,4,1,1,50,0,1
95571,-80,4,1,1,50,0,1
98081,-80,4,1,1,60,0,1
98332,-80,4,1,1,50,0,1
98458,-80,4,1,1,60,0,1
102107,500.333555703803,4,1,1,60,1,0
103569,500.333555703803,4,1,1,40,1,0
104084,500.333555703803,4,1,1,60,1,1
105084,-80,4,1,1,60,0,1
116619,500.333555703803,4,1,1,60,1,0
118120,494.233937397035,4,1,1,65,1,0
120095,500.333555703803,4,1,1,65,1,0
121846,540.540540540541,4,1,1,65,1,0
122118,500.333555703803,4,1,1,65,1,0
124085,500.333555703803,4,1,1,65,1,0
130089,512.820512820513,4,1,1,65,1,0
131339,491.803278688525,4,1,1,50,1,0
132090,504.201680672269,4,1,1,50,1,0
132342,-100,4,1,1,65,0,0
134106,500,4,1,1,65,1,0
142087,500.834724540902,4,1,1,35,1,0
148097,-100,4,1,1,40,0,0
150127,497.512437810945,4,1,1,55,1,1
151619,-80,4,1,1,55,0,1
152490,-80,4,1,1,65,0,1
152614,-80,4,1,1,55,0,1
153982,-80,4,1,1,65,0,1
154107,500.333555703803,4,1,1,55,1,0
155232,-100,4,1,1,65,0,1
155357,-100,4,1,1,55,0,1
155608,-80,4,1,1,55,0,1
156483,-80,4,1,1,65,0,1
156608,-80,4,1,1,55,0,1
159235,-80,4,1,1,65,0,1
159360,-80,4,1,1,55,0,1
161236,-80,4,1,1,65,0,1
161361,-80,4,1,1,55,0,1
162362,-80,4,1,1,65,0,1
162487,-80,4,1,1,55,0,1
163238,-80,4,1,1,65,0,1
163363,-80,4,1,1,55,0,1
167365,-80,4,1,1,65,0,1
167616,-80,4,1,1,55,0,1
168129,500.333555703803,4,1,1,65,1,1
168379,-100,4,1,1,60,0,1
170118,500.333555703803,4,1,1,60,1,1
170118,-80,4,1,1,60,0,1
178123,497.512437810945,4,1,1,60,1,1
182103,500,4,1,1,65,1,1
183625,500,4,1,1,65,1,0
184125,500.333555703803,4,1,1,65,1,0
190003,-100,4,1,1,60,0,1
190129,-100,4,1,1,65,0,1
191129,521.739130434783,4,1,1,65,1,0
192139,500,4,1,1,65,1,0
192853,508.474576271186,4,1,1,65,1,0
194124,500,4,1,1,65,1,0
195624,512.820512820513,4,1,1,65,1,0
196136,540.540540540541,4,1,1,65,1,0
196676,555.555555555556,4,1,1,65,1,0
197241,500.333555703803,4,1,1,65,1,0
212000,-100,4,1,1,15,0,0

[Colours]
Combo1 : 17,254,176
Combo2 : 173,255,95
Combo3 : 255,88,100
Combo4 : 255,94,55

[HitObjects]
364,309,14020,6,0,L|452:316,2,80,4|0|4,1:3|1:0|1:3,1:0:0:0:
291,246,14771,2,0,P|295:206|296:166,1,80,8|0,1:0|1:0,1:0:0:0:
206,201,15272,1,4,1:3:0:0:
234,108,15522,2,0,P|235:68|240:28,1,80,8|0,1:0|1:0,1:0:0:0:
140,79,16023,2,0,L|45:85,1,80,4|0,1:3|1:0,1:0:0:0:
26,170,16524,1,0,1:0:0:0:
108,219,16774,2,0,P|147:220|187:224,1,80,8|4,1:0|1:3,1:0:0:0:
159,315,17275,1,0,1:0:0:0:
251,288,17525,2,0,P|290:286|330:282,1,80,8|4,1:0|1:3,1:0:0:0:
443,321,18026,5,4,1:3:0:0:
443,321,18151,1,0,1:0:0:0:
443,321,18277,1,4,1:3:0:0:
491,237,18527,1,4,1:3:0:0:
419,173,18777,2,0,P|379:170|330:163,1,80,8|0,1:0|1:0,1:0:0:0:
303,253,19278,1,4,1:3:0:0:
221,202,19529,2,0,P|181:196|141:193,1,80,8|0,1:0|1:0,1:0:0:0:
48,254,20030,6,0,L|39:333,2,80,4|0|0,1:3|1:0|1:0,1:0:0:0:
19,162,20776,1,8,1:0:0:0:
102,114,21025,1,4,1:3:0:0:
102,114,21273,1,0,1:0:0:0:
157,192,21522,1,8,1:0:0:0:
235,136,21771,1,4,1:3:0:0:
162,44,22020,5,4,1:3:0:0:
162,44,22144,1,0,1:0:0:0:
162,44,22268,1,4,1:3:0:0:
254,17,22517,1,4,1:3:0:0:
320,85,22766,2,0,P|322:120|315:164,1,80,8|0,1:0|1:0,1:0:0:0:
397,214,23263,1,4,1:3:0:0:
308,249,23512,2,0,P|306:284|313:328,1,80,8|0,1:0|1:0,1:0:0:0:
420,355,24010,5,4,1:3:0:0:
420,355,24273,1,0,1:0:0:0:
420,355,24536,1,0,1:0:0:0:
484,263,24799,2,0,P|493:217|489:171,1,80,8|0,1:0|1:0,1:0:0:0:
443,100,25284,1,4,1:3:0:0:
363,152,25527,2,0,P|355:201|361:244,1,80,8|0,1:0|1:0,1:0:0:0:
294,323,26014,5,4,1:3:0:0:
294,323,26139,1,0,1:3:0:0:
294,323,26265,1,4,1:3:0:0:
235,246,26516,1,4,1:3:0:0:
150,291,26767,2,0,P|153:251|149:211,1,80,8|0,1:0|1:0,1:0:0:0:
74,151,27269,1,0,1:0:0:0:
154,97,27520,2,0,L|252:108,1,80,8|0,1:0|1:0,1:0:0:0:
327,30,28022,5,4,1:3:0:0:
327,30,28273,1,0,1:0:0:0:
327,30,28524,1,4,1:3:0:0:
380,109,28775,1,8,1:0:0:0:
468,65,29026,1,4,1:3:0:0:
468,65,29277,1,0,1:0:0:0:
479,160,29528,2,0,P|473:212|479:267,1,80,8|4,1:0|1:2,1:0:0:0:
404,345,30034,6,0,P|348:342|302:251,1,160,4|4,1:0|1:3,1:0:0:0:
390,223,30784,1,8,1:0:0:0:
308,173,31034,2,0,L|204:161,1,80,4|2,1:3|1:2,1:0:0:0:
156,99,31535,2,0,L|76:89,1,80,2|0,1:2|1:0,1:0:0:0:
4,173,32035,6,0,P|47:198|47:303,1,160,4|4,1:2|1:3,1:0:0:0:
132,353,32785,1,8,1:0:0:0:
203,288,33036,2,0,L|289:278,1,80,4|2,1:3|1:2,1:0:0:0:
365,328,33536,2,0,L|451:318,1,80,2|0,1:2|1:0,1:0:0:0:
499,206,34036,6,0,P|466:161|368:166,1,160,4|4,1:0|1:3,1:0:0:0:
326,250,34779,1,2,1:2:0:0:
264,176,35027,2,0,L|256:90,1,80,4|0,1:3|1:0,1:0:0:0:
165,122,35523,1,2,1:2:0:0:
185,28,35771,1,0,1:0:0:0:
92,86,36019,6,0,P|46:84|9:95,1,80,4|0,1:2|1:0,1:0:0:0:
55,179,36523,2,0,P|99:190|140:182,1,80,4|6,1:3|1:2,1:0:0:0:
140,280,37027,2,0,P|211:280|259:210,1,160,0|6,1:0|1:2,1:0:0:0:
334,279,37783,1,0,1:2:0:0:
336,182,38035,6,0,L|419:198,1,80,4|0,1:0|1:0,1:0:0:0:
434,291,38540,2,0,L|515:307,1,80,4|2,1:3|1:2,1:0:0:0:
511,207,39044,2,0,P|499:146|521:44,1,160,0|6,1:0|1:2,1:0:0:0:
426,81,39800,1,0,1:0:0:0:
335,50,40052,6,0,P|299:40|246:44,1,80,4|0,1:2|1:0,1:0:0:0:
200,119,40552,2,0,P|236:129|289:125,1,80,4|2,1:3|1:2,1:0:0:0:
350,191,41052,2,0,P|302:226|204:215,1,160,0|6,1:0|1:2,1:0:0:0:
218,311,41803,1,4,1:2:0:0:
122,301,42053,6,0,L|28:285,1,80,4|0,1:0|1:0,1:0:0:0:
99,209,42553,1,4,1:3:0:0:
5,187,42803,1,2,1:2:0:0:
56,105,43054,2,0,P|120:109|218:43,1,160,4|6,1:3|1:2,1:0:0:0:
290,27,43804,1,0,1:0:0:0:
376,70,44054,6,0,P|388:115|385:157,1,80,4|0,1:0|1:0,1:0:0:0:
473,188,44562,2,0,P|459:232|434:266,1,80,4|6,1:3|1:2,1:0:0:0:
510,333,45070,1,4,1:3:0:0:
510,333,45325,1,8,1:0:0:0:
414,347,45579,2,2,L|266:363,1,120,4|0,1:3|2:0,1:2:0:0:
252,365,46062,5,4,1:0:0:0:
155,311,46311,2,0,L|83:293,2,50,8|8|2,1:0|1:0|1:2,1:0:0:0:
242,243,46809,1,8,1:0:0:0:
151,190,47058,1,8,1:0:0:0:
151,190,47307,1,2,1:2:0:0:
248,138,47557,2,0,P|300:156|364:150,1,100,8|2,1:0|1:2,1:0:0:0:
216,258,48055,5,4,1:0:0:0:
312,311,48304,1,8,1:0:0:0:
312,311,48429,1,8,1:0:0:0:
312,311,48553,1,2,1:2:0:0:
377,235,48802,1,8,1:0:0:0:
473,260,49052,2,0,P|493:302|496:362,1,100,4|2,1:2|1:2,1:0:0:0:
404,381,49550,1,8,1:0:0:0:
404,381,49799,1,2,1:2:0:0:
392,219,50048,5,4,1:0:0:0:
342,131,50297,2,0,L|355:73,2,50,8|8|2,1:0|1:0|1:2,1:0:0:0:
247,163,50796,1,8,1:0:0:0:
166,103,51045,1,8,1:0:0:0:
166,103,51294,1,2,1:2:0:0:
68,126,51543,2,0,P|67:176|47:235,1,100,8|2,1:0|1:2,1:0:0:0:
4,324,52042,5,4,1:0:0:0:
99,378,52291,1,2,1:2:0:0:
99,378,52415,1,0,1:0:0:0:
99,378,52540,1,4,1:3:0:0:
152,293,52789,1,8,1:0:0:0:
248,319,53038,2,0,L|259:382,2,50,4|0|2,1:2|1:0|1:2,1:0:0:0:
319,271,53537,1,8,1:0:0:0:
223,240,53786,1,4,1:2:0:0:
329,165,54053,6,0,P|343:109|333:13,1,150,4|8,1:0|1:0,1:0:0:0:
334,17,54553,1,2,1:2:0:0:
433,1,54803,1,8,1:0:0:0:
497,90,55053,1,4,1:0:0:0:
497,90,55178,1,0,1:0:0:0:
497,90,55303,1,8,1:0:0:0:
440,172,55553,2,0,P|396:160|330:157,1,100,2|8,1:2|1:0,1:0:0:0:
199,188,56053,6,0,P|122:205|50:198,1,150,4|8,1:0|1:0,1:0:0:0:
51,198,56553,2,8,P|37:142|44:76,1,100,2|8,1:2|1:0,1:0:0:0:
120,43,57053,1,4,1:0:0:0:
120,43,57178,1,0,1:0:0:0:
120,43,57303,1,8,1:0:0:0:
205,94,57553,1,2,1:2:0:0:
147,175,57803,1,8,1:0:0:0:
236,286,58053,5,4,1:0:0:0:
156,335,58301,2,0,L|100:343,2,50,0|2|4,1:0|1:2|1:2,1:0:0:0:
247,374,58799,1,8,1:0:0:0:
335,326,59048,2,0,P|385:311|454:325,1,100,4|2,1:2|1:2,1:0:0:0:
497,240,59545,2,0,P|508:186|488:122,1,100,8|2,1:0|1:2,1:0:0:0:
393,70,60043,5,4,1:0:0:0:
295,48,60291,2,0,L|285:-2,2,50,0|0|2,1:0|1:0|1:2,1:0:0:0:
221,116,60789,1,8,1:0:0:0:
131,72,61038,1,4,1:2:0:0:
50,131,61286,1,2,1:2:0:0:
79,226,61535,2,2,P|125:256|227:250,1,160.3216,8|0,1:0|1:0,1:0:0:0:
226,250,69577,6,0,P|252:290|340:282,1,120,2|0,1:2|1:0,1:0:0:0:
367,298,70079,5,6,1:2:0:0:
347,204,70329,1,0,1:0:0:0:
432,161,70579,2,0,L|417:66,1,80,4|2,1:3|1:2,1:0:0:0:
337,31,71079,2,0,P|256:26|190:64,1,160,4|8,1:3|1:0,1:0:0:0:
126,151,71830,1,2,1:2:0:0:
160,240,72080,5,4,1:2:0:0:
252,212,72330,1,0,1:0:0:0:
311,287,72580,2,0,L|396:271,1,80,4|2,1:3|1:2,1:0:0:0:
448,192,73081,2,0,P|414:175|354:173,1,80,4|0,1:3|1:0,1:0:0:0:
342,82,73581,5,8,1:0:0:0:
433,43,73831,1,4,1:2:0:0:
342,82,74081,2,0,P|279:82|182:36,1,160,4|4,1:0|1:3,1:0:0:0:
100,76,74832,1,8,1:0:0:0:
173,148,75082,2,0,P|123:165|62:171,1,80,4|2,1:2|1:2,1:0:0:0:
7,206,75582,2,0,P|-3:254|3:297,1,80,8|2,1:0|1:2,1:0:0:0:
80,336,76083,6,0,P|165:335|212:287,1,120,4|2,1:0|1:2,1:0:0:0:
191,316,76591,1,4,1:3:0:0:
142,233,76845,1,8,1:0:0:0:
237,245,77099,2,0,P|279:242|329:206,1,80,4|2,1:3|1:2,1:0:0:0:
407,229,77608,2,0,P|432:271|432:318,1,80,8|4,1:0|1:2,1:0:0:0:
365,367,78087,5,4,1:0:0:0:
269,353,78337,1,0,1:0:0:0:
216,272,78587,2,0,L|118:256,1,80,4|2,1:3|1:2,1:0:0:0:
55,208,79087,1,4,1:3:0:0:
110,129,79337,1,2,1:2:0:0:
195,172,79588,2,0,P|257:164|284:142,1,80,8|2,1:0|1:2,1:0:0:0:
319,72,80088,5,4,1:2:0:0:
410,43,80338,1,2,1:2:0:0:
427,137,80588,2,0,L|538:116,1,80,4|8,1:3|1:0,1:0:0:0:
491,217,81089,2,0,P|460:289|485:364,1,160,4|8,1:3|1:0,1:0:0:0:
388,356,81839,1,2,1:2:0:0:
337,273,82089,6,0,P|291:258|250:256,1,80,4|2,1:0|1:2,1:0:0:0:
150,282,82590,1,4,1:3:0:0:
199,200,82840,1,8,1:0:0:0:
132,268,83090,2,0,P|85:279|49:299,1,80,4|2,1:3|1:2,1:0:0:0:
13,209,83590,2,0,P|0:159|15:98,1,80,8|4,1:0|1:2,1:0:0:0:
68,61,84091,6,0,P|111:82|149:87,1,80,4|2,1:0|1:2,1:0:0:0:
226,48,84591,1,4,1:3:0:0:
257,138,84841,1,8,1:0:0:0:
262,42,85091,2,0,P|306:24|335:0,1,80,4|8,1:3|1:0,1:0:0:0:
387,113,85592,2,0,P|366:171|398:239,1,120,4|0,1:3|1:0,1:0:0:0:
424,261,86092,5,4,1:0:0:0:
356,331,86341,1,8,1:0:0:0:
356,331,86465,1,8,1:0:0:0:
356,331,86590,1,2,1:2:0:0:
257,283,86839,1,8,1:0:0:0:
166,344,87088,2,0,P|152:304|159:237,1,100,8|2,1:0|1:2,1:0:0:0:
47,153,87587,2,0,P|61:193|54:260,1,100,8|2,1:0|1:2,1:0:0:0:
8,337,88085,5,4,1:2:0:0:
112,370,88334,1,8,1:0:0:0:
112,370,88459,1,8,1:0:0:0:
112,370,88583,1,2,1:2:0:0:
153,279,88832,1,8,1:0:0:0:
82,208,89082,1,4,1:2:0:0:
82,208,89206,1,0,1:0:0:0:
82,208,89331,1,2,1:2:0:0:
157,142,89580,2,0,P|201:124|266:128,1,100,8|2,1:0|1:2,1:0:0:0:
80,81,90078,5,4,1:0:0:0:
164,27,90327,2,0,L|272:46,1,100,8|2,1:0|1:2,1:0:0:0:
342,105,90826,1,8,1:0:0:0:
413,35,91075,1,8,1:0:0:0:
413,35,91199,1,8,1:0:0:0:
413,35,91324,1,2,1:2:0:0:
490,98,91573,2,0,P|472:157|483:205,1,100,8|2,1:0|1:2,1:0:0:0:
387,236,92072,5,4,1:2:0:0:
311,170,92321,1,8,1:0:0:0:
311,170,92445,1,8,1:0:0:0:
311,170,92570,1,2,1:2:0:0:
401,127,92819,1,8,1:0:0:0:
324,62,93068,2,0,P|285:74|218:67,1,100,4|2,1:2|1:2,1:0:0:0:
392,141,93567,2,0,P|431:129|498:136,1,100,8|4,1:0|1:2,1:0:0:0:
500,254,94065,6,0,P|500:309|424:355,1,120,4|8,1:0|1:0,1:0:0:0:
455,351,94567,2,0,L|364:343,1,80,2|8,1:2|1:0,1:0:0:0:
371,245,95069,1,4,1:0:0:0:
371,245,95194,1,0,1:0:0:0:
371,245,95320,1,8,1:0:0:0:
277,284,95571,2,0,P|232:287|177:316,1,100,2|8,1:2|1:0,1:0:0:0:
47,362,96073,6,0,P|14:298|36:215,1,150,4|8,1:0|1:0,1:0:0:0:
29,224,96575,2,0,L|132:207,1,100,2|8,1:2|1:0,1:0:0:0:
151,324,97077,1,4,1:0:0:0:
151,324,97203,1,0,1:0:0:0:
151,324,97328,1,8,1:0:0:0:
228,245,97579,2,0,P|273:264|324:264,1,100,2|8,1:2|1:0,1:0:0:0:
195,159,98081,5,4,1:0:0:0:
288,97,98332,1,0,1:0:0:0:
288,97,98458,1,2,1:2:0:0:
288,97,98583,1,4,1:2:0:0:
394,125,98834,1,8,1:0:0:0:
497,87,99085,2,0,P|513:142|498:206,1,100,2|4,1:2|1:3,1:0:0:0:
510,293,99588,1,8,1:0:0:0:
410,340,99839,1,4,1:2:0:0:
307,264,100090,6,0,P|290:302|292:380,1,100,4|8,1:0|1:0,1:0:0:0:
337,190,100592,1,2,1:2:0:0:
337,190,100843,1,8,1:0:0:0:
214,257,101094,2,0,P|226:217|216:139,1,100,4|2,1:2|1:2,1:0:0:0:
332,157,101596,2,0,P|321:119|264:65,1,100,8|4,1:0|1:2,1:0:0:0:
161,44,102107,5,4,1:3:0:0:
161,44,102357,1,4,1:3:0:0:
161,44,102607,1,4,1:3:0:0:
161,44,102857,1,4,1:3:0:0:
161,44,103107,1,4,1:3:0:0:
161,44,103357,1,4,1:3:0:0:
161,44,103569,2,0,L|140:170,1,120,8|0,1:0|2:0,1:0:0:0:
132,219,104084,5,4,1:0:0:0:
240,199,104334,1,8,1:0:0:0:
240,199,104459,1,8,1:0:0:0:
240,199,104584,1,2,1:2:0:0:
204,296,104834,1,8,1:0:0:0:
300,267,105084,2,0,P|348:251|408:254,1,100,4|2,1:2|1:2,1:0:0:0:
289,360,105585,2,0,P|247:374|179:378,1,100,8|4,1:0|1:2,1:0:0:0:
88,298,106085,6,0,P|71:250|84:147,1,150,4|8,1:0|1:0,1:0:0:0:
81,153,106585,2,0,L|188:130,1,100,2|8,1:2|1:0,1:0:0:0:
19,77,107086,1,4,1:0:0:0:
19,77,107211,1,0,1:0:0:0:
19,77,107336,1,8,1:0:0:0:
90,26,107586,2,0,P|125:47|191:47,1,100,2|8,1:2|1:0,1:0:0:0:
358,38,108086,6,0,P|373:78|357:183,1,150,4|8,1:0|1:0,1:0:0:0:
357,181,108587,2,0,P|317:179|254:205,1,100,2|8,1:2|1:0,1:0:0:0:
435,243,109087,1,4,1:0:0:0:
435,243,109212,1,0,1:0:0:0:
435,243,109337,1,8,1:0:0:0:
493,167,109587,1,2,1:2:0:0:
429,99,109837,1,8,1:0:0:0:
311,126,110088,5,4,1:0:0:0:
256,205,110338,2,0,P|212:224|155:221,1,100,0|4,1:0|1:2,1:0:0:0:
310,289,110838,1,8,1:0:0:0:
405,304,111088,1,4,1:2:0:0:
405,304,111213,1,0,1:0:0:0:
405,304,111338,1,2,1:2:0:0:
444,225,111589,1,8,1:0:0:0:
376,168,111839,1,4,1:2:0:0:
499,110,112089,5,4,1:0:0:0:
419,77,112339,1,0,1:0:0:0:
419,77,112464,1,0,1:0:0:0:
419,77,112589,1,2,1:2:0:0:
356,139,112839,1,8,1:0:0:0:
266,97,113090,2,0,P|253:48|259:0,1,100,4|2,1:2|1:2,1:0:0:0:
170,115,113590,1,8,1:0:0:0:
156,201,113840,1,4,1:2:0:0:
143,287,114090,6,0,P|82:294|33:266,1,100,4|0,1:0|1:0,1:0:0:0:
200,360,114591,2,0,P|261:353|310:381,1,100,2|8,1:2|1:0,1:0:0:0:
354,275,115091,2,0,P|375:236|323:101,1,200,4|8,1:0|1:0,1:0:0:0:
247,40,115841,1,2,1:2:0:0:
421,18,116092,5,4,1:0:0:0:
421,18,116342,1,0,1:0:0:0:
478,103,116619,1,2,1:2:0:0:
478,103,116869,1,8,1:0:0:0:
418,167,117119,5,4,1:2:0:0:
464,241,117369,1,2,1:2:0:0:
408,309,117619,2,2,P|364:324|308:316,1,80,10|0,1:0|1:0,1:0:0:0:
183,358,118120,5,6,1:0:0:0:
183,358,118367,1,2,1:0:0:0:
183,358,118614,1,2,1:0:0:0:
136,272,118861,1,10,1:0:0:0:
257,299,119108,2,0,P|312:314|369:310,1,80,4|2,1:2|1:0,1:0:0:0:
200,217,119602,2,2,P|214:167|156:70,1,159.676266666667,10|6,1:0|1:0,1:0:0:0:
116,152,120345,1,2,1:0:0:0:
41,79,120595,6,0,L|30:-3,1,80,2|10,1:0|1:0,1:0:0:0:
96,142,121095,2,0,L|107:224,1,80,4|2,1:2|1:0,1:0:0:0:
195,81,121596,2,0,L|203:-15,1,80,10|4,1:0|1:2,1:0:0:0:
306,124,122118,5,6,1:0:0:0:
306,124,122368,1,2,1:0:0:0:
306,124,122618,1,2,1:0:0:0:
253,192,122868,1,10,1:0:0:0:
394,148,123118,2,0,P|438:147|504:129,1,80,4|2,1:2|1:0,1:0:0:0:
345,219,123619,2,0,P|300:283|313:368,1,149.127253333334,10|4,1:0|1:0,1:0:0:0:
395,299,124335,1,2,1:0:0:0:
469,231,124585,6,0,L|480:149,1,80,2|10,1:0|1:0,1:0:0:0:
414,294,125085,2,0,L|403:376,1,80,4|2,1:2|1:0,1:0:0:0:
270,217,125586,2,0,P|310:217|348:230,1,80,10|4,1:0|1:2,1:0:0:0:
218,278,126086,5,6,1:0:0:0:
218,278,126336,1,2,1:0:0:0:
218,278,126586,1,2,1:0:0:0:
124,304,126836,1,10,1:0:0:0:
158,201,127087,2,0,P|170:157|169:119,1,80,4|2,1:2|1:0,1:0:0:0:
43,88,127587,2,0,P|28:135|79:231,1,160,10|4,1:0|1:0,1:0:0:0:
10,317,128337,1,2,1:0:0:0:
145,262,128588,6,0,L|228:272,1,80,2|10,1:0|1:0,1:0:0:0:
82,326,129088,2,0,L|2:335,1,80,4|2,1:2|1:0,1:0:0:0:
206,367,129588,2,0,P|242:352|282:355,1,80,10|4,1:0|1:2,1:0:0:0:
374,308,130089,5,6,1:0:0:0:
374,308,130345,1,2,1:0:0:0:
374,308,130601,1,2,1:0:0:0:
329,223,130858,1,10,1:0:0:0:
421,197,131114,6,0,P|438:149|431:93,1,70.328,4|2,1:2|1:0,1:0:0:0:
369,52,131584,1,10,1:0:0:0:
278,83,131830,1,2,1:0:0:0:
300,176,132090,6,0,P|260:194|196:193,1,80,6|2,1:0|1:0,1:0:0:0:
371,266,132594,2,0,P|411:248|462:251,1,80,6|2,1:0|1:0,1:0:0:0:
266,341,133098,1,4,1:2:0:0:
171,356,133350,1,2,1:0:0:0:
76,371,133602,1,10,1:0:0:0:
166,340,133854,1,2,1:0:0:0:
64,272,134106,5,4,1:0:0:0:
64,272,142087,6,0,L|52:323,2,40,4|0|4,1:3|1:3|1:3,1:0:0:0:
141,247,142587,2,0,P|151:285|148:329,1,80,4|2,1:3|1:3,1:0:0:0:
221,363,143088,2,0,P|277:373|374:317,1,160,4|2,1:3|1:3,1:0:0:0:
365,327,144090,5,4,1:3:0:0:
365,327,144340,1,4,1:3:0:0:
365,327,144591,1,4,1:3:0:0:
441,291,144841,1,2,1:3:0:0:
400,221,145092,2,0,P|394:186|407:142,2,80,4|0|2,1:3|1:0|1:3,1:0:0:0:
400,221,146093,6,0,L|349:233,2,40,4|0|4,1:3|1:0|1:3,1:0:0:0:
432,305,146594,2,0,P|390:308|347:328,1,80,4|2,1:3|1:3,1:0:0:0:
272,354,147095,2,0,L|97:343,1,160,4|2,1:3|1:3,1:0:0:0:
36,330,147846,1,4,1:3:0:0:
111,254,148097,5,4,1:3:0:0:
111,254,148347,2,0,L|104:162,1,80,8|4,1:0|1:3,1:0:0:0:
20,295,148848,1,4,1:3:0:0:
20,295,149098,2,0,L|27:387,1,80,8|4,1:0|1:3,1:0:0:0:
172,329,149599,6,2,P|217:333|263:248,1,120,8|0,1:0|2:0,1:2:0:0:
263,237,150127,5,4,1:0:0:0:
369,288,150375,1,8,1:0:0:0:
369,288,150500,1,8,1:0:0:0:
369,288,150624,1,2,1:2:0:0:
433,200,150873,1,8,1:0:0:0:
346,157,151122,1,8,1:0:0:0:
346,157,151246,1,8,1:0:0:0:
346,157,151370,1,2,1:2:0:0:
454,209,151619,2,0,P|455:245|441:313,1,100,8|2,1:0|1:2,1:0:0:0:
317,362,152117,6,0,P|255:365|199:382,1,100,4|2,1:0|1:2,1:0:0:0:
218,374,152490,1,0,1:0:0:0:
218,374,152614,1,4,1:3:0:0:
154,311,152863,1,8,1:0:0:0:
291,254,153112,2,0,P|234:251|179:230,1,100,4|2,1:2|1:2,1:0:0:0:
161,153,153609,2,0,P|265:139|298:97,1,150,8|0,1:0|1:0,1:0:0:0:
271,68,154107,5,4,1:0:0:0:
350,26,154357,1,8,1:0:0:0:
350,26,154482,1,8,1:0:0:0:
350,26,154607,1,2,1:2:0:0:
409,93,154857,1,8,1:0:0:0:
494,55,155107,1,4,1:2:0:0:
494,55,155232,1,0,1:0:0:0:
494,55,155357,1,2,1:2:0:0:
509,143,155608,2,0,P|491:196|504:259,1,100,8|4,1:0|1:2,1:0:0:0:
367,210,156108,6,0,P|313:191|262:191,1,100,4|2,1:0|1:2,1:0:0:0:
270,189,156483,1,0,1:0:0:0:
270,189,156608,1,4,1:3:0:0:
184,239,156858,1,8,1:0:0:0:
281,306,157109,2,0,P|233:315|181:349,1,100,4|2,1:2|1:2,1:0:0:0:
101,374,157609,1,8,1:0:0:0:
156,253,157859,1,4,1:2:0:0:
22,286,158109,6,0,P|2:237|31:140,1,150,4|8,1:0|1:0,1:0:0:0:
25,146,158610,2,0,P|76:170|142:160,1,100,2|8,1:2|1:0,1:0:0:0:
9,59,159110,1,4,1:0:0:0:
9,59,159235,1,0,1:0:0:0:
9,59,159360,1,8,1:0:0:0:
141,143,159610,2,0,P|198:139|252:105,1,100,2|8,1:2|1:0,1:0:0:0:
356,24,160111,6,0,P|344:84|381:167,1,150,4|8,1:0|1:0,1:0:0:0:
377,163,160611,2,0,P|430:160|479:179,1,100,2|8,1:2|1:0,1:0:0:0:
306,214,161111,1,4,1:0:0:0:
306,214,161236,1,0,1:0:0:0:
306,214,161361,1,8,1:0:0:0:
468,203,161612,2,0,P|499:245|510:297,1,100,2|8,1:2|1:0,1:0:0:0:
368,349,162112,6,0,L|238:334,1,100,4|0,1:0|1:0,1:0:0:0:
268,337,162487,1,2,1:2:0:0:
268,337,162612,1,4,1:2:0:0:
373,271,162862,1,8,1:0:0:0:
293,210,163113,1,4,1:3:0:0:
293,210,163238,1,0,1:0:0:0:
293,210,163363,1,2,1:2:0:0:
359,135,163613,2,0,P|405:148|468:144,1,100,8|4,1:0|1:2,1:0:0:0:
284,44,164113,5,4,1:0:0:0:
258,140,164363,1,8,1:0:0:0:
186,47,164614,2,0,P|140:34|77:38,1,100,2|8,1:2|1:0,1:0:0:0:
246,125,165114,1,4,1:2:0:0:
270,221,165364,1,2,1:2:0:0:
352,277,165614,2,0,P|411:273|467:248,1,100,8|4,1:0|1:2,1:0:0:0:
479,163,166115,5,4,1:0:0:0:
398,103,166365,1,4,1:3:0:0:
398,103,166615,1,4,1:2:0:0:
398,103,166865,1,8,1:0:0:0:
359,195,167115,1,4,1:2:0:0:
453,226,167365,1,0,1:0:0:0:
498,136,167616,2,0,P|477:78|483:35,1,100,8|4,1:0|1:2,1:0:0:0:
375,182,168129,5,0,1:0:0:0:
301,137,168379,1,8,1:0:0:0:
301,137,168504,1,8,1:0:0:0:
301,137,168629,1,2,1:2:0:0:
249,208,168879,1,8,1:0:0:0:
200,112,169129,2,0,P|160:105|110:79,1,80,4|2,1:2|1:2,1:0:0:0:
56,145,169630,1,8,1:0:0:0:
96,222,169880,1,4,1:2:0:0:
47,352,170118,6,0,P|125:312|189:320,1,150,4|8,1:0|1:0,1:0:0:0:
184,318,170618,2,0,P|201:277|189:205,1,100,2|4,1:2|1:2,1:0:0:0:
277,353,171118,1,4,1:0:0:0:
277,353,171243,1,0,1:0:0:0:
277,353,171368,1,8,1:0:0:0:
239,218,171619,2,0,P|225:159|242:93,1,100,2|4,1:2|1:2,1:0:0:0:
333,43,172119,6,0,P|385:45|486:95,1,150,4|8,1:0|1:0,1:0:0:0:
473,84,172619,2,0,P|470:134|448:193,1,100,2|4,1:2|1:2,1:0:0:0:
321,218,173120,1,4,1:0:0:0:
321,218,173245,1,0,1:0:0:0:
321,218,173370,1,8,1:0:0:0:
427,174,173620,2,0,P|430:224|452:283,1,100,2|4,1:2|1:2,1:0:0:0:
333,353,174120,6,0,L|195:328,1,100,4|0,1:0|1:0,1:0:0:0:
152,278,174621,1,4,1:2:0:0:
243,238,174871,1,8,1:0:0:0:
153,193,175121,2,0,P|100:209|44:195,1,100,4|2,1:2|1:2,1:0:0:0:
258,251,175621,2,0,P|242:192|266:101,1,150,8|0,1:0|1:0,1:0:0:0:
296,63,176122,5,4,1:0:0:0:
198,14,176372,1,8,1:0:0:0:
198,14,176497,1,8,1:0:0:0:
198,14,176622,1,2,1:2:0:0:
105,74,176872,1,8,1:0:0:0:
181,153,177122,2,0,P|232:169|295:155,1,100,4|2,1:2|1:2,1:0:0:0:
109,205,177623,1,8,1:0:0:0:
12,195,177873,1,4,1:2:0:0:
146,274,178123,6,0,P|146:319|153:380,1,80,4|2,1:0|1:2,1:0:0:0:
247,360,178620,1,4,1:3:0:0:
320,266,178869,1,8,1:0:0:0:
230,230,179118,1,8,1:0:0:0:
230,230,179366,1,2,1:2:0:0:
338,272,179615,2,0,P|377:268|416:260,1,80,8|4,1:0|1:2,1:0:0:0:
482,213,180113,1,4,1:3:0:0:
391,132,180361,6,0,P|380:89|396:28,1,80,8|4,1:0|1:2,1:0:0:0:
449,11,180859,1,2,1:2:0:0:
496,140,181108,2,0,P|507:195|493:236,1,80,4|2,1:0|1:2,1:0:0:0:
342,238,181605,2,0,P|276:232|255:162,1,120,8|4,1:0|2:0,1:0:0:0:
277,153,182103,5,6,1:0:0:0:
277,153,182353,1,2,1:0:0:0:
277,153,182603,1,2,1:0:0:0:
325,62,182853,1,10,1:0:0:0:
226,76,183103,2,0,P|177:90|120:88,1,80,4|2,1:2|1:0,1:0:0:0:
359,146,183625,2,0,L|459:161,1,80,10|4,1:0|1:2,1:0:0:0:
438,157,184000,1,4,1:2:0:0:
438,157,184125,5,4,1:0:0:0:
391,244,184375,1,2,1:0:0:0:
219,211,184625,2,0,L|208:129,1,80,2|10,1:0|1:0,1:0:0:0:
274,274,185125,2,0,L|285:356,1,80,4|2,1:2|1:0,1:0:0:0:
375,225,185626,2,0,P|423:235|487:233,1,80,10|4,1:0|1:2,1:0:0:0:
284,353,186126,5,6,1:0:0:0:
284,353,186376,1,2,1:0:0:0:
284,353,186626,1,2,1:0:0:0:
361,314,186876,1,10,1:0:0:0:
209,296,187127,2,0,P|162:287|131:270,1,80,4|2,1:2|1:0,1:0:0:0:
299,200,187627,2,0,P|311:247|276:362,1,160,10|4,1:0|1:0,1:0:0:0:
420,355,188377,1,2,1:0:0:0:
485,234,188628,6,0,L|477:149,1,80,2|10,1:0|1:0,1:0:0:0:
401,264,189128,2,0,L|411:345,1,80,4|2,1:2|1:0,1:0:0:0:
299,199,189628,2,0,L|289:118,1,80,10|4,1:0|1:2,1:0:0:0:
289,119,190003,1,0,1:0:0:0:
289,119,190129,5,6,1:0:0:0:
217,68,190379,1,2,1:0:0:0:
141,112,190629,1,2,1:0:0:0:
199,178,190879,1,10,1:0:0:0:
78,215,191129,2,0,P|34:209|-15:180,1,80,4|2,1:2|1:0,1:0:0:0:
144,295,191650,2,0,P|216:299|296:355,1,150.186666666667,10|4,1:0|1:0,1:0:0:0:
155,376,192389,1,2,1:0:0:0:
48,278,192639,6,0,L|38:191,1,68.48,2|10,1:0|1:0,1:0:0:0:
145,296,193107,2,0,L|155:382,1,80,4|2,1:2|1:0,1:0:0:0:
293,222,193615,2,0,P|254:213|214:211,1,80,10|4,1:0|1:2,1:0:0:0:
214,211,193997,1,4,1:2:0:0:
214,211,194124,5,6,1:0:0:0:
147,154,194374,1,2,1:0:0:0:
189,77,194624,1,2,1:0:0:0:
262,125,194874,1,10,1:0:0:0:
354,42,195124,6,0,P|367:83|356:147,1,80,4|2,1:2|1:0,1:0:0:0:
369,225,195624,2,0,P|424:193|462:190,1,80,10|0,1:0|2:0,1:0:0:0:
512,255,196136,2,0,L|507:345,1,80,6|2,1:0|1:0,1:0:0:0:
434,372,196676,1,2,1:0:0:0:
336,277,196953,2,0,L|331:377,1,83.168,10|6,1:0|1:0,1:0:0:0:
256,192,197366,12,0,212000,1:0:0:0:
