osu file format v14

[General]
AudioFilename: audio.mp3
AudioLeadIn: 0
PreviewTime: 29410
Countdown: 0
SampleSet: Normal
StackLeniency: 0.8
Mode: 0
LetterboxInBreaks: 0
WidescreenStoryboard: 0

[Editor]
Bookmarks: 62037,62287,62537,62787,63037,63287,63538,63788,64038,64288,64538,64788,65039,65289,65539,65789,66039,66289,66540,66790,67040,67290,67540,67790,68041,68291,68541,68791,69041,69291,69542,136106,136336,136586,136836,137087,137337,137587,137837,138087,138337,138588,138838,139088,139338,139588,139838,140089,140339,140589,140839,141089,141339,141590,141840,142110
DistanceSpacing: 0.7
BeatDivisor: 4
GridSize: 4
TimelineZoom: 1.6

[Metadata]
Title:Maps
TitleUnicode:Maps
Artist:Yeah Yeah Yeahs
ArtistUnicode:Yeah Yeah Yeahs
Creator:PandaHero
Version:Insane
Source:
Tags:
BeatmapID:1647090
BeatmapSetID:784500

[Difficulty]
HPDrainRate:6
CircleSize:4
OverallDifficulty:7
ApproachRate:8
SliderMultiplier:1.6
SliderTickRate:1

[Events]
//Background and Video events
0,0,"5d2567c2-5334-4663-9b3a-2a75024387db.jpg",0,0
//Break Periods
2,62006,68812
2,136106,141337
//Storyboard Layer 0 (Background)
//Storyboard Layer 1 (Fail)
//Storyboard Layer 2 (Pass)
//Storyboard Layer 3 (Foreground)
//Storyboard Sound Samples

[TimingPoints]
14025,500.333555703803,4,1,1,50,1,0
29535,-100,4,1,1,40,0,0
30035,-83.3333333333333,4,1,1,60,0,0
45546,-200,4,1,1,40,0,0
46046,-66.6666666666667,4,1,1,60,0,0
69562,-100,4,1,1,40,0,0
70062,-83.3333333333333,4,1,1,50,0,0
71589,500.333555703803,4,1,1,50,1,0
71589,-83.3333333333333,4,1,1,50,0,0
73599,500.333555703803,4,1,1,50,1,0
73599,-83.3333333333333,4,1,1,50,0,0
74099,500.333555703803,4,1,1,50,1,0
74099,-83.3333333333333,4,1,1,50,0,0
78087,500.333555703803,4,1,1,50,1,0
78087,-83.3333333333333,4,1,1,50,0,0
86065,500.333555703803,4,1,1,50,1,0
86065,-66.6666666666667,4,1,1,60,0,0
102107,500.333555703803,4,1,1,60,1,0
102107,-142.857142857143,4,1,1,60,0,0
103559,500.333555703803,4,1,1,60,1,0
103559,-142.857142857143,4,1,1,40,0,0
104084,500.333555703803,4,1,1,60,1,0
104084,-66.6666666666667,4,1,1,60,0,0
116619,500.333555703803,4,1,1,60,1,0
116619,-66.6666666666667,4,1,1,60,0,0
118120,-62.5,4,1,1,65,0,0
120095,500.333555703803,4,1,1,65,1,0
120095,-62.5,4,1,1,65,0,0
122118,500.333555703803,4,1,1,65,1,0
122118,-62.5,4,1,1,65,0,0
124075,500.333555703803,4,1,1,65,1,0
124075,-62.5,4,1,1,65,0,0
142087,-125,4,1,1,35,0,0
148091,-125,4,1,1,40,0,0
150092,-76.9230769230769,4,1,1,55,0,0
166103,-66.6666666666667,4,1,1,55,0,0
168129,500.333555703803,4,1,1,60,1,0
168129,-66.6666666666667,4,1,1,60,0,0
170118,500.333555703803,4,1,1,60,1,0
170118,-66.6666666666667,4,1,1,60,0,0
180124,-100,4,1,1,60,0,0
182126,-58.8235294117647,4,1,1,65,0,0
197246,500.333555703803,4,1,1,65,1,0
197371,-100,4,1,1,15,0,0

[Colours]
Combo1 : 17,254,176
Combo2 : 173,255,95
Combo3 : 255,88,100
Combo4 : 255,94,55

[HitObjects]
44,308,14025,6,0,P|81:308|160:312,1,80,4|0,0:3|0:0,0:0:0:0:
242,352,14525,1,4,0:3:0:0:
286,290,14775,2,0,P|285:248|287:187,1,80,8|0,0:0|0:0,0:0:0:0:
192,240,15275,1,4,0:3:0:0:
374,356,15526,2,0,P|377:317|378:261,1,80,8|0,0:0|0:0,0:0:0:0:
411,189,16026,6,0,P|448:194|500:198,2,80,4|0|0,0:3|0:0|0:0,0:0:0:0:
296,118,16776,1,8,0:0:0:0:
369,59,17027,1,4,0:3:0:0:
369,59,17277,1,0,0:0:0:0:
269,151,17527,1,8,0:0:0:0:
223,62,17777,1,4,0:3:0:0:
102,114,18027,5,4,0:3:0:0:
109,122,18152,1,0,0:0:0:0:
109,122,18277,1,4,0:3:0:0:
11,201,18528,1,4,0:3:0:0:
81,239,18778,2,0,P|116:233|168:230,1,80,8|0,0:0|0:0,0:0:0:0:
14,362,19278,1,4,0:3:0:0:
169,325,19528,2,0,P|129:327|89:333,1,80,8|0,0:0|0:0,0:0:0:0:
9,270,20029,6,0,P|11:227|14:171,2,80,4|0|0,0:3|0:0|0:0,0:0:0:0:
118,170,20779,1,8,0:0:0:0:
62,75,21029,1,4,0:3:0:0:
118,170,21279,1,0,0:0:0:0:
241,57,21530,1,8,0:0:0:0:
154,0,21780,1,4,0:3:0:0:
235,162,22030,5,4,0:3:0:0:
235,162,22155,1,0,0:0:0:0:
235,162,22280,1,4,0:3:0:0:
338,174,22530,1,4,0:3:0:0:
437,284,22780,2,0,P|391:282|345:283,1,80,8|0,0:0|0:0,0:0:0:0:
220,361,23281,1,4,0:3:0:0:
220,361,23531,2,0,P|265:365|319:363,1,80,8|0,0:0|0:0,0:0:0:0:
119,325,24031,5,4,0:3:0:0:
119,325,24281,1,0,0:0:0:0:
119,325,24532,1,0,0:0:0:0:
25,183,24782,2,0,L|29:287,1,80,8|0,0:0|0:0,0:0:0:0:
118,155,25282,1,4,0:3:0:0:
205,262,25532,2,0,L|209:183,1,80,8|0,0:0|0:0,0:0:0:0:
218,83,26033,5,4,0:3:0:0:
218,83,26158,1,0,0:3:0:0:
218,83,26283,1,4,0:3:0:0:
290,138,26533,1,4,0:3:0:0:
374,85,26783,2,0,L|371:-17,2,80,8|0|0,0:0|0:0|0:0,0:0:0:0:
485,164,27534,2,0,L|492:55,1,80,8|0,0:0|0:0,0:0:0:0:
376,192,28034,5,4,0:3:0:0:
342,280,28284,1,0,0:0:0:0:
412,344,28534,1,4,0:3:0:0:
277,137,28784,5,8,0:0:0:0:
261,230,29035,1,4,0:3:0:0:
342,280,29285,1,0,0:0:0:0:
161,162,29535,6,0,L|161:252,1,80,8|4,0:0|0:2,0:0:0:0:
142,320,30035,6,0,P|92:242|9:238,1,143.999995605469,4|2,0:0|0:2,0:0:0:0:
46,230,30536,1,4,0:3:0:0:
67,356,30786,1,8,0:0:0:0:
228,372,31036,2,0,L|242:181,1,191.999994140625,4|2,0:3|0:2,0:0:0:0:
242,180,31786,1,0,0:0:0:0:
385,221,32037,6,0,P|376:287|441:340,1,143.999995605469,4|2,0:2|0:2,0:0:0:0:
427,337,32537,1,4,0:3:0:0:
506,241,32787,1,8,0:0:0:0:
438,134,33037,2,0,L|326:136,1,95.9999970703126,4|0,0:3|2:0,0:0:0:0:
233,76,33538,2,0,L|125:79,1,95.9999970703126,2|0,0:2|0:0,0:0:0:0:
115,67,33913,1,4,0:2:0:0:
93,53,34038,6,0,P|69:115|107:211,1,143.999995605469,4|2,0:0|0:2,0:0:0:0:
87,187,34538,2,0,P|137:185|202:184,1,95.9999970703126,4|2,0:3|0:2,0:0:0:0:
121,320,35039,2,0,P|71:318|6:317,1,95.9999970703126,4|0,0:3|0:0,0:0:0:0:
235,352,35539,1,2,0:2:0:0:
261,260,35789,1,0,0:0:0:0:
381,265,36039,6,0,P|352:330|361:374,1,95.9999970703126,4|0,0:2|0:0,0:0:0:0:
196,184,36540,2,0,P|225:119|216:75,2,95.9999970703126,4|6|0,0:3|0:2|0:0,0:0:0:0:
74,202,37290,1,4,0:3:0:0:
26,118,37540,1,6,0:2:0:0:
86,43,37790,1,0,0:2:0:0:
196,184,38041,6,0,P|225:249|216:293,1,95.9999970703126,4|0,0:0|0:0,0:0:0:0:
90,372,38541,2,0,P|25:343|-19:352,2,95.9999970703126,4|2|0,0:3|0:2|0:0,0:0:0:0:
185,361,39291,1,4,0:3:0:0:
223,271,39542,2,0,P|220:223|195:183,1,95.9999970703126,6|0,0:2|0:0,0:0:0:0:
309,36,40042,6,0,P|280:101|289:145,1,95.9999970703126,4|0,0:2|0:0,0:0:0:0:
415,224,40542,2,0,P|480:195|524:204,2,95.9999970703126,4|2|0,0:3|0:2|0:0,0:0:0:0:
320,213,41293,1,4,0:3:0:0:
282,123,41543,2,0,P|284:75|309:35,1,95.9999970703126,6|4,0:2|0:2,0:0:0:0:
218,199,41918,1,4,0:2:0:0:
218,199,42043,6,0,P|163:186|103:206,1,95.9999970703126,4|0,0:0|0:0,0:0:0:0:
159,306,42544,2,0,P|107:282|44:290,1,95.9999970703126,4|2,0:3|0:2,0:0:0:0:
61,304,42919,1,0,0:2:0:0:
50,325,43044,2,0,P|24:259|-1:224,1,95.9999970703126,4|0,0:3|0:0,0:0:0:0:
252,260,43544,1,6,0:2:0:0:
306,345,43794,1,0,0:0:0:0:
434,357,44045,6,0,P|441:288|438:224,1,95.9999970703126,4|0,0:0|0:0,0:0:0:0:
421,247,44420,1,4,0:2:0:0:
403,230,44545,2,0,P|396:161|399:97,1,95.9999970703126,4|6,0:3|0:2,0:0:0:0:
452,59,45045,1,4,0:3:0:0:
255,299,45295,1,8,0:0:0:0:
192,256,45546,2,2,L|126:255,1,60,4|0,0:3|2:0,0:2:0:0:
86,286,46046,6,0,P|91:206|60:125,1,120.000004577637,4|8,0:0|0:0,0:0:0:0:
81,167,46421,1,8,0:0:0:0:
81,167,46546,1,2,0:2:0:0:
15,78,46796,1,8,0:0:0:0:
149,82,47047,1,8,0:0:0:0:
149,82,47172,1,8,0:0:0:0:
149,82,47297,1,2,0:2:0:0:
22,61,47547,1,8,0:0:0:0:
144,104,47797,1,2,0:2:0:0:
245,142,48047,6,0,P|292:85|347:74,1,120.000004577637,4|8,0:0|0:0,0:0:0:0:
363,79,48422,1,8,0:0:0:0:
383,100,48548,2,0,P|375:166|369:243,1,120.000004577637,2|8,0:2|0:0,0:0:0:0:
471,342,49048,2,0,P|479:276|485:199,1,120.000004577637,4|2,0:2|0:2,0:0:0:0:
312,295,49548,1,8,0:0:0:0:
435,332,49798,1,2,0:2:0:0:
240,352,50049,6,0,B|162:329|182:372|81:347,1,120.000004577637,4|8,0:0|0:0,0:0:0:0:
121,354,50424,1,8,0:0:0:0:
121,354,50549,1,2,0:2:0:0:
14,231,50799,1,8,0:0:0:0:
37,375,51049,1,8,0:0:0:0:
37,375,51174,1,8,0:0:0:0:
37,375,51299,1,2,0:2:0:0:
105,221,51550,2,0,P|153:231|232:220,1,120.000004577637,8|2,0:0|0:2,0:0:0:0:
324,354,52050,5,4,0:0:0:0:
338,129,52300,1,2,0:2:0:0:
224,252,52550,1,4,0:3:0:0:
434,256,52800,1,8,0:0:0:0:
224,252,53051,1,4,0:2:0:0:
434,256,53301,1,2,0:2:0:0:
224,252,53551,2,0,P|152:235|86:233,1,120.000004577637,8|4,0:0|0:2,0:0:0:0:
0,89,54051,5,4,0:0:0:0:
123,132,54301,1,8,0:0:0:0:
123,132,54426,1,8,0:0:0:0:
123,132,54552,1,2,0:2:0:0:
15,189,54802,1,8,0:0:0:0:
188,243,55052,5,4,0:0:0:0:
75,308,55302,1,8,0:0:0:0:
75,308,55427,1,8,0:0:0:0:
75,308,55552,1,2,0:2:0:0:
192,344,55802,1,8,0:0:0:0:
242,142,56053,5,4,0:0:0:0:
285,265,56303,1,8,0:0:0:0:
285,265,56428,1,8,0:0:0:0:
285,265,56553,1,2,0:2:0:0:
342,157,56803,1,8,0:0:0:0:
370,354,57053,5,4,0:0:0:0:
435,241,57303,1,8,0:0:0:0:
435,241,57428,1,8,0:0:0:0:
435,241,57554,1,2,0:2:0:0:
471,358,57804,1,8,0:0:0:0:
279,247,58054,6,0,P|301:126|330:64,1,180.000006866455,4|2,0:0|0:2,0:0:0:0:
324,74,58554,2,0,L|189:80,1,120.000004577637,4|8,0:2|0:0,0:0:0:0:
54,227,59055,2,0,L|189:221,1,120.000004577637,4|2,0:2|0:2,0:0:0:0:
204,79,59555,1,8,0:0:0:0:
173,221,59805,1,2,0:2:0:0:
59,124,60055,6,0,P|65:50|105:1,1,120.000004577637,4|0,0:0|0:0,0:0:0:0:
268,176,60556,1,2,0:2:0:0:
267,304,60806,1,8,0:0:0:0:
153,362,61056,1,4,0:2:0:0:
140,251,61306,1,2,0:2:0:0:
379,364,61556,2,2,L|391:227,1,120.000004577637,8|2,0:0|2:1,0:0:0:0:
81,308,69562,6,0,P|118:299|188:295,1,80,2|0,0:2|0:0,0:0:0:0:
259,333,70062,6,0,L|427:331,1,143.999995605469,6|2,0:2|0:2,0:0:0:0:
402,331,70562,2,0,P|405:274|413:217,1,95.9999970703126,4|2,0:3|0:2,0:0:0:0:
332,173,71063,2,0,P|341:122|346:62,1,95.9999970703126,4|0,0:3|0:0,0:0:0:0:
471,151,71589,1,8,0:0:0:0:
468,254,71839,1,2,0:2:0:0:
367,280,72089,6,0,P|310:250|212:267,1,143.999995605469,4|2,0:2|0:2,0:0:0:0:
232,256,72589,2,0,L|121:256,1,95.9999970703126,4|2,0:3|0:2,0:0:0:0:
97,346,73090,2,0,L|-9:346,1,95.9999970703126,4|0,0:3|0:0,0:0:0:0:
35,246,73599,1,8,0:0:0:0:
66,151,73849,1,4,0:2:0:0:
58,263,74099,6,0,L|84:112,1,143.999995605469,4|2,0:0|0:2,0:0:0:0:
87,97,74599,1,4,0:3:0:0:
183,137,74849,1,8,0:0:0:0:
158,321,75100,2,0,L|174:216,1,95.9999970703126,4|2,0:2|0:2,0:0:0:0:
248,80,75600,2,0,P|285:100|338:106,1,95.9999970703126,8|2,0:0|0:2,0:0:0:0:
492,104,76100,6,0,P|481:195|479:278,1,143.999995605469,4|2,0:0|0:2,0:0:0:0:
478,247,76601,1,4,0:3:0:0:
410,352,76851,1,8,0:0:0:0:
357,271,77101,1,4,0:3:0:0:
410,352,77351,1,2,0:2:0:0:
357,271,77601,2,0,P|297:271|228:277,1,95.9999970703126,8|4,0:0|0:2,0:0:0:0:
162,344,78087,6,0,P|101:337|-2:336,1,143.999995605469,4|2,0:0|0:2,0:0:0:0:
18,335,78587,2,0,P|23:284|22:202,1,95.9999970703126,4|2,0:3|0:2,0:0:0:0:
104,191,79087,2,0,P|99:140|100:57,1,95.9999970703126,4|2,0:3|0:2,0:0:0:0:
184,44,79588,1,8,0:0:0:0:
251,103,79838,1,2,0:2:0:0:
206,192,80088,5,4,0:2:0:0:
206,192,80213,1,0,0:0:0:0:
206,192,80338,1,2,0:2:0:0:
92,189,80588,1,4,0:3:0:0:
181,295,80838,1,8,0:0:0:0:
317,228,81089,2,0,L|321:117,1,95.9999970703126,4|2,0:3|0:2,0:0:0:0:
457,200,81589,2,0,L|449:327,1,95.9999970703126,8|2,0:0|0:2,0:0:0:0:
438,316,81964,1,4,0:2:0:0:
423,334,82089,6,0,P|373:322|293:326,1,95.9999970703126,4|2,0:0|0:2,0:0:0:0:
173,355,82590,1,4,0:3:0:0:
315,289,82840,1,8,0:0:0:0:
169,315,83090,2,0,P|170:249|197:192,1,95.9999970703126,4|2,0:3|0:2,0:0:0:0:
268,90,83590,2,0,L|146:88,1,95.9999970703126,8|4,0:0|0:2,0:0:0:0:
15,49,84091,6,0,P|32:88|31:163,1,95.9999970703126,4|2,0:0|0:2,0:0:0:0:
9,277,84591,1,4,0:3:0:0:
110,197,84841,1,8,0:0:0:0:
110,197,84966,1,0,0:0:0:0:
110,197,85091,1,4,0:3:0:0:
103,352,85341,1,8,0:0:0:0:
178,282,85592,1,4,0:3:0:0:
188,289,86065,6,0,B|256:276|237:319|336:303,1,120.000004577637,4|8,0:0|0:0,0:0:0:0:
304,306,86440,1,8,0:0:0:0:
304,306,86565,1,2,0:2:0:0:
445,350,86815,1,8,0:0:0:0:
485,228,87066,1,8,0:0:0:0:
485,228,87191,1,8,0:0:0:0:
485,228,87316,1,2,0:2:0:0:
445,350,87566,1,8,0:0:0:0:
312,313,87816,1,2,0:2:0:0:
349,174,88066,6,0,P|365:110|391:42,1,120.000004577637,4|8,0:2|0:0,0:0:0:0:
383,59,88441,1,8,0:0:0:0:
383,59,88567,1,2,0:2:0:0:
461,139,88817,1,8,0:0:0:0:
410,237,89067,2,0,P|344:227|261:239,1,120.000004577637,4|2,0:2|0:2,0:0:0:0:
198,314,89567,1,8,0:0:0:0:
108,234,89817,1,2,0:2:0:0:
203,114,90068,6,0,P|269:124|352:112,1,120.000004577637,4|8,0:0|0:0,0:0:0:0:
321,119,90443,1,8,0:0:0:0:
321,119,90568,1,2,0:2:0:0:
421,44,90818,1,8,0:0:0:0:
318,18,91068,1,8,0:0:0:0:
318,18,91193,1,8,0:0:0:0:
318,18,91318,1,2,0:2:0:0:
473,138,91569,2,0,P|462:192|458:269,1,120.000004577637,8|2,0:0|0:2,0:0:0:0:
319,358,92069,6,0,P|303:301|264:253,1,120.000004577637,4|8,0:2|0:0,0:0:0:0:
237,265,92444,1,8,0:0:0:0:
209,277,92569,2,0,P|153:282|77:277,1,120.000004577637,2|8,0:2|0:0,0:0:0:0:
219,123,93070,2,0,P|275:118|351:123,1,120.000004577637,4|2,0:2|0:2,0:0:0:0:
165,16,93570,1,8,0:0:0:0:
51,63,93820,1,4,0:2:0:0:
219,123,94070,5,4,0:0:0:0:
101,185,94320,1,8,0:0:0:0:
101,185,94445,1,8,0:0:0:0:
101,185,94571,1,2,0:2:0:0:
216,234,94821,1,8,0:0:0:0:
23,266,95071,5,4,0:0:0:0:
145,319,95321,1,8,0:0:0:0:
145,319,95446,1,8,0:0:0:0:
145,319,95571,1,2,0:2:0:0:
33,376,95821,1,8,0:0:0:0:
261,361,96072,5,4,0:0:0:0:
314,239,96322,1,8,0:0:0:0:
314,239,96447,1,8,0:0:0:0:
314,239,96572,1,2,0:2:0:0:
371,351,96822,1,8,0:0:0:0:
385,116,97072,5,4,0:0:0:0:
446,234,97322,1,8,0:0:0:0:
446,234,97447,1,8,0:0:0:0:
446,234,97573,1,2,0:2:0:0:
495,118,97823,1,8,0:0:0:0:
256,128,98073,6,0,B|163:97|173:174|69:131,1,180.000006866455,4|2,0:0|0:2,0:0:0:0:
134,197,98573,2,0,P|50:173|3:191,1,120.000004577637,4|8,0:2|0:0,0:0:0:0:
48,291,99074,1,2,0:2:0:0:
21,181,99324,1,4,0:3:0:0:
167,356,99574,1,8,0:0:0:0:
210,208,99824,1,4,0:2:0:0:
278,306,100074,6,0,P|335:282|440:294,1,120.000004577637,4|8,0:0|0:0,0:0:0:0:
418,294,100449,1,8,0:0:0:0:
440,313,100575,2,0,P|451:241|448:163,1,120.000004577637,2|8,0:2|0:0,0:0:0:0:
311,54,101075,2,0,P|300:126|303:204,1,120.000004577637,4|2,0:2|0:2,0:0:0:0:
374,199,101575,1,8,0:0:0:0:
409,129,101825,1,4,0:2:0:0:
303,353,102107,5,4,0:3:0:0:
303,353,102357,5,4,0:3:0:0:
303,353,102607,5,4,0:3:0:0:
303,353,102857,5,4,0:3:0:0:
303,353,103107,5,4,0:3:0:0:
303,353,103357,5,4,0:3:0:0:
303,353,103559,6,0,P|253:346|211:347,1,83.9999974365235,8|0,0:0|2:0,0:0:0:0:
174,365,104084,6,0,P|174:297|146:219,1,120.000004577637,4|8,0:0|0:0,0:0:0:0:
160,247,104459,1,8,0:0:0:0:
160,247,104584,1,2,0:2:0:0:
33,330,104834,1,8,0:0:0:0:
157,158,105084,2,0,P|202:177|289:159,1,120.000004577637,4|2,0:2|0:2,0:0:0:0:
285,39,105585,1,8,0:0:0:0:
153,21,105835,1,4,0:2:0:0:
11,151,106084,6,0,P|13:217|12:289,1,120.000004577637,4|8,0:0|0:0,0:0:0:0:
12,270,106459,1,8,0:0:0:0:
12,270,106585,1,2,0:2:0:0:
157,343,106835,1,8,0:0:0:0:
246,125,107089,6,0,P|248:191|247:263,1,120.000004577637,4|8,0:0|0:0,0:0:0:0:
247,244,107464,1,8,0:0:0:0:
247,244,107589,1,2,0:2:0:0:
392,317,107839,1,8,0:0:0:0:
477,39,108090,6,0,P|474:105|476:177,1,120.000004577637,4|8,0:0|0:0,0:0:0:0:
475,158,108465,1,8,0:0:0:0:
475,158,108590,1,2,0:2:0:0:
331,231,108840,1,8,0:0:0:0:
224,56,109090,6,0,P|221:122|223:194,1,120.000004577637,4|8,0:0|0:0,0:0:0:0:
223,175,109465,1,8,0:0:0:0:
223,175,109591,1,2,0:2:0:0:
78,248,109841,1,8,0:0:0:0:
256,340,110091,6,0,P|336:335|444:351,1,180.000006866455,4|2,0:0|0:2,0:0:0:0:
373,299,110591,2,0,P|444:294|489:272,1,120.000004577637,4|8,0:2|0:0,0:0:0:0:
239,220,111092,2,0,P|293:196|353:194,1,120.000004577637,4|2,0:2|0:2,0:0:0:0:
141,354,111592,5,8,0:0:0:0:
60,302,111842,1,4,0:2:0:0:
239,220,112092,1,4,0:0:0:0:
233,316,112342,1,0,0:0:0:0:
70,207,112593,1,2,0:2:0:0:
156,164,112843,1,8,0:0:0:0:
140,371,113093,1,4,0:2:0:0:
44,309,113343,1,2,0:2:0:0:
254,212,113593,1,8,0:0:0:0:
247,325,113843,1,4,0:2:0:0:
55,197,114094,5,4,0:0:0:0:
157,146,114344,1,0,0:0:0:0:
268,93,114594,5,2,0:2:0:0:
166,42,114844,1,8,0:0:0:0:
163,252,115094,5,4,0:0:0:0:
273,210,115344,1,2,0:2:0:0:
477,204,115595,5,8,0:0:0:0:
369,241,115845,1,2,0:2:0:0:
287,302,116095,5,4,0:0:0:0:
389,353,116345,1,0,0:0:0:0:
184,265,116619,5,2,0:2:0:0:
220,373,116869,1,8,0:0:0:0:
107,198,117119,5,4,0:2:0:0:
56,299,117369,1,2,0:2:0:0:
34,111,117619,6,2,P|96:166|226:127,1,180.000006866455,10|0,0:0|2:0,0:0:0:0:
342,55,118120,6,0,L|434:61,1,64,6|0,0:0|2:0,0:0:0:0:
347,84,118370,2,0,L|283:79,1,64,2|0,0:0|2:0,0:0:0:0:
354,116,118620,2,0,L|446:122,1,64,2|0,0:0|2:0,0:0:0:0:
287,193,118870,1,10,0:0:0:0:
287,193,118995,1,2,0:0:0:0:
287,193,119120,2,0,P|291:255|295:360,1,128,4|2,0:2|0:0,0:0:0:0:
477,342,119621,2,2,L|485:185,1,128,10|4,0:0|0:2,0:0:0:0:
378,366,120095,1,6,0:0:0:0:
141,353,120345,6,0,L|69:356,1,64,2|0,0:0|2:0,0:0:0:0:
112,321,120595,2,0,L|40:324,1,64,2|0,0:0|2:0,0:0:0:0:
156,209,120845,6,0,L|228:212,1,64,10|0,0:0|2:0,0:0:0:0:
185,177,121095,2,0,L|257:180,1,64,4|0,0:2|2:0,0:0:0:0:
123,70,121345,6,0,L|51:73,1,64,2|0,0:0|2:0,0:0:0:0:
94,38,121596,2,0,L|22:41,1,64,10|0,0:0|2:0,0:0:0:0:
231,80,121846,5,4,0:2:0:0:
231,80,121971,1,4,0:2:0:0:
231,80,122118,2,0,P|245:144|227:235,1,128,6|2,0:0|0:0,0:0:0:0:
387,305,122618,2,0,P|356:330|319:370,1,64,2|0,0:0|2:0,0:0:0:0:
352,198,122868,2,0,P|321:247|312:266,1,64,10|0,0:0|2:0,0:0:0:0:
465,350,123118,2,0,P|465:279|481:180,1,128,4|2,0:2|0:0,0:0:0:0:
477,191,123493,1,0,0:0:0:0:
485,160,123619,2,0,P|411:157|336:125,1,128,10|0,0:0|0:0,0:0:0:0:
164,21,124075,5,4,0:0:0:0:
123,171,124325,1,2,0:0:0:0:
64,80,124575,1,2,0:0:0:0:
73,269,124825,1,10,0:0:0:0:
204,106,125075,1,4,0:2:0:0:
180,291,125325,1,2,0:0:0:0:
4,172,125576,1,10,0:0:0:0:
18,351,125826,1,4,0:2:0:0:
292,347,126076,6,0,L|292:265,1,64,6|0,0:0|2:0,0:0:0:0:
322,322,126326,2,0,L|322:240,1,64,2|0,0:0|2:0,0:0:0:0:
194,151,126576,2,0,L|194:233,1,64,2|0,0:0|2:0,0:0:0:0:
339,117,126826,1,10,0:0:0:0:
339,117,126951,1,0,0:0:0:0:
339,117,127077,2,0,P|401:150|494:150,1,128,4|2,0:2|0:0,0:0:0:0:
289,31,127577,1,10,0:0:0:0:
207,135,127827,1,4,0:2:0:0:
207,135,127952,1,4,0:2:0:0:
207,135,128077,5,4,0:0:0:0:
190,290,128327,1,2,0:0:0:0:
113,205,128578,1,2,0:0:0:0:
289,217,128828,1,10,0:0:0:0:
113,349,129078,1,4,0:2:0:0:
94,218,129328,1,2,0:0:0:0:
302,231,129578,1,10,0:0:0:0:
280,359,129828,1,4,0:2:0:0:
85,248,130079,6,0,L|-2:246,1,64,6|0,0:0|2:0,0:0:0:0:
128,143,130329,2,0,L|213:143,1,64,2|0,0:0|2:0,0:0:0:0:
88,38,130579,2,0,L|5:38,1,64,2|0,0:0|2:0,0:0:0:0:
194,50,130829,1,10,0:0:0:0:
194,50,130954,1,0,0:0:0:0:
194,50,131079,1,4,0:2:0:0:
196,240,131329,5,2,0:0:0:0:
318,272,131580,1,10,0:0:0:0:
362,149,131830,1,2,0:0:0:0:
174,238,132080,6,0,P|181:302|173:376,1,128,6|2,0:0|0:0,0:0:0:0:
342,135,132580,2,0,P|335:199|343:273,1,128,6|2,0:0|0:0,0:0:0:0:
96,42,133081,5,4,0:2:0:0:
80,173,133331,1,2,0:0:0:0:
63,292,133581,1,10,0:0:0:0:
57,164,133831,1,2,0:0:0:0:
175,365,134081,1,4,0:0:0:0:
58,339,142087,5,4,0:3:0:0:
58,339,142212,1,0,0:3:0:0:
58,339,142337,1,4,0:3:0:0:
134,364,142587,2,0,P|137:331|144:282,1,64,4|2,0:3|0:3,0:0:0:0:
210,263,143087,2,0,P|208:217|184:108,1,128,4|2,0:3|0:3,0:0:0:0:
42,57,144088,5,4,0:3:0:0:
42,57,144213,1,0,0:0:0:0:
42,57,144338,1,4,0:3:0:0:
84,119,144588,2,0,P|89:163|89:199,1,64,4|2,0:3|0:3,0:0:0:0:
22,227,145089,2,0,P|17:271|17:307,2,64,4|0|2,0:3|0:0|0:3,0:0:0:0:
161,326,146089,5,4,0:3:0:0:
161,326,146214,1,0,0:0:0:0:
161,326,146339,1,4,0:3:0:0:
236,309,146590,2,0,L|324:324,1,64,4|2,0:3|0:3,0:0:0:0:
373,344,147090,2,0,L|380:200,1,128,4|2,0:3|0:3,0:0:0:0:
379,137,147840,1,4,0:3:0:0:
461,176,148091,5,4,0:3:0:0:
461,176,148341,2,0,L|458:260,1,64,8|4,0:0|0:3,0:0:0:0:
384,142,148841,1,4,0:3:0:0:
384,142,149091,2,0,L|385:55,1,64,8|4,0:0|0:3,0:0:0:0:
270,30,149592,2,2,L|270:128,1,96,8|0,0:0|2:0,0:2:0:0:
242,157,150092,6,0,P|183:145|134:146,1,103.999995239258,4|8,0:0|0:0,0:0:0:0:
140,145,150467,1,8,0:0:0:0:
140,145,150592,1,2,0:2:0:0:
19,237,150842,1,8,0:0:0:0:
164,311,151093,1,8,0:0:0:0:
164,311,151218,1,8,0:0:0:0:
164,311,151343,1,2,0:2:0:0:
19,237,151593,1,8,0:0:0:0:
147,151,151843,1,2,0:2:0:0:
140,276,152093,6,0,L|133:393,1,103.999995239258,4|2,0:0|0:2,0:0:0:0:
272,270,152594,2,0,L|279:137,1,103.999995239258,4|8,0:3|0:0,0:0:0:0:
283,33,153094,1,4,0:2:0:0:
407,95,153344,1,2,0:2:0:0:
395,219,153594,1,8,0:0:0:0:
416,106,153844,1,4,0:2:0:0:
408,225,154095,6,0,P|400:274|391:354,1,103.999995239258,4|8,0:0|0:0,0:0:0:0:
393,327,154470,1,8,0:0:0:0:
393,327,154595,1,2,0:2:0:0:
256,280,154845,1,8,0:0:0:0:
153,367,155095,2,0,P|145:307|130:234,1,103.999995239258,4|2,0:2|0:2,0:0:0:0:
25,175,155596,1,8,0:0:0:0:
144,247,155846,1,4,0:2:0:0:
17,192,156096,6,0,P|4:245|0:308,1,103.999995239258,4|2,0:0|0:2,0:0:0:0:
170,113,156596,1,4,0:3:0:0:
144,247,156846,1,8,0:0:0:0:
65,51,157097,1,4,0:2:0:0:
277,68,157347,1,2,0:2:0:0:
170,113,157597,1,8,0:0:0:0:
65,51,157847,1,4,0:2:0:0:
277,68,158097,5,4,0:0:0:0:
316,202,158347,1,8,0:0:0:0:
316,202,158472,1,8,0:0:0:0:
316,202,158598,1,2,0:2:0:0:
389,100,158848,1,8,0:0:0:0:
380,297,159098,5,4,0:0:0:0:
471,191,159348,1,8,0:0:0:0:
471,191,159473,1,8,0:0:0:0:
471,191,159598,1,2,0:2:0:0:
494,315,159848,1,8,0:0:0:0:
258,353,160099,5,4,0:0:0:0:
127,304,160349,1,8,0:0:0:0:
127,304,160474,1,8,0:0:0:0:
127,304,160599,1,2,0:2:0:0:
233,239,160849,1,8,0:0:0:0:
74,176,161099,5,4,0:0:0:0:
205,127,161349,1,8,0:0:0:0:
205,127,161474,1,8,0:0:0:0:
205,127,161600,1,2,0:2:0:0:
99,62,161850,1,8,0:0:0:0:
326,78,162100,6,0,P|311:149|341:260,1,155.999992858887,4|2,0:0|0:2,0:0:0:0:
264,176,162600,2,0,P|283:228|290:288,1,103.999995239258,4|8,0:2|0:0,0:0:0:0:
159,381,163101,1,4,0:3:0:0:
149,219,163351,1,2,0:2:0:0:
159,381,163601,1,8,0:0:0:0:
21,305,163851,1,4,0:2:0:0:
159,381,164101,6,0,P|209:358|295:363,1,103.999995239258,4|8,0:0|0:0,0:0:0:0:
282,358,164476,1,8,0:0:0:0:
306,366,164602,2,0,P|318:299|321:254,1,103.999995239258,2|8,0:2|0:0,0:0:0:0:
467,275,165102,2,0,P|455:208|452:163,1,103.999995239258,4|2,0:2|0:2,0:0:0:0:
485,31,165602,1,8,0:0:0:0:
423,164,165852,1,4,0:2:0:0:
300,97,166103,5,4,0:0:0:0:
300,97,166353,1,4,0:3:0:0:
423,164,166603,1,4,0:2:0:0:
240,224,166853,1,8,0:0:0:0:
122,165,167103,2,0,L|123:377,1,180.000006866455,4|2,0:2|0:2,0:0:0:0:
122,344,167604,2,0,P|48:338|0:339,1,120.000004577637,8|4,0:0|0:2,0:0:0:0:
205,301,168129,6,0,P|278:306|327:305,1,120.000004577637,4|8,0:0|0:0,0:0:0:0:
324,305,168504,1,8,0:0:0:0:
324,305,168629,1,2,0:2:0:0:
461,345,168879,1,8,0:0:0:0:
337,271,169129,1,4,0:2:0:0:
473,304,169379,1,2,0:2:0:0:
340,236,169630,2,0,P|272:239|198:231,1,120.000004577637,8|4,0:0|0:2,0:0:0:0:
57,324,170118,6,0,P|64:255|55:188,1,120.000004577637,4|8,0:0|0:0,0:0:0:0:
87,196,170493,1,8,0:0:0:0:
87,196,170618,2,0,L|88:70,1,120.000004577637,2|4,0:2|0:2,0:0:0:0:
257,36,171118,6,0,P|250:105|259:172,1,120.000004577637,4|8,0:0|0:0,0:0:0:0:
280,170,171493,1,8,0:0:0:0:
280,170,171619,2,0,L|279:296,1,120.000004577637,2|4,0:2|0:2,0:0:0:0:
442,348,172119,6,0,P|449:279|440:212,1,120.000004577637,4|8,0:0|0:0,0:0:0:0:
420,210,172494,1,8,0:0:0:0:
420,210,172619,2,0,L|421:84,1,120.000004577637,2|4,0:2|0:2,0:0:0:0:
238,102,173120,6,0,P|231:171|240:238,1,120.000004577637,4|8,0:0|0:0,0:0:0:0:
260,240,173495,1,8,0:0:0:0:
260,240,173620,2,0,L|259:366,1,120.000004577637,2|4,0:2|0:2,0:0:0:0:
229,363,173995,1,4,0:2:0:0:
199,364,174120,6,0,P|128:336|25:348,1,180.000006866455,4|2,0:0|0:2,0:0:0:0:
117,282,174621,2,0,P|51:290|-6:271,1,120.000004577637,4|8,0:2|0:0,0:0:0:0:
187,173,175121,2,0,P|129:157|70:165,1,120.000004577637,4|2,0:2|0:2,0:0:0:0:
219,46,175621,5,8,0:0:0:0:
368,93,175871,1,4,0:2:0:0:
326,245,176122,1,4,0:0:0:0:
173,197,176371,1,8,0:0:0:0:
173,197,176496,1,8,0:0:0:0:
173,197,176622,1,2,0:2:0:0:
326,245,176872,1,8,0:0:0:0:
368,93,177122,1,4,0:2:0:0:
219,46,177372,1,2,0:2:0:0:
173,197,177623,2,0,P|175:257|165:335,1,120.000004577637,8|4,0:0|0:2,0:0:0:0:
7,193,178123,6,0,P|5:133|15:55,1,120.000004577637,4|2,0:0|0:2,0:0:0:0:
89,221,178623,1,4,0:3:0:0:
252,131,178873,1,8,0:0:0:0:
157,97,179123,1,8,0:0:0:0:
157,97,179248,1,8,0:0:0:0:
157,97,179373,1,2,0:2:0:0:
221,237,179624,1,8,0:0:0:0:
359,176,179874,1,4,0:2:0:0:
252,131,180124,1,4,0:3:0:0:
351,344,180374,5,8,0:0:0:0:
351,344,180625,2,0,P|425:340|466:350,1,80,4|2,0:2|0:2,0:0:0:0:
499,243,181125,2,0,P|425:247|384:237,1,80,4|2,0:0|0:2,0:0:0:0:
233,339,181625,2,0,P|163:338|97:340,1,120,8|4,0:0|2:0,0:0:0:0:
83,183,182126,6,0,L|151:183,1,68.0000012969971,6|0,0:0|2:0,0:0:0:0:
74,221,182376,2,0,L|-25:221,1,68.0000012969971,2|0,0:0|2:0,0:0:0:0:
91,147,182626,2,0,L|177:147,1,68.0000012969971,2|0,0:0|2:0,0:0:0:0:
66,256,182876,2,0,L|-14:256,1,68.0000012969971,10|0,0:0|2:0,0:0:0:0:
110,47,183126,1,4,0:2:0:0:
159,147,183376,1,2,0:0:0:0:
288,193,183627,2,0,P|344:148|407:124,1,136.000002593994,10|4,0:0|0:2,0:0:0:0:
403,124,184002,1,4,0:2:0:0:
403,124,184127,1,4,0:0:0:0:
290,298,184377,6,0,L|208:298,1,68.0000012969971,2|0,0:0|2:0,0:0:0:0:
261,330,184627,2,0,L|179:329,1,68.0000012969971,2|0,0:0|2:0,0:0:0:0:
392,328,184877,6,0,L|474:328,1,68.0000012969971,10|0,0:0|2:0,0:0:0:0:
421,360,185127,2,0,L|503:359,1,68.0000012969971,4|0,0:2|2:0,0:0:0:0:
301,163,185377,6,0,L|219:163,1,68.0000012969971,2|0,0:0|2:0,0:0:0:0:
272,195,185628,2,0,L|190:194,1,68.0000012969971,10|0,0:0|2:0,0:0:0:0:
406,89,185878,5,4,0:2:0:0:
406,89,186003,1,4,0:2:0:0:
406,89,186128,2,0,P|401:160|405:238,1,136.000002593994,6|2,0:0|0:0,0:0:0:0:
283,363,186629,2,0,L|283:277,1,68.0000012969971,2|0,0:0|2:0,0:0:0:0:
163,216,186879,2,0,L|161:317,1,68.0000012969971,10|0,0:0|2:0,0:0:0:0:
39,360,187129,1,4,0:2:0:0:
25,138,187379,2,0,P|65:137|115:137,1,68.0000012969971,2|0,0:0|2:0,0:0:0:0:
195,59,187629,2,0,P|252:70|355:57,1,136.000002593994,10|2,0:0|0:0,0:0:0:0:
473,38,188130,5,4,0:0:0:0:
480,287,188380,1,2,0:0:0:0:
395,192,188630,1,2,0:0:0:0:
387,353,188880,1,10,0:0:0:0:
395,192,189130,1,4,0:2:0:0:
290,308,189380,1,2,0:0:0:0:
395,192,189631,1,10,0:0:0:0:
237,197,189881,1,4,0:2:0:0:
395,192,190131,6,0,L|480:191,1,68.0000012969971,6|0,0:0|2:0,0:0:0:0:
366,157,190381,2,0,L|442:156,1,68.0000012969971,2|0,0:0|2:0,0:0:0:0:
271,88,190631,6,0,L|186:87,1,68.0000012969971,2|0,0:0|2:0,0:0:0:0:
300,53,190881,2,0,L|224:52,1,68.0000012969971,10|0,0:0|2:0,0:0:0:0:
50,93,191132,5,4,0:2:0:0:
5,213,191381,1,2,0:0:0:0:
5,213,191506,1,0,0:0:0:0:
5,213,191632,2,0,P|5:302|9:352,1,136.000002593994,10|4,0:0|0:2,0:0:0:0:
170,362,192132,5,4,0:0:0:0:
206,267,192382,2,0,P|174:200|105:171,1,136.000002593994,2|2,0:0|0:0,0:0:0:0:
89,278,192883,1,10,0:0:0:0:
257,339,193133,2,0,P|323:337|404:343,1,136.000002593994,4|2,0:2|0:0,0:0:0:0:
488,205,193633,2,0,P|422:207|341:201,1,136.000002593994,10|4,0:0|0:2,0:0:0:0:
314,216,194008,1,4,0:2:0:0:
277,235,194134,6,0,P|229:185|142:135,1,136.000002593994,6|2,0:0|0:0,0:0:0:0:
54,170,194634,1,2,0:0:0:0:
58,331,194884,1,10,0:0:0:0:
172,356,195134,1,4,0:2:0:0:
173,148,195384,6,0,L|173:61,1,68.0000012969971,2|0,0:0|2:0,0:0:0:0:
208,104,195635,2,0,L|206:18,1,68.0000012969971,10|0,0:0|2:0,0:0:0:0:
370,95,195885,6,0,L|370:182,1,68.0000012969971,2|0,0:0|2:0,0:0:0:0:
335,139,196135,2,0,L|337:225,1,68.0000012969971,6|0,0:0|2:0,0:0:0:0:
114,344,196385,6,0,L|114:257,1,68.0000012969971,2|0,0:0|2:0,0:0:0:0:
149,300,196635,2,0,L|147:214,1,68.0000012969971,2|0,0:0|2:0,0:0:0:0:
431,214,196885,6,0,P|430:288|430:366,1,136.000002593994,10|4,0:0|2:0,0:0:0:0:
430,349,197246,1,6,0:0:0:0:
256,192,197371,12,0,212005,0:0:0:0:
