osu file format v14

[General]
AudioFilename: DANCE TILL YOU'RE DEAD.mp3
AudioLeadIn: 0
PreviewTime: -1
Countdown: 0
SampleSet: Normal
StackLeniency: 0.7
Mode: 3
LetterboxInBreaks: 0
SpecialStyle: 0
WidescreenStoryboard: 1

[Editor]
DistanceSpacing: 1.2
BeatDivisor: 4
GridSize: 8
TimelineZoom: 1.6

[Metadata]
Title:Heads Will Roll (JVH-C Remix)
TitleUnicode:Heads Will Roll (JVH-C Remix)
Artist:Yeah Yeah Yeahs
ArtistUnicode:Yeah Yeah Yeahs
Creator:Lusty Platypus
Version:ON THA FLOOR
Source:
Tags:
BeatmapID:1644020
BeatmapSetID:677142

[Difficulty]
HPDrainRate:8
CircleSize:7
OverallDifficulty:7
ApproachRate:5
SliderMultiplier:1.4
SliderTickRate:1

[Events]
//Background and Video events
Video,-1,"DANCE TILL YOURE DEAD.avi"
0,0,"bg.png",0,0
//Break Periods
//Storyboard Layer 0 (Background)
//Storyboard Layer 1 (Fail)
//Storyboard Layer 2 (Pass)
//Storyboard Layer 3 (Foreground)
//Storyboard Sound Samples

[TimingPoints]
198,387.096774193548,4,1,0,0,1,0
8327,-50,4,1,0,0,0,0
8423,-100,4,1,0,0,0,0
9004,-50,4,1,0,0,0,0
9101,-100,4,1,0,0,0,0
10552,-50,4,1,0,0,0,0
10649,-100,4,1,0,0,0,0
11022,-10000,4,1,0,0,0,0
11409,-10,4,1,0,0,0,0
11419,-10000,4,1,0,0,0,0
11796,-10,4,1,0,0,0,0
11806,-10000,4,1,0,0,0,0
12183,-20,4,1,0,0,0,0
12193,-10000,4,1,0,0,0,0
12377,-20,4,1,0,0,0,0
12387,-10000,4,1,0,0,0,0
12568,-10,4,1,0,0,0,0
12571,387.096774193548,4,1,0,0,1,0
12571,-10000,4,1,0,0,0,0
12948,-10,4,1,0,0,0,0
12968,-10000,4,1,0,0,0,0
13334,-10.4166666666667,4,1,0,0,0,0
13355,-100,4,1,0,0,0,0
13625,-10,4,1,0,0,0,0
13645,-5000,4,1,0,0,0,0
13915,-10,4,1,0,0,0,0
13945,-10000,4,1,0,0,0,0
14099,-10,4,1,0,0,0,0
14129,-10000,4,1,0,0,0,0
14496,-10,4,1,0,0,0,0
14516,-10000,4,1,0,0,0,0
14883,-10,4,1,0,0,0,0
14914,-10000,4,1,0,0,0,0
15270,-10,4,1,0,0,0,0
15290,-10000,4,1,0,0,0,0
15459,-12.5,4,1,0,0,0,0
15484,-10000,4,1,0,0,0,0
15567,-10,4,1,0,0,0,0
15581,-10000,4,1,0,0,0,0
15662,-10,4,1,0,0,0,0
15677,-10000,4,1,0,0,0,0
16044,-10,4,1,0,0,0,0
16064,-10000,4,1,0,0,0,0
16432,-10,4,1,0,0,0,0
16452,-10000,4,1,0,0,0,0
16722,-10,4,1,0,0,0,0
16742,-10000,4,1,0,0,0,0
17012,-10,4,1,0,0,0,0
17032,-10000,4,1,0,0,0,0
17201,-10,4,1,0,0,0,0
17226,-10000,4,1,0,0,0,0
17595,-10,4,1,0,0,0,0
17613,-10000,4,1,0,0,0,0
17982,-10,4,1,0,0,0,0
18000,-10000,4,1,0,0,0,0
18268,-10,4,1,0,0,0,0
18290,-10000,4,1,0,0,0,0
18463,-10,4,1,0,0,0,0
18484,-10000,4,1,0,0,0,0
18565,-10,4,1,0,0,0,0
18581,-10000,4,1,0,0,0,0
18757,-10,4,1,0,0,0,0
18774,-10000,4,1,0,0,0,0
19141,-10,4,1,0,0,0,0
19161,-10000,4,1,0,0,0,0
19527,-10,4,1,0,0,0,0
19548,-10000,4,1,0,0,0,0
19820,-10,4,1,0,0,0,0
19839,-10000,4,1,0,0,0,0
20109,-10,4,1,0,0,0,0
20129,-10000,4,1,0,0,0,0
20301,-10,4,1,0,0,0,0
20323,-10000,4,1,0,0,0,0
20690,-10,4,1,0,0,0,0
20710,-10000,4,1,0,0,0,0
21077,-10,4,1,0,0,0,0
21097,-10000,4,1,0,0,0,0
21367,-10,4,1,0,0,0,0
21387,-10000,4,1,0,0,0,0
21657,-10,4,1,0,0,0,0
21677,-10000,4,1,0,0,0,0
21850,-10,4,1,0,0,0,0
21871,-10000,4,1,0,0,0,0
22238,-10,4,1,0,0,0,0
22258,-10000,4,1,0,0,0,0
22625,-10,4,1,0,0,0,0
22645,-10000,4,1,0,0,0,0
22917,-10,4,1,0,0,0,0
22935,-10000,4,1,0,0,0,0
23205,-10,4,1,0,0,0,0
23216,-100,4,1,0,0,0,0
24183,-90.9090909090909,4,1,0,0,0,0
24232,-111.111111111111,4,1,0,0,0,0
24280,-83.3333333333333,4,1,0,0,0,0
24329,-125,4,1,0,0,0,0
24377,-76.9230769230769,4,1,0,0,0,0
24425,-142.857142857143,4,1,0,0,0,0
24474,-71.4285714285714,4,1,0,0,0,0
24522,-166.666666666667,4,1,0,0,0,0
24571,-66.6666666666667,4,1,0,0,0,0
24619,-200,4,1,0,0,0,0
24667,-62.5,4,1,0,0,0,0
24716,-250,4,1,0,0,0,0
24764,-58.8235294117647,4,1,0,0,0,0
24813,-333.333333333333,4,1,0,0,0,0
24861,-55.5555555555556,4,1,0,0,0,0
24909,-500,4,1,0,0,0,0
24958,-1000,4,1,0,0,0,0
25248,-66.6666666666667,4,1,0,0,0,0
25345,-100,4,1,0,0,0,0
25538,-66.6666666666667,4,1,0,0,0,0
25603,-100,4,1,0,0,0,0
25683,-66.6666666666667,4,1,0,0,0,0
25732,-100,4,1,0,0,0,0
26313,-66.6666666666667,4,1,0,0,0,0
26377,-200,4,1,0,0,0,0
26506,-100,4,1,0,0,0,0
27087,-66.6666666666667,4,1,0,0,0,0
27151,-150.0000015,4,1,0,0,0,0
27280,-100,4,1,0,0,0,0
27861,-66.6666666666667,4,1,0,0,0,0
27925,-100,4,1,0,0,0,0
28248,-10000,4,1,0,0,0,0
28442,-100,4,1,0,0,0,0
28635,-66.6666666666667,4,1,0,0,0,0
28700,-200,4,1,0,0,0,0
28829,-66.6666666666667,4,1,0,0,0,0
29022,-500,4,1,0,0,0,0
29119,-66.6666666666667,4,1,0,0,0,0
29313,-100,4,1,0,0,0,0
29409,-66.6666666666667,4,1,0,0,0,0
29474,-75.187969924812,4,1,0,0,0,0
29603,-500,4,1,0,0,0,0
30119,-66.6666666666667,4,1,0,0,0,0
30183,-66.6666666666667,4,1,0,0,0,0
30248,-100,4,1,0,0,0,0
30377,-500,4,1,0,0,0,0
30756,-10,4,1,0,0,0,0
30764,-200,4,1,0,0,0,0
30958,-100,4,1,0,0,0,0
31022,-200,4,1,0,0,0,0
31151,-100,4,1,0,0,0,0
31474,-66.6666666666667,4,1,0,0,0,0
31538,-100,4,1,0,0,0,0
31732,-66.6666666666667,4,1,0,0,0,0
31796,-66.6666666666667,4,1,0,0,0,0
31925,-133.333333333333,4,1,0,0,0,0
32216,-100,4,1,0,0,0,0
32506,-66.6666666666667,4,1,0,0,0,0
32700,-100,4,1,0,0,0,0
33087,-200,4,1,0,0,0,0
33280,-66.6666666666667,4,1,0,0,0,0
33345,-200,4,1,0,0,0,0
33474,-300.3003003003,4,1,0,0,0,0
33764,-100,4,1,0,0,0,0
34054,-66.6666666666667,4,1,0,0,0,0
34103,-200,4,1,0,0,0,0
34151,-66.6666666666667,4,1,0,0,0,0
34200,-200,4,1,0,0,0,0
34248,-100,4,1,0,0,0,0
34442,-200,4,1,0,0,0,0
34538,-66.6666666666667,4,1,0,0,0,0
34635,-200,4,1,0,0,0,0
34893,-66.6666666666667,4,1,0,0,0,0
35022,-100,4,1,0,0,0,0
35313,-303.030303030303,4,1,0,0,0,0
35603,-66.6666666666667,4,1,0,0,0,0
35796,-100,4,1,0,0,0,0
36183,-200,4,1,0,0,0,0
36377,-66.6666666666667,4,1,0,0,0,0
36442,-100,4,1,0,0,0,0
37151,-25,4,1,0,0,0,0
37175,-100,4,1,0,0,0,0
37346,-100,4,1,0,0,0,0
37442,-105.263157894737,4,1,0,0,0,0
37538,-111.111111111111,4,1,0,0,0,0
37635,-117.647058823529,4,1,0,0,0,0
37732,-125,4,1,0,0,0,0
42377,-125,4,1,0,0,0,0
42474,-117.647058823529,4,1,0,0,0,0
42571,-111.111111111111,4,1,0,0,0,0
42667,-105.263157894737,4,1,0,0,0,0
42764,-100,4,1,0,0,0,0
43538,-62.5,4,1,0,0,0,0
43635,-250,4,1,0,0,0,0
43732,-62.5,4,1,0,0,0,0
43829,-250,4,1,0,0,0,0
43925,-62.5,4,1,0,0,0,0
44022,-250,4,1,0,0,0,0
44119,-62.5,4,1,0,0,0,0
44216,-250,4,1,0,0,0,0
44313,-62.5,4,1,0,0,0,0
44409,-250,4,1,0,0,0,0
44506,-62.5,4,1,0,0,0,0
44603,-250,4,1,0,0,0,0
44700,-62.5,4,1,0,0,0,0
44796,-250,4,1,0,0,0,0
44893,-62.5,4,1,0,0,0,0
44990,-250,4,1,0,0,0,0
45087,-62.5,4,1,0,0,0,0
45183,-250,4,1,0,0,0,0
45280,-62.5,4,1,0,0,0,0
45377,-250,4,1,0,0,0,0
45474,-62.5,4,1,0,0,0,0
45571,-250,4,1,0,0,0,0
45667,-62.5,4,1,0,0,0,0
45764,-250,4,1,0,0,0,0
45861,-62.5,4,1,0,0,0,0
45958,-250,4,1,0,0,0,0
46054,-62.5,4,1,0,0,0,0
46151,-250,4,1,0,0,0,0
46248,-62.5,4,1,0,0,0,0
46345,-250,4,1,0,0,0,0
46442,-62.5,4,1,0,0,0,0
46538,-250,4,1,0,0,0,0
46635,-62.5,4,1,0,0,0,0
46732,-250,4,1,0,0,0,0
46829,-62.5,4,1,0,0,0,0
46925,-250,4,1,0,0,0,0
47022,-62.5,4,1,0,0,0,0
47119,-250,4,1,0,0,0,0
47216,-62.5,4,1,0,0,0,0
47313,-250,4,1,0,0,0,0
47409,-62.5,4,1,0,0,0,0
47506,-250,4,1,0,0,0,0
47603,-62.5,4,1,0,0,0,0
47700,-250,4,1,0,0,0,0
47796,-62.5,4,1,0,0,0,0
47893,-250,4,1,0,0,0,0
47990,-62.5,4,1,0,0,0,0
48087,-250,4,1,0,0,0,0
48183,-62.5,4,1,0,0,0,0
48280,-250,4,1,0,0,0,0
48377,-62.5,4,1,0,0,0,0
48474,-250,4,1,0,0,0,0
48571,-62.5,4,1,0,0,0,0
48667,-250,4,1,0,0,0,0
48764,-62.5,4,1,0,0,0,0
48861,-250,4,1,0,0,0,0
48958,-62.5,4,1,0,0,0,0
49054,-250,4,1,0,0,0,0
49151,-62.5,4,1,0,0,0,0
49248,-250,4,1,0,0,0,0
49345,-62.5,4,1,0,0,0,0
49442,-250,4,1,0,0,0,0
49538,-62.5,4,1,0,0,0,0
49635,-250,4,1,0,0,0,0
49732,-62.5,4,1,0,0,0,0
49829,-250,4,1,0,0,0,0
49925,-62.5,4,1,0,0,0,0
50022,-250,4,1,0,0,0,0
50119,-62.5,4,1,0,0,0,0
50216,-250,4,1,0,0,0,0
50313,-62.5,4,1,0,0,0,0
50409,-250,4,1,0,0,0,0
50506,-62.5,4,1,0,0,0,0
50603,-250,4,1,0,0,0,0
50700,-62.5,4,1,0,0,0,0
50796,-250,4,1,0,0,0,0
50893,-62.5,4,1,0,0,0,0
50990,-250,4,1,0,0,0,0
51087,-62.5,4,1,0,0,0,0
51183,-250,4,1,0,0,0,0
51280,-62.5,4,1,0,0,0,0
51377,-250,4,1,0,0,0,0
51474,-62.5,4,1,0,0,0,0
51571,-250,4,1,0,0,0,0
51667,-62.5,4,1,0,0,0,0
51764,-250,4,1,0,0,0,0
51861,-62.5,4,1,0,0,0,0
51958,-250,4,1,0,0,0,0
52054,-62.5,4,1,0,0,0,0
52151,-250,4,1,0,0,0,0
52248,-62.5,4,1,0,0,0,0
52345,-250,4,1,0,0,0,0
52442,-62.5,4,1,0,0,0,0
52538,-250,4,1,0,0,0,0
52635,-62.5,4,1,0,0,0,0
52732,-250,4,1,0,0,0,0
52829,-62.5,4,1,0,0,0,0
52925,-250,4,1,0,0,0,0
53022,-62.5,4,1,0,0,0,0
53119,-250,4,1,0,0,0,0
53216,-62.5,4,1,0,0,0,0
53313,-250,4,1,0,0,0,0
53409,-62.5,4,1,0,0,0,0
53506,-250,4,1,0,0,0,0
53603,-62.5,4,1,0,0,0,0
53700,-250,4,1,0,0,0,0
53796,-62.5,4,1,0,0,0,0
53893,-250,4,1,0,0,0,0
53990,-62.5,4,1,0,0,0,0
54087,-250,4,1,0,0,0,0
54183,-62.5,4,1,0,0,0,0
54280,-250,4,1,0,0,0,0
54377,-200,4,1,0,0,0,0
54401,-166.666666666667,4,1,0,0,0,0
54425,-142.857142857143,4,1,0,0,0,0
54450,-125,4,1,0,0,0,0
54474,-111.111111111111,4,1,0,0,0,0
54498,-100,4,1,0,0,0,0
54522,-90.9090909090909,4,1,0,0,0,0
54546,-83.3333333333333,4,1,0,0,0,0
54571,-76.9230769230769,4,1,0,0,0,0
54595,-71.4285714285714,4,1,0,0,0,0
54619,-66.6666666666667,4,1,0,0,0,0
54643,-62.5,4,1,0,0,0,0
54667,-58.8235294117647,4,1,0,0,0,0
54692,-55.5555555555556,4,1,0,0,0,0
54716,-52.6315789473684,4,1,0,0,0,0
54740,-50,4,1,0,0,0,0
54764,-200,4,1,0,0,0,0
54788,-166.666666666667,4,1,0,0,0,0
54813,-142.857142857143,4,1,0,0,0,0
54837,-125,4,1,0,0,0,0
54861,-111.111111111111,4,1,0,0,0,0
54885,-100,4,1,0,0,0,0
54909,-90.9090909090909,4,1,0,0,0,0
54933,-83.3333333333333,4,1,0,0,0,0
54958,-76.9230769230769,4,1,0,0,0,0
54982,-71.4285714285714,4,1,0,0,0,0
55006,-66.6666666666667,4,1,0,0,0,0
55030,-62.5,4,1,0,0,0,0
55054,-58.8235294117647,4,1,0,0,0,0
55079,-55.5555555555556,4,1,0,0,0,0
55103,-52.6315789473684,4,1,0,0,0,0
55127,-50,4,1,0,0,0,0
55151,-200,4,1,0,0,0,0
55175,-166.666666666667,4,1,0,0,0,0
55200,-142.857142857143,4,1,0,0,0,0
55224,-125,4,1,0,0,0,0
55248,-111.111111111111,4,1,0,0,0,0
55272,-100,4,1,0,0,0,0
55296,-90.9090909090909,4,1,0,0,0,0
55321,-83.3333333333333,4,1,0,0,0,0
55345,-76.9230769230769,4,1,0,0,0,0
55369,-71.4285714285714,4,1,0,0,0,0
55393,-66.6666666666667,4,1,0,0,0,0
55417,-62.5,4,1,0,0,0,0
55442,-58.8235294117647,4,1,0,0,0,0
55466,-55.5555555555556,4,1,0,0,0,0
55490,-52.6315789473684,4,1,0,0,0,0
55514,-50,4,1,0,0,0,0
55538,-200,4,1,0,0,0,0
55563,-166.666666666667,4,1,0,0,0,0
55587,-142.857142857143,4,1,0,0,0,0
55611,-125,4,1,0,0,0,0
55635,-111.111111111111,4,1,0,0,0,0
55659,-100,4,1,0,0,0,0
55683,-90.9090909090909,4,1,0,0,0,0
55708,-83.3333333333333,4,1,0,0,0,0
55732,-76.9230769230769,4,1,0,0,0,0
55756,-71.4285714285714,4,1,0,0,0,0
55780,-66.6666666666667,4,1,0,0,0,0
55804,-62.5,4,1,0,0,0,0
55829,-58.8235294117647,4,1,0,0,0,0
55853,-55.5555555555556,4,1,0,0,0,0
55877,-52.6315789473684,4,1,0,0,0,0
55901,-50,4,1,0,0,0,0
55925,-10000,4,1,0,0,0,0
56303,-10,4,1,0,0,0,0
56313,-10000,4,1,0,0,0,0
56399,-10,4,1,0,0,0,0
56409,-10000,4,1,0,0,0,0
56496,-10,4,1,0,0,0,0
56506,-10000,4,1,0,0,0,0
56593,-10,4,1,0,0,0,0
56603,-10000,4,1,0,0,0,0
56690,-10,4,1,0,0,0,0
56700,-10000,4,1,0,0,0,0
56845,-50,4,1,0,0,0,0
56990,-10000,4,1,0,0,0,0
57135,-50,4,1,0,0,0,0
57280,-10000,4,1,0,0,0,0
57667,-25,4,1,0,0,0,0
57677,-10000,4,1,0,0,0,0
57861,-25,4,1,0,0,0,0
57871,-10000,4,1,0,0,0,0
58200,-25,4,1,0,0,0,0
58248,-10000,4,1,0,0,0,0
58296,-200,4,1,0,0,0,0
58345,-100,4,1,0,0,0,0
58393,-20,4,1,0,0,0,0
58403,-10000,4,1,0,0,0,0
58533,-10,4,1,0,0,0,0
58538,-10000,4,1,0,0,0,0
58683,-40,4,1,0,0,0,0
58780,-200,4,1,0,0,0,0
58829,-10,4,1,0,0,0,0
58839,-10000,4,1,0,0,0,0
59022,-10000,4,1,0,0,0,0
59216,-25,4,1,0,0,0,0
59226,-10000,4,1,0,0,0,0
59313,-20,4,1,0,0,0,0
59323,-10000,4,1,0,0,0,0
59409,-16.6666666666667,4,1,0,0,0,0
59419,-10000,4,1,0,0,0,0
59598,-12.5,4,1,0,0,0,0
59603,-100,4,1,0,0,0,0
59796,-66.6666666666667,4,1,0,0,0,0
60183,-10000,4,1,0,0,0,0
60377,-10,4,1,0,0,0,0
60379,-10000,4,1,0,0,0,0
60522,-10,4,1,0,0,0,0
60526,-10000,4,1,0,0,0,0
60571,-10000,4,1,0,0,0,0
60958,-25,4,1,0,0,0,0
60968,-10000,4,1,0,0,0,0
61140,-14.2857142857143,4,1,0,0,0,0
61151,-100,4,1,0,0,0,0
61345,-10000,4,1,0,0,0,0
61915,-14.2857142857143,4,1,0,0,0,0
61925,-100,4,1,0,0,0,0
62119,-10000,4,1,0,0,0,0
62313,-25,4,1,0,0,0,0
62323,-10000,4,1,0,0,0,0
62506,-25,4,1,0,0,0,0
62516,-10000,4,1,0,0,0,0
62700,-100,4,1,0,0,0,0
62796,-10000,4,1,0,0,0,0
62845,-33.3333333333333,4,1,0,0,0,0
62893,-10,4,1,0,0,0,0
62903,-10000,4,1,0,0,0,0
63425,-100,4,1,0,0,0,0
63667,-10000,4,1,0,0,0,0
64006,-20,4,1,0,0,0,0
64026,-10000,4,1,0,0,0,0
64054,-10,4,1,0,0,0,0
64103,-10000,4,1,0,0,0,0
64393,-100,4,1,0,0,0,0
64442,-20,4,1,0,0,0,0
64490,-10000,4,1,0,0,0,0
64587,-100,4,1,0,0,0,0
64635,-20,4,1,0,0,0,0
64683,-10000,4,1,0,0,0,0
64780,-100,4,1,0,0,0,0
64829,-20,4,1,0,0,0,0
64877,-10000,4,1,0,0,0,0
64974,-100,4,1,0,0,0,0
65216,-66.6666666666667,4,1,0,0,0,0
65361,-400,4,1,0,0,0,0
65409,-66.6666666666667,4,1,0,0,0,0
65554,-400,4,1,0,0,0,0
65603,-66.6666666666667,4,1,0,0,0,0
65748,-400,4,1,0,0,0,0
65796,-66.6666666666667,4,1,0,0,0,0
65942,-400,4,1,0,0,0,0
65990,-66.6666666666667,4,1,0,0,0,0
66135,-400,4,1,0,0,0,0
66183,-66.6666666666667,4,1,0,0,0,0
66329,-200,4,1,0,0,0,0
66377,-66.6666666666667,4,1,0,0,0,0
66522,-400,4,1,0,0,0,0
66571,-10000,4,1,0,0,0,0
67538,-1000,4,1,0,0,0,0
67611,-100,4,1,0,0,0,0
67635,-500,4,1,0,0,0,0
67708,-100,4,1,0,0,0,0
67732,-333.333333333333,4,1,0,0,0,0
67804,-100,4,1,0,0,0,0
67829,-200,4,1,0,0,0,0
67901,-100,4,1,0,0,0,0
67925,-142.857142857143,4,1,0,0,0,0
68022,-111.111111111111,4,1,0,0,0,0
68119,-90.9090909090909,4,1,0,0,0,0
68216,-76.9230769230769,4,1,0,0,0,0
68313,-100,4,1,0,0,0,0
69377,-50,4,1,0,0,0,0
69474,-100,4,1,0,0,0,0
70925,-100,4,1,0,0,0,0
71022,-90.9090909090909,4,1,0,0,0,0
71119,-83.3333333333333,4,1,0,0,0,0
71216,-66.6666666666667,4,1,0,0,0,0
71313,-55.5555555555556,4,1,0,0,0,0
71409,-100,4,1,0,0,0,0
74216,-50,4,1,0,0,0,0
74313,-100,4,1,0,0,0,0
77119,-90.9090909090909,4,1,0,0,0,0
77167,-111.111111111111,4,1,0,0,0,0
77216,-83.3333333333333,4,1,0,0,0,0
77264,-125,4,1,0,0,0,0
77313,-76.9230769230769,4,1,0,0,0,0
77361,-142.857142857143,4,1,0,0,0,0
77409,-71.4285714285714,4,1,0,0,0,0
77458,-166.666666666667,4,1,0,0,0,0
77506,-66.6666666666667,4,1,0,0,0,0
77554,-200,4,1,0,0,0,0
77603,-62.5,4,1,0,0,0,0
77651,-166.666666666667,4,1,0,0,0,0
77700,-62.5,4,1,0,0,0,0
77748,-166.666666666667,4,1,0,0,0,0
77796,-62.5,4,1,0,0,0,0
77845,-166.666666666667,4,1,0,0,0,0
77893,-62.5,4,1,0,0,0,0
77942,-166.666666666667,4,1,0,0,0,0
77990,-62.5,4,1,0,0,0,0
78038,-166.666666666667,4,1,0,0,0,0
78087,-62.5,4,1,0,0,0,0
78135,-166.666666666667,4,1,0,0,0,0
78183,-62.5,4,1,0,0,0,0
78232,-166.666666666667,4,1,0,0,0,0
78280,-62.5,4,1,0,0,0,0
78329,-166.666666666667,4,1,0,0,0,0
78377,-62.5,4,1,0,0,0,0
78425,-166.666666666667,4,1,0,0,0,0
78474,-62.5,4,1,0,0,0,0
78522,-166.666666666667,4,1,0,0,0,0
78571,-62.5,4,1,0,0,0,0
78619,-166.666666666667,4,1,0,0,0,0
78667,-62.5,4,1,0,0,0,0
78716,-166.666666666667,4,1,0,0,0,0
78764,-62.5,4,1,0,0,0,0
78813,-166.666666666667,4,1,0,0,0,0
78861,-62.5,4,1,0,0,0,0
78909,-166.666666666667,4,1,0,0,0,0
78958,-62.5,4,1,0,0,0,0
79006,-166.666666666667,4,1,0,0,0,0
79054,-62.5,4,1,0,0,0,0
79103,-166.666666666667,4,1,0,0,0,0
79151,-62.5,4,1,0,0,0,0
79200,-166.666666666667,4,1,0,0,0,0
79248,-62.5,4,1,0,0,0,0
79296,-166.666666666667,4,1,0,0,0,0
79345,-62.5,4,1,0,0,0,0
79393,-166.666666666667,4,1,0,0,0,0
79442,-62.5,4,1,0,0,0,0
79490,-166.666666666667,4,1,0,0,0,0
79538,-62.5,4,1,0,0,0,0
79587,-166.666666666667,4,1,0,0,0,0
79635,-62.5,4,1,0,0,0,0
79683,-166.666666666667,4,1,0,0,0,0
79732,-62.5,4,1,0,0,0,0
79780,-166.666666666667,4,1,0,0,0,0
79829,-62.5,4,1,0,0,0,0
79877,-166.666666666667,4,1,0,0,0,0
79925,-62.5,4,1,0,0,0,0
79974,-166.666666666667,4,1,0,0,0,0
80022,-62.5,4,1,0,0,0,0
80071,-166.666666666667,4,1,0,0,0,0
80119,-62.5,4,1,0,0,0,0
80167,-166.666666666667,4,1,0,0,0,0
80216,-62.5,4,1,0,0,0,0
80264,-166.666666666667,4,1,0,0,0,0
80313,-52.6315789473684,4,1,0,0,0,0
80361,-250.000000000001,4,1,0,0,0,0
80409,-52.6315789473684,4,1,0,0,0,0
80458,-250.000000000001,4,1,0,0,0,0
80506,-52.6315789473684,4,1,0,0,0,0
80554,-250.000000000001,4,1,0,0,0,0
80603,-52.6315789473684,4,1,0,0,0,0
80651,-250,4,1,0,0,0,0
80700,-62.5,4,1,0,0,0,0
80748,-166.666666666667,4,1,0,0,0,0
80796,-62.5,4,1,0,0,0,0
80845,-166.666666666667,4,1,0,0,0,0
80893,-62.5,4,1,0,0,0,0
80942,-166.666666666667,4,1,0,0,0,0
80990,-62.5,4,1,0,0,0,0
81038,-166.666666666667,4,1,0,0,0,0
81087,-62.5,4,1,0,0,0,0
81135,-166.666666666667,4,1,0,0,0,0
81183,-62.5,4,1,0,0,0,0
81232,-166.666666666667,4,1,0,0,0,0
81280,-62.5,4,1,0,0,0,0
81329,-166.666666666667,4,1,0,0,0,0
81377,-62.5,4,1,0,0,0,0
81425,-166.666666666667,4,1,0,0,0,0
81474,-62.5,4,1,0,0,0,0
81522,-166.666666666667,4,1,0,0,0,0
81571,-62.5,4,1,0,0,0,0
81619,-166.666666666667,4,1,0,0,0,0
81667,-62.5,4,1,0,0,0,0
81716,-166.666666666667,4,1,0,0,0,0
81764,-62.5,4,1,0,0,0,0
81813,-166.666666666667,4,1,0,0,0,0
81861,-62.5,4,1,0,0,0,0
81909,-166.666666666667,4,1,0,0,0,0
81958,-62.5,4,1,0,0,0,0
82006,-166.666666666667,4,1,0,0,0,0
82054,-62.5,4,1,0,0,0,0
82103,-166.666666666667,4,1,0,0,0,0
82151,-62.5,4,1,0,0,0,0
82200,-166.666666666667,4,1,0,0,0,0
82248,-62.5,4,1,0,0,0,0
82296,-166.666666666667,4,1,0,0,0,0
82345,-62.5,4,1,0,0,0,0
82393,-166.666666666667,4,1,0,0,0,0
82442,-62.5,4,1,0,0,0,0
82490,-166.666666666667,4,1,0,0,0,0
82538,-62.5,4,1,0,0,0,0
82587,-166.666666666667,4,1,0,0,0,0
82635,-62.5,4,1,0,0,0,0
82683,-166.666666666667,4,1,0,0,0,0
82732,-62.5,4,1,0,0,0,0
82780,-166.666666666667,4,1,0,0,0,0
82829,-40,4,1,0,0,0,0
82853,-1000,4,1,0,0,0,0
82877,-40,4,1,0,0,0,0
82901,-1000,4,1,0,0,0,0
82925,-40,4,1,0,0,0,0
82950,-1000,4,1,0,0,0,0
82974,-40,4,1,0,0,0,0
82998,-1000,4,1,0,0,0,0
83022,-62.5,4,1,0,0,0,0
83071,-166.666666666667,4,1,0,0,0,0
83119,-62.5,4,1,0,0,0,0
83167,-166.666666666667,4,1,0,0,0,0
83216,-62.5,4,1,0,0,0,0
83264,-166.666666666667,4,1,0,0,0,0
83313,-62.5,4,1,0,0,0,0
83361,-166.666666666667,4,1,0,0,0,0
83409,-62.5,4,1,0,0,0,0
83458,-166.666666666667,4,1,0,0,0,0
83506,-62.5,4,1,0,0,0,0
83554,-166.666666666667,4,1,0,0,0,0
83603,-62.5,4,1,0,0,0,0
83651,-166.666666666667,4,1,0,0,0,0
83700,-62.5,4,1,0,0,0,0
83748,-166.666666666667,4,1,0,0,0,0
83796,-10000,4,1,0,0,0,0
84173,-10,4,1,0,0,0,0
84193,-10000,4,1,0,0,0,0
84560,-10,4,1,0,0,0,0
84581,-10000,4,1,0,0,0,0
84851,-10,4,1,0,0,0,0
84871,-10000,4,1,0,0,0,0
85141,-10,4,1,0,0,0,0
85161,-10000,4,1,0,0,0,0
85335,-10,4,1,0,0,0,0
85345,-20,4,1,0,0,0,0
85355,-100,4,1,0,0,0,0
85538,-20,4,1,0,0,0,0
85548,-100,4,1,0,0,0,0
85732,-20,4,1,0,0,0,0
85742,-100,4,1,0,0,0,0
85925,-20,4,1,0,0,0,0
85935,-100,4,1,0,0,0,0
86119,-20,4,1,0,0,0,0
86129,-100,4,1,0,0,0,0
86893,-10000,4,1,0,0,0,0
87270,-10,4,1,0,0,0,0
87290,-10000,4,1,0,0,0,0
87657,-10,4,1,0,0,0,0
87677,-10000,4,1,0,0,0,0
87948,-10,4,1,0,0,0,0
87968,-10000,4,1,0,0,0,0
88238,-10,4,1,0,0,0,0
88258,-10000,4,1,0,0,0,0
88432,-10,4,1,0,0,0,0
88442,-33.3333333333333,4,1,0,0,0,0
88464.625,-33.4636148547078,4,1,0,0,0,0
88487.25,-33.8606422940585,4,1,0,0,0,0
88509.875,-34.5437126394905,4,1,0,0,0,0
88532.5,-35.5476560764275,4,1,0,0,0,0
88555.125,-36.9275153263613,4,1,0,0,0,0
88577.75,-38.7667332969895,4,1,0,0,0,0
88600.375,-41.1913305121563,4,1,0,0,0,0
88623,-44.3951165371809,4,1,0,0,0,0
88645.625,-48.6867880032711,4,1,0,0,0,0
88668.25,-54.5842217484009,4,1,0,0,0,0
88690.875,-63.0215898180744,4,1,0,0,0,0
88713.5,-75.8653390232338,4,1,0,0,0,0
88736.125,-97.4532719174693,4,1,0,0,0,0
88758.75,-140.690261595955,4,1,0,0,0,0
88781.375,-268.766404199475,4,1,0,0,0,0
88804,-10000.0000000002,4,1,0,0,0,0
88829,-33.3333333333333,4,1,0,0,0,0
88851.625,-33.4636148547078,4,1,0,0,0,0
88874.25,-33.8606422940585,4,1,0,0,0,0
88896.875,-34.5437126394905,4,1,0,0,0,0
88919.5,-35.5476560764275,4,1,0,0,0,0
88942.125,-36.9275153263613,4,1,0,0,0,0
88964.75,-38.7667332969895,4,1,0,0,0,0
88987.375,-41.1913305121563,4,1,0,0,0,0
89010,-44.3951165371809,4,1,0,0,0,0
89032.625,-48.6867880032711,4,1,0,0,0,0
89055.25,-54.5842217484009,4,1,0,0,0,0
89077.875,-63.0215898180744,4,1,0,0,0,0
89100.5,-75.8653390232338,4,1,0,0,0,0
89123.125,-97.4532719174693,4,1,0,0,0,0
89145.75,-140.690261595955,4,1,0,0,0,0
89168.375,-268.766404199475,4,1,0,0,0,0
89191,-10000.0000000002,4,1,0,0,0,0
89216,-33.3333333333333,4,1,0,0,0,0
89238.625,-33.4636148547078,4,1,0,0,0,0
89261.25,-33.8606422940585,4,1,0,0,0,0
89283.875,-34.5437126394905,4,1,0,0,0,0
89306.5,-35.5476560764275,4,1,0,0,0,0
89329.125,-36.9275153263613,4,1,0,0,0,0
89351.75,-38.7667332969895,4,1,0,0,0,0
89374.375,-41.1913305121563,4,1,0,0,0,0
89397,-44.3951165371809,4,1,0,0,0,0
89419.625,-48.6867880032711,4,1,0,0,0,0
89442.25,-54.5842217484009,4,1,0,0,0,0
89464.875,-63.0215898180744,4,1,0,0,0,0
89487.5,-75.8653390232338,4,1,0,0,0,0
89510.125,-97.4532719174693,4,1,0,0,0,0
89532.75,-140.690261595955,4,1,0,0,0,0
89555.375,-268.766404199475,4,1,0,0,0,0
89578,-10000.0000000002,4,1,0,0,0,0
89603,-33.3333333333333,4,1,0,0,0,0
89625.625,-33.4636148547078,4,1,0,0,0,0
89648.25,-33.8606422940585,4,1,0,0,0,0
89670.875,-34.5437126394905,4,1,0,0,0,0
89693.5,-35.5476560764275,4,1,0,0,0,0
89716.125,-36.9275153263613,4,1,0,0,0,0
89738.75,-38.7667332969895,4,1,0,0,0,0
89761.375,-41.1913305121563,4,1,0,0,0,0
89784,-44.3951165371809,4,1,0,0,0,0
89806.625,-48.6867880032711,4,1,0,0,0,0
89829.25,-54.5842217484009,4,1,0,0,0,0
89851.875,-63.0215898180744,4,1,0,0,0,0
89874.5,-75.8653390232338,4,1,0,0,0,0
89897.125,-97.4532719174693,4,1,0,0,0,0
89919.75,-140.690261595955,4,1,0,0,0,0
89942.375,-268.766404199475,4,1,0,0,0,0
89965,-10000.0000000002,4,1,0,0,0,0
89990,-14.2857142857143,4,1,0,0,0,0
90000,-10000,4,1,0,0,0,0
90010,-100,4,1,0,0,0,0
90183,-14.2857142857143,4,1,0,0,0,0
90193,-10000,4,1,0,0,0,0
90203,-100,4,1,0,0,0,0
90377,-14.2857142857143,4,1,0,0,0,0
90387,-10000,4,1,0,0,0,0
90397,-100,4,1,0,0,0,0
90571,-14.2857142857143,4,1,0,0,0,0
90581,-10000,4,1,0,0,0,0
90591,-100,4,1,0,0,0,0
90764,-14.2857142857143,4,1,0,0,0,0
90774,-10000,4,1,0,0,0,0
90784,-100,4,1,0,0,0,0
90958,-14.2857142857143,4,1,0,0,0,0
90968,-10000,4,1,0,0,0,0
90978,-100,4,1,0,0,0,0
91151,-14.2857142857143,4,1,0,0,0,0
91161,-10000,4,1,0,0,0,0
91171,-100,4,1,0,0,0,0
91345,-14.2857142857143,4,1,0,0,0,0
91355,-10000,4,1,0,0,0,0
91365,-100,4,1,0,0,0,0
91538,-14.2857142857143,4,1,0,0,0,0
91548,-10000,4,1,0,0,0,0
91558,-100,4,1,0,0,0,0
91732,-14.2857142857143,4,1,0,0,0,0
91742,-10000,4,1,0,0,0,0
91752,-100,4,1,0,0,0,0
91925,-14.2857142857143,4,1,0,0,0,0
91935,-10000,4,1,0,0,0,0
91945,-100,4,1,0,0,0,0
92119,-14.2857142857143,4,1,0,0,0,0
92129,-10000,4,1,0,0,0,0
92139,-100,4,1,0,0,0,0
92313,-14.2857142857143,4,1,0,0,0,0
92323,-10000,4,1,0,0,0,0
92333,-100,4,1,0,0,0,0
92506,-14.2857142857143,4,1,0,0,0,0
92516,-10000,4,1,0,0,0,0
92526,-100,4,1,0,0,0,0
92700,-14.2857142857143,4,1,0,0,0,0
92710,-10000,4,1,0,0,0,0
92720,-100,4,1,0,0,0,0
92893,-14.2857142857143,4,1,0,0,0,0
92903,-10000,4,1,0,0,0,0
92913,-100,4,1,0,0,0,0
93087,-14.2857142857143,4,1,0,0,0,0
93097,-10000,4,1,0,0,0,0
93107,-100,4,1,0,0,0,0
93280,-14.2857142857143,4,1,0,0,0,0
93290,-10000,4,1,0,0,0,0
93300,-100,4,1,0,0,0,0
93474,-14.2857142857143,4,1,0,0,0,0
93484,-10000,4,1,0,0,0,0
93494,-100,4,1,0,0,0,0
93667,-14.2857142857143,4,1,0,0,0,0
93677,-10000,4,1,0,0,0,0
93687,-100,4,1,0,0,0,0
93861,-14.2857142857143,4,1,0,0,0,0
93871,-10000,4,1,0,0,0,0
93881,-100,4,1,0,0,0,0
94054,-14.2857142857143,4,1,0,0,0,0
94064,-10000,4,1,0,0,0,0
94074,-100,4,1,0,0,0,0
94248,-14.2857142857143,4,1,0,0,0,0
94258,-10000,4,1,0,0,0,0
94268,-100,4,1,0,0,0,0
94442,-14.2857142857143,4,1,0,0,0,0
94452,-10000,4,1,0,0,0,0
94462,-100,4,1,0,0,0,0
94635,-14.2857142857143,4,1,0,0,0,0
94645,-10000,4,1,0,0,0,0
94655,-100,4,1,0,0,0,0
94829,-14.2857142857143,4,1,0,0,0,0
94839,-10000,4,1,0,0,0,0
94849,-100,4,1,0,0,0,0
95022,-14.2857142857143,4,1,0,0,0,0
95032,-10000,4,1,0,0,0,0
95042,-100,4,1,0,0,0,0
95216,-14.2857142857143,4,1,0,0,0,0
95226,-10000,4,1,0,0,0,0
95236,-100,4,1,0,0,0,0
95409,-14.2857142857143,4,1,0,0,0,0
95419,-10000,4,1,0,0,0,0
95429,-100,4,1,0,0,0,0
95603,-14.2857142857143,4,1,0,0,0,0
95613,-10000,4,1,0,0,0,0
95623,-100,4,1,0,0,0,0
95796,-14.2857142857143,4,1,0,0,0,0
95806,-10000,4,1,0,0,0,0
95816,-100,4,1,0,0,0,0
95990,-14.2857142857143,4,1,0,0,0,0
96000,-10000,4,1,0,0,0,0
96010,-100,4,1,0,0,0,0
96183,-14.2857142857143,4,1,0,0,0,0
96193,-10000,4,1,0,0,0,0
96203,-100,4,1,0,0,0,0
96377,-14.2857142857143,4,1,0,0,0,0
96387,-10000,4,1,0,0,0,0
96397,-100,4,1,0,0,0,0
96571,-14.2857142857143,4,1,0,0,0,0
96581,-10000,4,1,0,0,0,0
96591,-100,4,1,0,0,0,0
96764,-14.2857142857143,4,1,0,0,0,0
96774,-10000,4,1,0,0,0,0
96784,-100,4,1,0,0,0,0
96958,-14.2857142857143,4,1,0,0,0,0
96968,-10000,4,1,0,0,0,0
96978,-100,4,1,0,0,0,0
97151,-14.2857142857143,4,1,0,0,0,0
97161,-10000,4,1,0,0,0,0
97171,-100,4,1,0,0,0,0
97345,-14.2857142857143,4,1,0,0,0,0
97355,-10000,4,1,0,0,0,0
97365,-100,4,1,0,0,0,0
97538,-14.2857142857143,4,1,0,0,0,0
97548,-10000,4,1,0,0,0,0
97558,-100,4,1,0,0,0,0
97732,-14.2857142857143,4,1,0,0,0,0
97742,-10000,4,1,0,0,0,0
97752,-100,4,1,0,0,0,0
97925,-14.2857142857143,4,1,0,0,0,0
97935,-10000,4,1,0,0,0,0
97945,-100,4,1,0,0,0,0
98119,-14.2857142857143,4,1,0,0,0,0
98129,-10000,4,1,0,0,0,0
98139,-100,4,1,0,0,0,0
98313,-14.2857142857143,4,1,0,0,0,0
98323,-10000,4,1,0,0,0,0
98333,-100,4,1,0,0,0,0
98506,-14.2857142857143,4,1,0,0,0,0
98516,-10000,4,1,0,0,0,0
98526,-100,4,1,0,0,0,0
98700,-14.2857142857143,4,1,0,0,0,0
98710,-10000,4,1,0,0,0,0
98720,-100,4,1,0,0,0,0
98893,-14.2857142857143,4,1,0,0,0,0
98903,-10000,4,1,0,0,0,0
98913,-100,4,1,0,0,0,0
99087,-14.2857142857143,4,1,0,0,0,0
99097,-10000,4,1,0,0,0,0
99107,-100,4,1,0,0,0,0
99280,-14.2857142857143,4,1,0,0,0,0
99290,-10000,4,1,0,0,0,0
99300,-100,4,1,0,0,0,0
100829,-10,4,1,0,0,0,0
100849,-10000,4,1,0,0,0,0
101192,-33.3333333333333,4,1,0,0,0,0
101216,-10,4,1,0,0,0,0
101236,-10000,4,1,0,0,0,0
101579,-33.3333333333333,4,1,0,0,0,0
101603,-10,4,1,0,0,0,0
101623,-10000,4,1,0,0,0,0
101772,-33.3333333333333,4,1,0,0,0,0
101796,-100,4,1,0,0,0,0
101893,-83.3333333333333,4,1,0,0,0,0
101990,-71.4285714285714,4,1,0,0,0,0
102087,-62.5,4,1,0,0,0,0
102183,-55.5555555555556,4,1,0,0,0,0
102280,-100,4,1,0,0,0,0

[HitObjects]
192,192,198,5,0,0:0:0:0:
192,192,585,1,0,0:0:0:0:
329,192,972,1,0,0:0:0:0:
329,192,1262,1,0,0:0:0:0:
402,192,1552,1,0,0:0:0:0:
64,192,1939,1,0,0:0:0:0:
64,192,2230,1,0,0:0:0:0:
64,192,2520,1,0,0:0:0:0:
329,192,2810,1,0,0:0:0:0:
256,192,3101,1,0,0:0:0:0:
182,192,3294,1,0,0:0:0:0:
182,192,3681,1,0,0:0:0:0:
329,192,4068,1,0,0:0:0:0:
329,192,4359,1,0,0:0:0:0:
475,192,4649,1,0,0:0:0:0:
64,192,5036,1,0,0:0:0:0:
64,192,5327,1,0,0:0:0:0:
64,192,5617,1,0,0:0:0:0:
192,192,5907,1,0,0:0:0:0:
320,192,6197,1,0,0:0:0:0:
192,192,6391,1,0,0:0:0:0:
109,192,6391,1,0,0:0:0:0:
402,192,6778,1,0,0:0:0:0:
320,192,6778,1,0,0:0:0:0:
109,192,7165,1,0,0:0:0:0:
256,192,7165,1,0,0:0:0:0:
256,192,7456,1,0,0:0:0:0:
256,192,7746,1,0,0:0:0:0:
109,192,7939,1,0,0:0:0:0:
329,192,8133,1,0,0:0:0:0:
182,192,8327,1,0,0:0:0:0:
320,192,8423,1,0,0:0:0:0:
109,192,8714,1,0,0:0:0:0:
256,192,8714,1,0,0:0:0:0:
402,192,9004,1,0,0:0:0:0:
182,192,9101,1,0,0:0:0:0:
109,192,9294,1,0,0:0:0:0:
320,192,9488,1,0,0:0:0:0:
448,192,9488,1,0,0:0:0:0:
64,192,9875,1,0,0:0:0:0:
182,192,9875,1,0,0:0:0:0:
256,192,10262,1,0,0:0:0:0:
320,192,10262,1,0,0:0:0:0:
402,192,10552,1,0,0:0:0:0:
182,192,10649,1,0,0:0:0:0:
320,192,10843,1,0,0:0:0:0:
256,192,11036,1,0,0:0:0:0:
109,192,11036,1,0,0:0:0:0:
192,192,11036,1,0,0:0:0:0:
402,192,11036,1,0,0:0:0:0:
256,192,12571,1,0,0:0:0:0:
320,192,12571,1,0,0:0:0:0:
402,192,12571,1,0,0:0:0:0:
192,192,12958,1,0,0:0:0:0:
64,192,12958,1,0,0:0:0:0:
109,192,12958,1,0,0:0:0:0:
402,192,13345,1,0,0:0:0:0:
448,192,13345,1,0,0:0:0:0:
256,192,13345,1,0,0:0:0:0:
182,192,13635,1,0,0:0:0:0:
109,192,13635,1,0,0:0:0:0:
329,192,13635,1,0,0:0:0:0:
402,192,13925,1,0,0:0:0:0:
475,192,13925,1,0,0:0:0:0:
256,192,13925,1,0,0:0:0:0:
182,192,14119,1,0,0:0:0:0:
109,192,14119,1,0,0:0:0:0:
64,192,14119,1,0,0:0:0:0:
329,192,14119,1,0,0:0:0:0:
256,192,14506,1,0,0:0:0:0:
109,192,14506,1,0,0:0:0:0:
182,192,14506,1,0,0:0:0:0:
402,192,14893,1,0,0:0:0:0:
320,192,14893,1,0,0:0:0:0:
475,192,14893,1,0,0:0:0:0:
256,192,15183,1,0,0:0:0:0:
329,192,15183,1,0,0:0:0:0:
109,192,15183,1,0,0:0:0:0:
182,192,15474,1,0,0:0:0:0:
109,192,15474,1,0,0:0:0:0:
320,192,15570,1,0,0:0:0:0:
402,192,15570,1,0,0:0:0:0:
192,192,15667,1,0,0:0:0:0:
109,192,15667,1,0,0:0:0:0:
182,192,16054,1,0,0:0:0:0:
329,192,16054,1,0,0:0:0:0:
256,192,16054,1,0,0:0:0:0:
329,192,16441,1,0,0:0:0:0:
109,192,16441,1,0,0:0:0:0:
182,192,16441,1,0,0:0:0:0:
402,192,16732,1,0,0:0:0:0:
329,192,16732,1,0,0:0:0:0:
182,192,16732,1,0,0:0:0:0:
256,192,17022,1,0,0:0:0:0:
109,192,17022,1,0,0:0:0:0:
64,192,17022,1,0,0:0:0:0:
329,192,17216,1,0,0:0:0:0:
192,192,17216,1,0,0:0:0:0:
402,192,17216,1,0,0:0:0:0:
475,192,17216,1,0,0:0:0:0:
109,192,17603,1,0,0:0:0:0:
256,192,17603,1,0,0:0:0:0:
182,192,17603,1,0,0:0:0:0:
448,192,17990,1,0,0:0:0:0:
329,192,17990,1,0,0:0:0:0:
256,192,17990,1,0,0:0:0:0:
109,192,18280,1,0,0:0:0:0:
329,192,18280,1,0,0:0:0:0:
182,192,18280,1,0,0:0:0:0:
475,192,18474,1,0,0:0:0:0:
402,192,18474,1,0,0:0:0:0:
182,192,18570,1,0,0:0:0:0:
109,192,18570,1,0,0:0:0:0:
475,192,18764,1,0,0:0:0:0:
256,192,18764,1,0,0:0:0:0:
402,192,18764,1,0,0:0:0:0:
182,192,19151,1,0,0:0:0:0:
64,192,19151,1,0,0:0:0:0:
256,192,19151,1,0,0:0:0:0:
182,192,19538,1,0,0:0:0:0:
402,192,19538,1,0,0:0:0:0:
320,192,19538,1,0,0:0:0:0:
36,192,19829,1,0,0:0:0:0:
109,192,19829,1,0,0:0:0:0:
182,192,19829,1,0,0:0:0:0:
448,192,20119,1,0,0:0:0:0:
192,192,20119,1,0,0:0:0:0:
402,192,20119,1,0,0:0:0:0:
64,192,20312,1,0,0:0:0:0:
109,192,20312,1,0,0:0:0:0:
329,192,20312,1,0,0:0:0:0:
256,192,20312,1,0,0:0:0:0:
256,192,20700,1,0,0:0:0:0:
192,192,20700,1,0,0:0:0:0:
320,192,20700,1,0,0:0:0:0:
402,192,21087,1,0,0:0:0:0:
182,192,21087,1,0,0:0:0:0:
329,192,21087,1,0,0:0:0:0:
256,192,21377,1,0,0:0:0:0:
109,192,21377,1,0,0:0:0:0:
64,192,21377,1,0,0:0:0:0:
192,192,21667,1,0,0:0:0:0:
320,192,21667,1,0,0:0:0:0:
402,192,21667,1,0,0:0:0:0:
64,192,21861,1,0,0:0:0:0:
109,192,21861,1,0,0:0:0:0:
256,192,21861,1,0,0:0:0:0:
475,192,21861,1,0,0:0:0:0:
109,192,22248,1,0,0:0:0:0:
329,192,22248,1,0,0:0:0:0:
182,192,22248,1,0,0:0:0:0:
402,192,22635,1,0,0:0:0:0:
192,192,22635,1,0,0:0:0:0:
256,192,22635,1,0,0:0:0:0:
109,192,22925,1,0,0:0:0:0:
329,192,22925,1,0,0:0:0:0:
182,192,22925,1,0,0:0:0:0:
182,192,23216,5,0,0:0:0:0:
329,192,23216,1,0,0:0:0:0:
256,192,23216,1,0,0:0:0:0:
109,192,24183,5,0,0:0:0:0:
402,192,24280,1,0,0:0:0:0:
109,192,24377,1,0,0:0:0:0:
402,192,24474,1,0,0:0:0:0:
182,192,24570,1,0,0:0:0:0:
329,192,24667,1,0,0:0:0:0:
182,192,24764,1,0,0:0:0:0:
329,192,24861,1,0,0:0:0:0:
109,192,24958,1,0,0:0:0:0:
36,192,24958,1,0,0:0:0:0:
402,192,24958,1,0,0:0:0:0:
475,192,24958,1,0,0:0:0:0:
256,192,24958,1,0,0:0:0:0:
182,192,25345,1,0,0:0:0:0:
402,192,25345,1,0,0:0:0:0:
320,192,25538,1,0,0:0:0:0:
109,192,25603,1,0,0:0:0:0:
64,192,25732,1,0,0:0:0:0:
320,192,25732,1,0,0:0:0:0:
256,192,25732,1,0,0:0:0:0:
402,192,26022,1,0,0:0:0:0:
109,192,26022,1,0,0:0:0:0:
329,192,26312,1,0,0:0:0:0:
182,192,26312,1,0,0:0:0:0:
109,192,26377,1,0,0:0:0:0:
256,192,26506,1,0,0:0:0:0:
36,192,26506,1,0,0:0:0:0:
402,192,26506,1,0,0:0:0:0:
36,192,26893,1,0,0:0:0:0:
329,192,26893,1,0,0:0:0:0:
109,192,26893,1,0,0:0:0:0:
192,192,27087,1,0,0:0:0:0:
320,192,27151,1,0,0:0:0:0:
109,192,27280,1,0,0:0:0:0:
182,192,27280,1,0,0:0:0:0:
402,192,27280,1,0,0:0:0:0:
182,192,27570,1,0,0:0:0:0:
109,192,27570,1,0,0:0:0:0:
475,192,27667,1,0,0:0:0:0:
109,192,27861,1,0,0:0:0:0:
329,192,27861,1,0,0:0:0:0:
182,192,27958,1,0,0:0:0:0:
402,192,27958,1,0,0:0:0:0:
36,192,28054,1,0,0:0:0:0:
475,192,28054,1,0,0:0:0:0:
256,192,28054,1,0,0:0:0:0:
182,192,28441,1,0,0:0:0:0:
109,192,28441,1,0,0:0:0:0:
475,192,28635,1,0,0:0:0:0:
329,192,28635,1,0,0:0:0:0:
36,192,28700,1,0,0:0:0:0:
182,192,28829,1,0,0:0:0:0:
402,192,28829,1,0,0:0:0:0:
256,192,28829,1,0,0:0:0:0:
329,192,29119,1,0,0:0:0:0:
109,192,29119,1,0,0:0:0:0:
182,192,29409,1,0,0:0:0:0:
329,192,29409,1,0,0:0:0:0:
256,192,29409,1,0,0:0:0:0:
109,192,29474,1,0,0:0:0:0:
475,192,29603,1,0,0:0:0:0:
36,192,29603,1,0,0:0:0:0:
329,192,30183,1,0,0:0:0:0:
109,192,30248,1,0,0:0:0:0:
182,192,30377,1,0,0:0:0:0:
182,192,30764,1,0,0:0:0:0:
402,192,30958,1,0,0:0:0:0:
329,192,31022,1,0,0:0:0:0:
64,192,31151,1,0,0:0:0:0:
109,192,31151,1,0,0:0:0:0:
256,192,31151,1,0,0:0:0:0:
475,192,31538,1,0,0:0:0:0:
182,192,31538,1,0,0:0:0:0:
329,192,31538,1,0,0:0:0:0:
109,192,31732,1,0,0:0:0:0:
402,192,31796,1,0,0:0:0:0:
329,192,31925,1,0,0:0:0:0:
64,192,31925,1,0,0:0:0:0:
256,192,31925,1,0,0:0:0:0:
475,192,32216,1,0,0:0:0:0:
182,192,32216,1,0,0:0:0:0:
109,192,32216,1,0,0:0:0:0:
402,192,32506,1,0,0:0:0:0:
36,192,32506,1,0,0:0:0:0:
329,192,32506,1,0,0:0:0:0:
475,192,32700,1,0,0:0:0:0:
109,192,32700,1,0,0:0:0:0:
256,192,32700,1,0,0:0:0:0:
36,192,33087,1,0,0:0:0:0:
402,192,33087,1,0,0:0:0:0:
109,192,33087,1,0,0:0:0:0:
320,192,33280,1,0,0:0:0:0:
182,192,33345,1,0,0:0:0:0:
402,192,33474,1,0,0:0:0:0:
475,192,33474,1,0,0:0:0:0:
256,192,33474,1,0,0:0:0:0:
36,192,33764,1,0,0:0:0:0:
329,192,33764,1,0,0:0:0:0:
256,192,33764,1,0,0:0:0:0:
448,192,34054,1,0,0:0:0:0:
320,192,34054,1,0,0:0:0:0:
192,192,34151,1,0,0:0:0:0:
64,192,34151,1,0,0:0:0:0:
320,192,34248,1,0,0:0:0:0:
475,192,34248,1,0,0:0:0:0:
402,192,34248,1,0,0:0:0:0:
402,192,34635,1,0,0:0:0:0:
36,192,34635,1,0,0:0:0:0:
256,192,34635,1,0,0:0:0:0:
320,192,34829,1,0,0:0:0:0:
192,192,34893,1,0,0:0:0:0:
109,192,35022,1,0,0:0:0:0:
448,192,35022,1,0,0:0:0:0:
256,192,35022,1,0,0:0:0:0:
329,192,35312,1,0,0:0:0:0:
36,192,35312,1,0,0:0:0:0:
402,192,35312,1,0,0:0:0:0:
182,192,35603,1,0,0:0:0:0:
448,192,35603,1,0,0:0:0:0:
36,192,35603,1,0,0:0:0:0:
329,192,35796,1,0,0:0:0:0:
402,192,35796,1,0,0:0:0:0:
256,192,35796,1,0,0:0:0:0:
36,192,36183,1,0,0:0:0:0:
182,192,36183,1,0,0:0:0:0:
402,192,36183,1,0,0:0:0:0:
329,192,36377,1,0,0:0:0:0:
109,192,36441,1,0,0:0:0:0:
475,192,36570,1,0,0:0:0:0:
182,192,36570,1,0,0:0:0:0:
256,192,36570,1,0,0:0:0:0:
36,192,36861,1,0,0:0:0:0:
402,192,36861,1,0,0:0:0:0:
329,192,36861,1,0,0:0:0:0:
192,192,37151,1,0,0:0:0:0:
329,192,37175,1,0,0:0:0:0:
64,192,37248,1,0,0:0:0:0:
256,192,37345,128,0,40248:0:0:0:0:
192,192,38216,128,0,40248:0:0:0:0:
320,192,38893,128,0,40248:0:0:0:0:
64,192,40441,128,0,42764:0:0:0:0:
448,192,41312,128,0,42764:0:0:0:0:
192,192,41990,128,0,42764:0:0:0:0:
182,192,43151,1,0,0:0:0:0:
329,192,43248,1,0,0:0:0:0:
182,192,43345,1,0,0:0:0:0:
329,192,43441,1,0,0:0:0:0:
402,192,43538,1,0,0:0:0:0:
475,192,43538,1,0,0:0:0:0:
109,192,43538,1,0,0:0:0:0:
36,192,43538,1,0,0:0:0:0:
329,192,43732,1,0,0:0:0:0:
402,192,43925,1,0,0:0:0:0:
182,192,43925,1,0,0:0:0:0:
36,192,43925,1,0,0:0:0:0:
329,192,44119,1,0,0:0:0:0:
192,192,44312,1,0,0:0:0:0:
256,192,44312,1,0,0:0:0:0:
475,192,44312,1,0,0:0:0:0:
109,192,44506,1,0,0:0:0:0:
64,192,44700,1,0,0:0:0:0:
320,192,44700,1,0,0:0:0:0:
402,192,44700,1,0,0:0:0:0:
475,192,44893,1,0,0:0:0:0:
256,192,45087,1,0,0:0:0:0:
448,192,45280,1,0,0:0:0:0:
192,192,45280,1,0,0:0:0:0:
36,192,45280,1,0,0:0:0:0:
329,192,45474,1,0,0:0:0:0:
256,192,45667,1,0,0:0:0:0:
448,192,45667,1,0,0:0:0:0:
109,192,45667,1,0,0:0:0:0:
402,192,45861,1,0,0:0:0:0:
329,192,46054,1,0,0:0:0:0:
64,192,46054,1,0,0:0:0:0:
256,192,46054,1,0,0:0:0:0:
182,192,46248,1,0,0:0:0:0:
329,192,46345,1,0,0:0:0:0:
182,192,46441,1,0,0:0:0:0:
329,192,46538,1,0,0:0:0:0:
402,192,46635,1,0,0:0:0:0:
182,192,46635,1,0,0:0:0:0:
109,192,46635,1,0,0:0:0:0:
320,192,46829,1,0,0:0:0:0:
192,192,47022,1,0,0:0:0:0:
36,192,47022,1,0,0:0:0:0:
402,192,47022,1,0,0:0:0:0:
256,192,47216,1,0,0:0:0:0:
448,192,47409,1,0,0:0:0:0:
109,192,47409,1,0,0:0:0:0:
402,192,47409,1,0,0:0:0:0:
192,192,47603,1,0,0:0:0:0:
320,192,47796,1,0,0:0:0:0:
109,192,47796,1,0,0:0:0:0:
402,192,47796,1,0,0:0:0:0:
475,192,47990,1,0,0:0:0:0:
192,192,48183,1,0,0:0:0:0:
448,192,48377,1,0,0:0:0:0:
64,192,48377,1,0,0:0:0:0:
329,192,48377,1,0,0:0:0:0:
256,192,48570,1,0,0:0:0:0:
192,192,48764,1,0,0:0:0:0:
64,192,48764,1,0,0:0:0:0:
402,192,48764,1,0,0:0:0:0:
329,192,48958,1,0,0:0:0:0:
64,192,49151,1,0,0:0:0:0:
109,192,49151,1,0,0:0:0:0:
475,192,49151,1,0,0:0:0:0:
192,192,49345,1,0,0:0:0:0:
402,192,49345,1,0,0:0:0:0:
256,192,49345,1,0,0:0:0:0:
320,192,49538,1,0,0:0:0:0:
109,192,49732,1,0,0:0:0:0:
182,192,49732,1,0,0:0:0:0:
402,192,49732,1,0,0:0:0:0:
329,192,49925,1,0,0:0:0:0:
64,192,50119,1,0,0:0:0:0:
192,192,50119,1,0,0:0:0:0:
475,192,50119,1,0,0:0:0:0:
256,192,50312,1,0,0:0:0:0:
448,192,50506,1,0,0:0:0:0:
192,192,50506,1,0,0:0:0:0:
329,192,50506,1,0,0:0:0:0:
109,192,50700,1,0,0:0:0:0:
448,192,50893,1,0,0:0:0:0:
402,192,50893,1,0,0:0:0:0:
36,192,50893,1,0,0:0:0:0:
329,192,51087,1,0,0:0:0:0:
109,192,51280,1,0,0:0:0:0:
192,192,51474,1,0,0:0:0:0:
256,192,51474,1,0,0:0:0:0:
402,192,51474,1,0,0:0:0:0:
36,192,51667,1,0,0:0:0:0:
329,192,51861,1,0,0:0:0:0:
475,192,51861,1,0,0:0:0:0:
109,192,51861,1,0,0:0:0:0:
256,192,52054,1,0,0:0:0:0:
182,192,52248,1,0,0:0:0:0:
402,192,52248,1,0,0:0:0:0:
36,192,52248,1,0,0:0:0:0:
320,192,52441,5,0,0:0:0:0:
192,192,52538,1,0,0:0:0:0:
402,192,52635,1,0,0:0:0:0:
109,192,52732,1,0,0:0:0:0:
192,192,52829,1,0,0:0:0:0:
448,192,52829,1,0,0:0:0:0:
329,192,52829,1,0,0:0:0:0:
402,192,53022,1,0,0:0:0:0:
36,192,53216,1,0,0:0:0:0:
256,192,53216,1,0,0:0:0:0:
329,192,53216,1,0,0:0:0:0:
109,192,53409,1,0,0:0:0:0:
182,192,53603,1,0,0:0:0:0:
256,192,53603,1,0,0:0:0:0:
402,192,53603,1,0,0:0:0:0:
320,192,53796,1,0,0:0:0:0:
64,192,53990,1,0,0:0:0:0:
256,192,53990,1,0,0:0:0:0:
109,192,54183,1,0,0:0:0:0:
329,192,54377,1,0,0:0:0:0:
182,192,54570,1,0,0:0:0:0:
329,192,54764,1,0,0:0:0:0:
182,192,54958,1,0,0:0:0:0:
448,192,55151,1,0,0:0:0:0:
36,192,55151,1,0,0:0:0:0:
329,192,55345,1,0,0:0:0:0:
448,192,55538,1,0,0:0:0:0:
36,192,55538,1,0,0:0:0:0:
329,192,55732,1,0,0:0:0:0:
448,192,55925,1,0,0:0:0:0:
182,192,55925,1,0,0:0:0:0:
109,192,55925,1,0,0:0:0:0:
109,192,56312,1,0,0:0:0:0:
192,192,56409,1,0,0:0:0:0:
256,192,56506,1,0,0:0:0:0:
329,192,56603,1,0,0:0:0:0:
402,192,56700,1,0,0:0:0:0:
475,192,56700,1,0,0:0:0:0:
192,192,56990,1,0,0:0:0:0:
256,192,56990,1,0,0:0:0:0:
320,192,57280,1,0,0:0:0:0:
64,192,57280,1,0,0:0:0:0:
402,192,58151,1,0,0:0:0:0:
109,192,58151,1,0,0:0:0:0:
182,192,58248,1,0,0:0:0:0:
329,192,58248,1,0,0:0:0:0:
320,192,58538,1,0,0:0:0:0:
192,192,58538,1,0,0:0:0:0:
109,192,58829,1,0,0:0:0:0:
64,192,58829,1,0,0:0:0:0:
402,192,59022,1,0,0:0:0:0:
475,192,59022,1,0,0:0:0:0:
256,192,59603,1,0,0:0:0:0:
182,192,59796,1,0,0:0:0:0:
109,192,59796,1,0,0:0:0:0:
256,192,60570,1,0,0:0:0:0:
320,192,60570,1,0,0:0:0:0:
109,192,60570,1,0,0:0:0:0:
192,192,61151,1,0,0:0:0:0:
109,192,61151,1,0,0:0:0:0:
320,192,61345,1,0,0:0:0:0:
36,192,61345,1,0,0:0:0:0:
256,192,61925,1,0,0:0:0:0:
109,192,61925,1,0,0:0:0:0:
192,192,62119,1,0,0:0:0:0:
320,192,62119,1,0,0:0:0:0:
329,192,62700,1,0,0:0:0:0:
320,192,62893,1,0,0:0:0:0:
182,192,62893,1,0,0:0:0:0:
402,192,63474,1,0,0:0:0:0:
192,192,63474,1,0,0:0:0:0:
192,192,63667,1,0,0:0:0:0:
329,192,63667,1,0,0:0:0:0:
256,192,64054,1,0,0:0:0:0:
256,192,64441,1,0,0:0:0:0:
329,192,64441,1,0,0:0:0:0:
192,192,64635,1,0,0:0:0:0:
256,192,64829,1,0,0:0:0:0:
329,192,64829,1,0,0:0:0:0:
109,192,65022,1,0,0:0:0:0:
182,192,65022,1,0,0:0:0:0:
36,192,65216,1,0,0:0:0:0:
329,192,65216,1,0,0:0:0:0:
109,192,65409,1,0,0:0:0:0:
192,192,65603,1,0,0:0:0:0:
329,192,65603,1,0,0:0:0:0:
256,192,65796,1,0,0:0:0:0:
402,192,65990,1,0,0:0:0:0:
182,192,65990,1,0,0:0:0:0:
329,192,66183,1,0,0:0:0:0:
256,192,66280,1,0,0:0:0:0:
192,192,66280,1,0,0:0:0:0:
109,192,66377,1,0,0:0:0:0:
36,192,66570,5,0,0:0:0:0:
448,192,66570,1,0,0:0:0:0:
256,192,66570,1,0,0:0:0:0:
320,192,67538,5,0,0:0:0:0:
192,192,67635,1,0,0:0:0:0:
320,192,67732,1,0,0:0:0:0:
192,192,67829,1,0,0:0:0:0:
320,192,67925,1,0,0:0:0:0:
402,192,67925,1,0,0:0:0:0:
109,192,68022,1,0,0:0:0:0:
192,192,68022,1,0,0:0:0:0:
320,192,68119,1,0,0:0:0:0:
402,192,68119,1,0,0:0:0:0:
192,192,68216,1,0,0:0:0:0:
109,192,68216,1,0,0:0:0:0:
320,192,68312,1,0,0:0:0:0:
402,192,68312,1,0,0:0:0:0:
256,192,68312,1,0,0:0:0:0:
182,192,68700,1,0,0:0:0:0:
109,192,68700,1,0,0:0:0:0:
320,192,69087,1,0,0:0:0:0:
475,192,69087,1,0,0:0:0:0:
402,192,69377,1,0,0:0:0:0:
256,192,69377,1,0,0:0:0:0:
36,192,69474,1,0,0:0:0:0:
182,192,69667,1,0,0:0:0:0:
329,192,69667,1,0,0:0:0:0:
256,192,69861,1,0,0:0:0:0:
402,192,69861,1,0,0:0:0:0:
475,192,69861,1,0,0:0:0:0:
256,192,70248,1,0,0:0:0:0:
329,192,70248,1,0,0:0:0:0:
182,192,70635,1,0,0:0:0:0:
109,192,70635,1,0,0:0:0:0:
320,192,70925,1,0,0:0:0:0:
192,192,71022,1,0,0:0:0:0:
320,192,71119,1,0,0:0:0:0:
109,192,71216,1,0,0:0:0:0:
192,192,71216,1,0,0:0:0:0:
402,192,71312,1,0,0:0:0:0:
320,192,71312,1,0,0:0:0:0:
192,192,71409,1,0,0:0:0:0:
109,192,71409,1,0,0:0:0:0:
36,192,71409,1,0,0:0:0:0:
402,192,71796,1,0,0:0:0:0:
329,192,71796,1,0,0:0:0:0:
256,192,72183,1,0,0:0:0:0:
109,192,72183,1,0,0:0:0:0:
402,192,72474,1,0,0:0:0:0:
320,192,72474,1,0,0:0:0:0:
256,192,72764,1,0,0:0:0:0:
192,192,72764,1,0,0:0:0:0:
475,192,72958,1,0,0:0:0:0:
64,192,72958,1,0,0:0:0:0:
402,192,72958,1,0,0:0:0:0:
109,192,73345,1,0,0:0:0:0:
192,192,73345,1,0,0:0:0:0:
256,192,73732,1,0,0:0:0:0:
448,192,73732,1,0,0:0:0:0:
329,192,74022,1,0,0:0:0:0:
109,192,74022,1,0,0:0:0:0:
182,192,74216,1,0,0:0:0:0:
256,192,74216,1,0,0:0:0:0:
475,192,74312,1,0,0:0:0:0:
402,192,74312,1,0,0:0:0:0:
329,192,74506,1,0,0:0:0:0:
109,192,74506,1,0,0:0:0:0:
64,192,74506,1,0,0:0:0:0:
256,192,74893,1,0,0:0:0:0:
182,192,74893,1,0,0:0:0:0:
320,192,75280,1,0,0:0:0:0:
402,192,75280,1,0,0:0:0:0:
36,192,75570,1,0,0:0:0:0:
192,192,75570,1,0,0:0:0:0:
475,192,75861,1,0,0:0:0:0:
402,192,75861,1,0,0:0:0:0:
256,192,76054,5,0,0:0:0:0:
64,192,76054,1,0,0:0:0:0:
192,192,76054,1,0,0:0:0:0:
182,192,76441,1,0,0:0:0:0:
320,192,76441,1,0,0:0:0:0:
109,192,76829,1,0,0:0:0:0:
256,192,76829,1,0,0:0:0:0:
475,192,77119,1,0,0:0:0:0:
182,192,77119,1,0,0:0:0:0:
402,192,77216,5,0,0:0:0:0:
64,192,77312,1,0,0:0:0:0:
329,192,77409,1,0,0:0:0:0:
182,192,77409,1,0,0:0:0:0:
402,192,77506,1,0,0:0:0:0:
109,192,77506,1,0,0:0:0:0:
329,192,77603,1,0,0:0:0:0:
182,192,77603,1,0,0:0:0:0:
109,192,77796,1,0,0:0:0:0:
402,192,77990,1,0,0:0:0:0:
256,192,77990,1,0,0:0:0:0:
329,192,78183,1,0,0:0:0:0:
192,192,78377,1,0,0:0:0:0:
109,192,78377,1,0,0:0:0:0:
36,192,78570,1,0,0:0:0:0:
256,192,78667,1,0,0:0:0:0:
192,192,78667,1,0,0:0:0:0:
402,192,78764,1,0,0:0:0:0:
109,192,78958,1,0,0:0:0:0:
320,192,78958,1,0,0:0:0:0:
256,192,79151,5,0,0:0:0:0:
402,192,79151,1,0,0:0:0:0:
192,192,79151,1,0,0:0:0:0:
36,192,79345,1,0,0:0:0:0:
109,192,79538,1,0,0:0:0:0:
256,192,79538,1,0,0:0:0:0:
192,192,79732,1,0,0:0:0:0:
256,192,79925,1,0,0:0:0:0:
475,192,79925,1,0,0:0:0:0:
402,192,80119,1,0,0:0:0:0:
329,192,80216,1,0,0:0:0:0:
64,192,80216,1,0,0:0:0:0:
182,192,80312,5,0,0:0:0:0:
320,192,80409,1,0,0:0:0:0:
192,192,80506,1,0,0:0:0:0:
109,192,80506,1,0,0:0:0:0:
402,192,80603,1,0,0:0:0:0:
320,192,80603,1,0,0:0:0:0:
109,192,80700,1,0,0:0:0:0:
192,192,80700,1,0,0:0:0:0:
256,192,80893,1,0,0:0:0:0:
402,192,81087,1,0,0:0:0:0:
36,192,81087,1,0,0:0:0:0:
182,192,81280,1,0,0:0:0:0:
109,192,81474,1,0,0:0:0:0:
256,192,81474,1,0,0:0:0:0:
329,192,81667,1,0,0:0:0:0:
448,192,81764,1,0,0:0:0:0:
182,192,81764,1,0,0:0:0:0:
256,192,81861,1,0,0:0:0:0:
329,192,82054,1,0,0:0:0:0:
109,192,82054,1,0,0:0:0:0:
402,192,82248,1,0,0:0:0:0:
256,192,82248,1,0,0:0:0:0:
36,192,82248,1,0,0:0:0:0:
182,192,82441,1,0,0:0:0:0:
329,192,82635,1,0,0:0:0:0:
256,192,82635,1,0,0:0:0:0:
109,192,82829,1,0,0:0:0:0:
182,192,83022,1,0,0:0:0:0:
329,192,83022,1,0,0:0:0:0:
402,192,83216,1,0,0:0:0:0:
109,192,83312,1,0,0:0:0:0:
36,192,83312,1,0,0:0:0:0:
320,192,83409,1,0,0:0:0:0:
109,192,83506,1,0,0:0:0:0:
192,192,83506,1,0,0:0:0:0:
402,192,83603,1,0,0:0:0:0:
320,192,83603,1,0,0:0:0:0:
109,192,83700,1,0,0:0:0:0:
192,192,83700,1,0,0:0:0:0:
402,192,83796,1,0,0:0:0:0:
320,192,83796,1,0,0:0:0:0:
192,192,84183,1,0,0:0:0:0:
64,192,84183,1,0,0:0:0:0:
256,192,84183,1,0,0:0:0:0:
329,192,84570,1,0,0:0:0:0:
109,192,84570,1,0,0:0:0:0:
402,192,84570,1,0,0:0:0:0:
192,192,84861,1,0,0:0:0:0:
475,192,84861,1,0,0:0:0:0:
36,192,84861,1,0,0:0:0:0:
109,192,85151,1,0,0:0:0:0:
256,192,85151,1,0,0:0:0:0:
402,192,85151,1,0,0:0:0:0:
475,192,85345,5,0,0:0:0:0:
64,192,85345,1,0,0:0:0:0:
192,192,85345,1,0,0:0:0:0:
402,192,85538,1,0,0:0:0:0:
256,192,85732,1,0,0:0:0:0:
329,192,85732,1,0,0:0:0:0:
109,192,85925,1,0,0:0:0:0:
475,192,86119,1,0,0:0:0:0:
402,192,86119,1,0,0:0:0:0:
402,192,86409,1,0,0:0:0:0:
109,192,86409,1,0,0:0:0:0:
475,192,86700,1,0,0:0:0:0:
329,192,86700,1,0,0:0:0:0:
182,192,86796,1,0,0:0:0:0:
36,192,86796,1,0,0:0:0:0:
329,192,86893,1,0,0:0:0:0:
475,192,86893,1,0,0:0:0:0:
109,192,86893,1,0,0:0:0:0:
402,192,87280,1,0,0:0:0:0:
256,192,87280,1,0,0:0:0:0:
36,192,87280,1,0,0:0:0:0:
109,192,87667,1,0,0:0:0:0:
192,192,87667,1,0,0:0:0:0:
329,192,87667,1,0,0:0:0:0:
36,192,87958,1,0,0:0:0:0:
256,192,87958,1,0,0:0:0:0:
402,192,87958,1,0,0:0:0:0:
182,192,88248,1,0,0:0:0:0:
109,192,88248,1,0,0:0:0:0:
329,192,88248,1,0,0:0:0:0:
256,192,88441,1,0,0:0:0:0:
402,192,88441,1,0,0:0:0:0:
64,192,88441,1,0,0:0:0:0:
448,192,88441,128,0,88829:0:0:0:0:
109,192,88829,128,0,89216:0:0:0:0:
320,192,88829,1,0,0:0:0:0:
36,192,88829,1,0,0:0:0:0:
402,192,89216,128,0,89603:0:0:0:0:
182,192,89216,1,0,0:0:0:0:
475,192,89216,1,0,0:0:0:0:
256,192,89603,128,0,89990:0:0:0:0:
448,192,89990,1,0,0:0:0:0:
64,192,89990,1,0,0:0:0:0:
182,192,89990,1,0,0:0:0:0:
329,192,89990,1,0,0:0:0:0:
402,192,90377,1,0,0:0:0:0:
256,192,90377,1,0,0:0:0:0:
109,192,90764,1,0,0:0:0:0:
192,192,90764,1,0,0:0:0:0:
329,192,91054,1,0,0:0:0:0:
36,192,91054,1,0,0:0:0:0:
256,192,91345,1,0,0:0:0:0:
192,192,91345,1,0,0:0:0:0:
448,192,91538,1,0,0:0:0:0:
402,192,91538,1,0,0:0:0:0:
109,192,91538,1,0,0:0:0:0:
182,192,91925,1,0,0:0:0:0:
320,192,91925,1,0,0:0:0:0:
109,192,92312,1,0,0:0:0:0:
64,192,92312,1,0,0:0:0:0:
402,192,92603,1,0,0:0:0:0:
192,192,92603,1,0,0:0:0:0:
256,192,92700,1,0,0:0:0:0:
109,192,92796,1,0,0:0:0:0:
320,192,92893,1,0,0:0:0:0:
192,192,92893,1,0,0:0:0:0:
402,192,92990,1,0,0:0:0:0:
109,192,92990,1,0,0:0:0:0:
192,192,93087,1,0,0:0:0:0:
320,192,93087,1,0,0:0:0:0:
109,192,93474,1,0,0:0:0:0:
256,192,93474,1,0,0:0:0:0:
402,192,93861,1,0,0:0:0:0:
192,192,93861,1,0,0:0:0:0:
329,192,94151,1,0,0:0:0:0:
109,192,94151,1,0,0:0:0:0:
182,192,94441,1,0,0:0:0:0:
256,192,94441,1,0,0:0:0:0:
402,192,94635,1,0,0:0:0:0:
320,192,94635,1,0,0:0:0:0:
109,192,94635,1,0,0:0:0:0:
475,192,95022,1,0,0:0:0:0:
256,192,95022,1,0,0:0:0:0:
182,192,95409,1,0,0:0:0:0:
402,192,95409,1,0,0:0:0:0:
402,192,95700,1,0,0:0:0:0:
320,192,95700,1,0,0:0:0:0:
320,192,95893,1,0,0:0:0:0:
402,192,95893,1,0,0:0:0:0:
109,192,95990,1,0,0:0:0:0:
182,192,95990,1,0,0:0:0:0:
256,192,96183,1,0,0:0:0:0:
329,192,96183,1,0,0:0:0:0:
64,192,96183,1,0,0:0:0:0:
475,192,96570,1,0,0:0:0:0:
182,192,96570,1,0,0:0:0:0:
256,192,96958,1,0,0:0:0:0:
320,192,96958,1,0,0:0:0:0:
402,192,97248,1,0,0:0:0:0:
109,192,97248,1,0,0:0:0:0:
182,192,97538,1,0,0:0:0:0:
329,192,97538,1,0,0:0:0:0:
256,192,97732,5,0,0:0:0:0:
402,192,97732,1,0,0:0:0:0:
64,192,97732,1,0,0:0:0:0:
182,192,98119,1,0,0:0:0:0:
109,192,98119,1,0,0:0:0:0:
448,192,98506,1,0,0:0:0:0:
256,192,98506,1,0,0:0:0:0:
109,192,98796,1,0,0:0:0:0:
64,192,98796,1,0,0:0:0:0:
448,192,98893,5,0,0:0:0:0:
256,192,98990,1,0,0:0:0:0:
320,192,99087,1,0,0:0:0:0:
402,192,99087,1,0,0:0:0:0:
64,192,99183,1,0,0:0:0:0:
109,192,99183,1,0,0:0:0:0:
448,192,99280,1,0,0:0:0:0:
402,192,99280,1,0,0:0:0:0:
320,192,99474,1,0,0:0:0:0:
109,192,99667,1,0,0:0:0:0:
64,192,99667,1,0,0:0:0:0:
256,192,99861,1,0,0:0:0:0:
320,192,100054,1,0,0:0:0:0:
402,192,100054,1,0,0:0:0:0:
182,192,100248,1,0,0:0:0:0:
109,192,100441,1,0,0:0:0:0:
475,192,100441,1,0,0:0:0:0:
329,192,100635,1,0,0:0:0:0:
256,192,100829,1,0,0:0:0:0:
256,192,101216,1,0,0:0:0:0:
256,192,101603,1,0,0:0:0:0:
320,192,101796,5,0,0:0:0:0:
192,192,101893,1,0,0:0:0:0:
320,192,101990,1,0,0:0:0:0:
109,192,102087,1,0,0:0:0:0:
402,192,102183,1,0,0:0:0:0:
109,192,102280,1,0,0:0:0:0:
