osu file format v14

[General]
AudioFilename: nicopuri.mp3
AudioLeadIn: 2000
PreviewTime: 28
Countdown: 0
SampleSet: Soft
StackLeniency: 0.7
Mode: 0
LetterboxInBreaks: 0
EpilepsyWarning: 1
WidescreenStoryboard: 1

[Editor]
Bookmarks: 37818,58153
DistanceSpacing: 3.75
BeatDivisor: 4
GridSize: 4
TimelineZoom: 1.1

[Metadata]
Title:Nicopuri Joshidou
TitleUnicode:にこぷり♡女子道
Artist:Yazawa Nico (CV.Tokui Sora)
ArtistUnicode:矢澤にこ(CV.徳井青空)
Creator:yf_bmp
Version:Expert
Source:ラブライブ!School idol project
Tags:YIIII ZZHBOY Lyric Vert z1085684963 Syameimaru-Aya 矢澤にこ Yazawa Nico Niko puri joshi dou nikopuri u's μ's muse School idol project LL love live
BeatmapID:788113
BeatmapSetID:358420

[Difficulty]
HPDrainRate:7
CircleSize:4
OverallDifficulty:8.5
ApproachRate:9.4
SliderMultiplier:1.7
SliderTickRate:1

[Events]
//Background and Video events
0,0,"ncpr.jpg",0,0
//Break Periods
//Storyboard Layer 0 (Background)
//Storyboard Layer 1 (Fail)
//Storyboard Layer 2 (Pass)
//Storyboard Layer 3 (Foreground)
Sprite,Foreground,Centre,"SB\btmap1.png",320,240 M,0,12028,,556.9351,240 S,0,12028,,0.5737544 F,0,12028,12778,1
//Storyboard Sound Samples
Sample,67218,0,"SB/sound/nico.wav",100

[TimingPoints]
28,300,4,2,3,60,1,0
628,-166.666666666667,4,2,2,40,0,0
928,-200,4,2,2,40,0,0
1228,-166.666666666667,4,2,3,60,0,0
1828,-166.666666666667,4,2,2,30,0,0
2128,-200,4,2,2,30,0,0
2428,-166.666666666667,4,2,3,60,0,0
3028,-166.666666666667,4,2,2,40,0,0
3328,-200,4,2,2,40,0,0
3628,-166.666666666667,4,2,3,60,0,0
5428,-166.666666666667,4,2,2,40,0,0
6028,-166.666666666667,4,2,3,60,0,0
6628,-166.666666666667,4,2,2,30,0,0
7228,-166.666666666667,4,2,3,60,0,0
8128,-83.3333333333333,4,2,3,60,0,0
8578,-100,4,2,3,60,0,0
10078,-125,4,2,3,60,0,0
27478,-83.3333333333333,4,2,3,60,0,0
28828,-71.4285714285714,4,2,3,60,0,0
29128,-100,4,2,3,60,0,0
29878,-125,4,2,3,60,0,0
46678,-83.3333333333333,4,2,3,60,0,0
48028,-100,4,2,3,60,0,0
49078,-125,4,2,3,60,0,0
68428,-100,4,2,3,60,0,1
69478,-76.9230769230769,4,2,3,60,0,1
69628,-71.4285714285714,4,2,3,60,0,1
70828,-100,4,2,3,60,0,1
76828,-66.6666666666667,4,2,3,60,0,1
77128,-71.4285714285714,4,2,3,60,0,1
77428,-76.9230769230769,4,2,3,60,0,1
77728,-83.3333333333333,4,2,3,60,0,1
78028,-76.9230769230769,4,2,3,60,0,1
78328,-100,4,2,3,60,0,1
79078,-76.9230769230769,4,2,3,60,0,1
79228,-71.4285714285714,4,2,3,60,0,1
80428,-100,4,2,3,60,0,1
87628,-166.666666666667,4,2,3,60,0,1
87928,-100,4,2,3,60,0,1
89278,-100,4,2,0,60,0,1
90028,-100,4,2,3,60,0,0
99628,-166.666666666667,4,2,3,60,0,0
105028,-166.666666666667,4,2,2,60,0,0
105628,-166.666666666667,4,2,3,60,0,0
106228,-166.666666666667,4,2,2,60,0,0
106828,-166.666666666667,4,2,3,60,0,0
107428,-166.666666666667,4,3,2,60,0,0
108028,-166.666666666667,4,2,3,60,0,0
109828,-166.666666666667,4,3,2,60,0,0
110428,-166.666666666667,4,2,3,60,0,0
111028,-166.666666666667,4,3,2,60,0,0
111628,-166.666666666667,4,2,3,60,0,0
112528,-83.3333333333333,4,2,3,60,0,0
112978,-100,4,2,3,60,0,0
114028,-133.333333333333,4,2,3,60,0,0

[Colours]
Combo1 : 255,0,255
Combo2 : 255,0,128
Combo3 : 0,128,255
Combo4 : 255,128,64

[HitObjects]
344,72,28,5,8,2:1:0:0:
488,60,178,1,8,2:1:0:0:
352,60,328,1,8,2:1:0:0:
496,48,478,1,8,2:1:0:0:
368,152,628,6,0,P|367:177|373:202,1,50.9999984436036,0|0,3:3|3:3,0:0:0:0:
428,268,928,2,0,P|445:279|465:287,1,42.5,0|0,3:3|3:3,0:0:0:0:
292,224,1228,5,0,1:1:0:0:
304,368,1378,1,0,1:1:0:0:
308,228,1528,1,0,1:1:0:0:
320,372,1678,1,0,1:1:0:0:
212,248,1828,6,0,P|184:248|161:253,1,50.9999984436036,0|0,3:0|3:0,0:0:0:0:
96,308,2128,2,0,P|84:326|77:345,1,42.5,0|0,3:0|3:0,0:0:0:0:
190,123,2428,5,8,2:1:0:0:
46,111,2578,1,8,2:1:0:0:
200,116,2728,1,8,2:1:0:0:
56,104,2878,1,8,2:1:0:0:
144,196,3028,6,0,P|124:178|111:156,1,50.9999984436036,0|0,3:0|3:0,0:0:0:0:
120,72,3328,2,0,P|124:51|133:32,1,42.5,0|0,3:0|3:0,0:0:0:0:
256,44,3628,5,0,1:1:0:0:
239,175,3778,1,0,1:1:0:0:
260,56,3928,1,0,1:1:0:0:
243,187,4078,2,0,L|293:192,1,50.9999984436036,0|0,1:0|0:0,0:0:0:0:
400,116,4378,1,2,0:0:0:0:
428,296,4528,1,8,0:0:0:0:
293,192,4678,1,10,0:0:0:0:
293,192,4753,1,10,0:0:0:0:
293,192,4828,5,8,0:1:0:0:
388,24,4978,1,8,0:1:0:0:
305,204,5128,1,8,0:1:0:0:
400,36,5278,1,8,0:1:0:0:
430,245,5428,6,0,L|428:296,2,50.9999984436036,0|0|0,3:0|3:0|3:0,0:0:0:0:
388,172,5878,1,0,3:0:0:0:
244,272,6028,5,0,1:1:0:0:
152,104,6178,1,0,1:1:0:0:
232,284,6328,1,0,1:1:0:0:
140,116,6478,1,0,1:1:0:0:
107,324,6628,6,0,L|109:374,2,50.9999984436036,0|0|0,3:0|3:0|3:0,0:0:0:0:
150,251,7078,1,0,3:0:0:0:
288,368,7228,5,8,0:1:0:0:
292,192,7378,1,8,0:1:0:0:
300,360,7528,1,8,0:1:0:0:
304,184,7678,1,8,0:1:0:0:
200,248,7828,2,0,L|150:251,1,50.9999984436036,2|8,0:0|0:1,0:0:0:0:
252,100,8128,6,0,B|304:80|352:112|352:112|399:114,1,152.999995330811,4|0,0:0|0:0,0:0:0:0:
480,108,8428,1,2,0:0:0:0:
297,275,8578,2,0,P|287:234|294:193,1,85,0|4,0:0|1:2,0:0:0:0:
496,316,8878,5,0,1:0:0:0:
476,328,8953,1,0,1:0:0:0:
452,332,9028,1,0,1:0:0:0:
428,328,9103,1,0,1:0:0:0:
396,312,9178,5,0,1:0:0:0:
380,284,9253,1,0,1:0:0:0:
376,252,9328,1,0,1:0:0:0:
388,220,9403,1,0,1:0:0:0:
420,192,9478,5,8,1:0:0:0:
464,188,9553,1,8,1:0:0:0:
449,260,9628,6,0,B|392:252|340:280|340:280|320:260|288:258,1,170,4|10,0:0|0:0,0:0:0:0:
200,368,10078,2,0,L|280:360,1,68,2|0,0:1|3:0,0:0:0:0:
196,204,10378,2,0,P|181:173|179:139,1,68,2|8,0:0|0:0,0:0:0:0:
313,83,10678,2,0,P|311:116|296:147,1,68,2|0,0:1|3:0,0:0:0:0:
120,288,10978,2,0,L|48:284,1,68,2|10,0:1|0:0,0:0:0:0:
185,73,11278,2,0,P|188:106|178:139,1,68,2|0,0:1|3:0,0:0:0:0:
76,100,11578,2,0,L|28:108,2,34,2|0|8,0:1|0:0|0:0,0:0:0:0:
296,148,11878,1,2,0:0:0:0:
292,164,11953,1,2,0:0:0:0:
288,180,12028,5,2,3:1:0:0:
185,73,12178,2,0,P|179:40|177:6,1,68,2|8,0:0|0:0,0:0:0:0:
400,128,12478,2,0,P|398:161|391:195,1,68,2|0,0:1|3:0,0:0:0:0:
196,204,12778,2,0,L|128:208,1,68,2|8,0:0|0:0,0:0:0:0:
112,200,13003,1,2,0:0:0:0:
100,188,13078,6,0,P|92:148|96:100,1,68,2|0,0:1|3:0,0:0:0:0:
256,288,13378,2,0,P|278:262|296:233,1,68,2|8,0:1|0:0,0:0:0:0:
80,348,13678,2,0,P|47:337|20:320,1,68,2|0,0:1|3:0,0:0:0:0:
224,368,13978,2,0,B|284:392|292:340|356:366,1,136,2|0,0:1|0:0,0:0:0:0:
488,280,14428,6,0,P|456:288|420:288,1,68,4|2,0:0|0:0,0:0:0:0:
384,120,14728,1,8,0:0:0:0:
421,288,14878,2,0,B|388:260|344:272|344:272|320:284|290:279,1,136,2|10,0:0|0:0,0:0:0:0:
276,268,15253,1,2,0:0:0:0:
272,252,15328,1,8,0:0:0:0:
476,88,15478,1,2,0:0:0:0:
480,104,15553,1,2,0:0:0:0:
480,120,15628,5,0,3:0:0:0:
344,204,15778,1,2,0:0:0:0:
332,44,15928,1,8,0:0:0:0:
436,200,16078,2,0,L|432:288,1,68,2|0,0:0|3:0,0:0:0:0:
192,348,16378,1,8,0:0:0:0:
192,348,16528,2,0,L|188:260,1,68,8|2,0:0|0:0,0:0:0:0:
132,224,16753,1,2,0:0:0:0:
132,224,16828,5,8,1:0:0:0:
192,348,16978,1,0,0:0:0:0:
68,288,17128,1,8,1:0:0:0:
276,324,17278,1,4,1:2:0:0:
104,368,17428,1,8,1:0:0:0:
360,348,17578,1,0,0:0:0:0:
132,224,17728,1,12,1:2:0:0:
344,264,17878,1,8,1:2:0:0:
204,88,18028,5,12,1:2:0:0:
376,180,18178,1,0,0:0:0:0:
328,16,18328,1,8,1:0:0:0:
444,124,18478,1,0,0:0:0:0:
244,160,18628,1,8,1:0:0:0:
244,16,18778,1,8,1:0:0:0:
364,92,18928,1,8,1:0:0:0:
284,88,19078,1,8,1:0:0:0:
284,88,19153,1,8,1:0:0:0:
284,88,19228,5,4,0:0:0:0:
444,124,19378,1,2,0:0:0:0:
444,124,19528,2,0,P|447:90|443:56,1,68,8|0,0:0|0:0,0:0:0:0:
244,159,19828,2,0,L|250:261,1,102,2|0,0:0|0:0,0:0:0:0:
236,272,20128,1,8,0:0:0:0:
28,224,20278,2,0,P|94:236|157:212,1,136,8|0,3:2|3:0,0:0:0:0:
100,80,20728,2,0,P|88:112|85:145,1,68,8|0,0:0|3:0,0:0:0:0:
156,384,21028,2,0,P|158:350|152:316,1,68,2|0,0:0|0:0,0:0:0:0:
28,224,21328,1,8,0:0:0:0:
236,272,21478,6,0,B|300:252|304:292|370:273,1,136,8|0,0:0|0:0,0:0:0:0:
500,164,21928,2,0,P|435:147|378:190,1,136,8|2,0:0|3:2,0:0:0:0:
456,304,22378,2,0,P|460:268|452:232,1,68,0|8,0:0|0:0,0:0:0:0:
280,40,22678,2,0,P|283:107|291:175,1,136,0|0,3:0|3:0,0:0:0:0:
453,237,23128,2,0,L|385:233,1,68,8|0,0:0|0:0,0:0:0:0:
291,175,23428,5,2,0:0:0:0:
500,164,23578,1,0,0:0:0:0:
348,44,23728,2,0,L|280:40,1,68,10|0,0:0|0:0,0:0:0:0:
208,156,24028,5,0,3:0:0:0:
88,92,24178,1,0,0:0:0:0:
88,92,24328,2,0,P|81:60|84:26,1,68,8|0,0:0|3:0,0:0:0:0:
280,40,24628,1,2,0:0:0:0:
100,184,24778,2,0,P|66:181|35:167,1,68,0|8,0:0|0:0,0:0:0:0:
284,212,25078,2,0,P|341:177|407:183,1,136,0|0,3:0|0:0,0:0:0:0:
192,208,25528,2,0,P|178:239|156:264,1,68,8|8,0:0|0:0,0:0:0:0:
260,376,25828,2,0,P|251:343|251:309,1,68,2|0,0:0|3:0,0:0:0:0:
256,116,26128,1,10,0:0:0:0:
407,183,26278,6,0,L|400:320,1,136
156,264,26728,2,0,B|116:256|80:268|80:268|21:256,1,136,8|2,0:0|3:2,0:0:0:0:
188,123,27178,2,0,L|264:115,1,68,8|0,0:0|3:0,0:0:0:0:
44,27,27478,6,0,P|-2:107|77:154,1,203.999993774414,4|8,0:0|0:3,0:0:0:0:
255,115,27928,1,8,0:0:0:0:
77,154,28078,1,4,0:3:0:0:
116,76,28228,1,8,0:0:0:0:
156,264,28378,1,8,0:0:0:0:
272,216,28528,1,8,0:0:0:0:
36,232,28678,1,8,0:0:0:0:
36,232,28753,1,8,0:0:0:0:
36,232,28828,6,0,B|12:348|12:348|36:368|68:364,1,178.499994552612,4|0,0:0|2:3,0:0:0:0:
145,344,29128,2,0,B|196:348|224:312|224:312|268:300|301:324,1,170,8|2,0:0|3:2,0:0:0:0:
456,268,29578,2,0,P|416:277|384:250,1,85,0|8,0:0|0:0,0:0:0:0:
364,16,29878,2,0,B|346:150,1,136,0|0,3:0|3:0,0:0:0:0:
272,216,30328,1,8,0:0:0:0:
272,216,30478,1,8,0:0:0:0:
444,172,30628,2,0,P|476:168|511:168,1,68,2|0,0:0|3:0,0:0:0:0:
252,120,30928,2,0,P|220:112|184:109,1,68,8|8,0:0|0:0,0:0:0:0:
364,16,31228,6,0,L|504:12,1,136,0|8,3:0|0:0,0:0:0:0:
444,172,31678,2,0,L|372:168,1,68,8|2,0:0|0:0,0:0:0:0:
252,120,31978,2,0,P|245:85|244:44,1,68,8|0,0:0|0:0,0:0:0:0:
175,188,32278,2,0,P|164:254|163:322,1,136,8|0,0:0|3:0,0:0:0:0:
332,280,32728,2,0,L|264:288,1,68,8|0,0:0|0:0,0:0:0:0:
64,296,33028,1,0,0:0:0:0:
264,287,33178,1,8,0:0:0:0:
156,96,33328,1,8,0:0:0:0:
163,322,33478,2,0,L|168:348,4,17,2|2|0|0|8,0:1|0:1|0:1|0:1|0:1,0:0:0:0:
163,322,34528,5,0,1:0:0:0:
349,62,34828,1,0,1:0:0:0:
76,136,35728,5,0,1:0:0:0:
436,248,36028,1,0,1:0:0:0:
76,248,36628,5,0,1:0:0:0:
436,136,37228,1,0,1:0:0:0:
175,225,37528,1,0,1:0:0:0:
315,144,37828,1,0,1:0:0:0:
315,305,37978,1,0,1:0:0:0:
315,305,38053,1,0,1:0:0:0:
315,305,38128,1,0,1:0:0:0:
268,225,38278,1,0,1:0:0:0:
268,225,38353,1,0,1:0:0:0:
268,225,38428,5,4,1:0:0:0:
68,327,38578,1,2,0:0:0:0:
68,327,38728,2,0,P|64:293|68:260,1,68,8|0,0:0|0:0,0:0:0:0:
252,112,39028,2,0,L|258:214,1,102,2|0,0:0|0:0,0:0:0:0:
268,225,39328,1,8,0:0:0:0:
484,160,39478,2,0,P|418:148|355:172,1,136,8|0,3:2|0:0,0:0:0:0:
496,324,39928,2,0,P|506:291|509:258,1,68,8|0,0:0|3:0,0:0:0:0:
324,336,40228,2,0,L|404:344,1,68,2|0,0:0|3:0,0:0:0:0:
484,160,40528,1,8,0:0:0:0:
276,112,40678,6,0,B|212:132|208:92|142:111,1,136,8|0,0:0|0:0,0:0:0:0:
12,220,41128,2,0,P|77:237|134:194,1,136,8|2,0:0|3:2,0:0:0:0:
276,112,41578,2,0,P|283:79|278:46,1,68,0|8,0:0|0:0,0:0:0:0:
220,208,41878,2,0,P|228:276|232:344,1,136,2|0,3:2|3:0,0:0:0:0:
58,146,42328,5,10,0:2:0:0:
276,112,42628,1,2,3:2:0:0:
56,284,42928,2,0,L|124:288,1,68,10|0,0:2|0:0,0:0:0:0:
304,228,43228,5,0,3:0:0:0:
428,359,43378,1,0,0:0:0:0:
428,359,43528,2,0,P|432:326|425:293,1,68,8|0,0:0|3:0,0:0:0:0:
232,344,43828,1,2,0:0:0:0:
476,216,43978,2,0,P|445:202|412:200,1,68,0|8,0:0|0:0,0:0:0:0:
104,200,44278,2,0,P|171:206|228:172,1,136,0|0,3:0|3:0,0:0:0:0:
356,119,44728,2,0,P|333:145|320:176,1,68,8|8,0:0|0:0,0:0:0:0:
252,8,45028,2,0,P|261:41|261:75,1,68,2|0,0:0|3:0,0:0:0:0:
256,268,45328,1,10,0:0:0:0:
105,201,45478,6,0,L|112:64,1,136
356,120,45928,2,0,B|396:128|432:116|432:116|491:128,1,136,8|2,0:0|3:2,0:0:0:0:
324,261,46378,2,0,L|248:269,1,68,8|0,0:0|3:0,0:0:0:0:
468,356,46678,6,0,B|468:303|504:271|504:271|512:227|468:203|435:229,1,203.999993774414,4|8,0:0|0:3,0:0:0:0:
257,269,47128,1,8,0:0:0:0:
396,308,47278,1,4,3:0:0:0:
244,160,47428,1,8,0:0:0:0:
435,230,47578,1,4,0:3:0:0:
356,120,47728,1,8,0:0:0:0:
476,152,47878,1,8,0:0:0:0:
476,152,47953,1,8,0:0:0:0:
476,152,48028,6,0,P|481:110|469:69,1,85,4|0,0:0|0:0,0:0:0:0:
244,160,48328,2,0,P|164:152|144:75,1,170,8|2,0:0|3:2,0:0:0:0:
12,140,48778,2,0,P|46:161|50:203,1,85,0|10,0:0|0:0,0:0:0:0:
112,376,49078,2,0,B|130:242,1,136,2|0,0:0|3:0,0:0:0:0:
244,160,49528,1,8,0:0:0:0:
244,160,49678,1,8,0:0:0:0:
130,241,49828,2,0,L|63:245,1,68,2|0,0:0|3:0,0:0:0:0:
216,72,50128,2,0,L|288:80,1,68,10|8,0:0|0:0,0:0:0:0:
408,60,50428,6,0,P|470:69|512:0,1,136,0|8,3:0|0:0,0:0:0:0:
444,212,50878,2,0,L|372:216,1,68,8|2,0:0|3:2,0:0:0:0:
243,331,51178,2,0,P|245:297|252:264,1,68,8|0,0:0|0:0,0:0:0:0:
163,60,51478,2,0,P|163:127|175:195,1,136,8|0,0:0|3:0,0:0:0:0:
332,104,51928,2,0,L|264:96,1,68,8|0,0:0|0:0,0:0:0:0:
64,88,52228,1,2,0:0:0:0:
264,97,52378,1,8,0:0:0:0:
156,288,52528,1,8,0:0:0:0:
163,61,52678,2,0,L|168:36,4,17,2|2|0|0|8,0:1|0:1|0:1|0:1|0:1,0:0:0:0:
163,62,53728,5,0,1:0:0:0:
349,322,54028,1,0,1:0:0:0:
76,248,54928,5,0,1:0:0:0:
436,136,55228,1,0,1:0:0:0:
436,136,55528,1,0,3:0:0:0:
76,136,55828,5,0,1:0:0:0:
76,136,56128,1,0,3:0:0:0:
436,248,56428,5,0,1:0:0:0:
340,192,56578,1,8,0:0:0:0:
432,264,56728,1,0,1:0:0:0:
304,280,56878,1,8,0:0:0:0:
432,280,57028,1,8,0:0:0:0:
332,368,57178,1,0,1:0:0:0:
332,368,57253,1,0,1:0:0:0:
332,368,57328,1,0,1:0:0:0:
176,308,57478,1,0,1:0:0:0:
168,272,57553,1,0,1:0:0:0:
160,236,57628,6,0,B|120:220|80:228|80:228|56:244|28:242,1,136,6|10,0:0|0:0,0:0:0:0:
72,132,58078,2,0,P|124:146|200:116,1,136,2|0,0:0|0:0,0:0:0:0:
256,268,58528,2,0,L|256:348,1,68,8|2,0:0|0:0,0:0:0:0:
352,236,58828,6,0,B|392:220|432:228|432:228|456:244|483:242,1,136,2|10,0:0|0:0,0:0:0:0:
440,132,59278,2,0,P|387:146|312:116,1,136,2|0,0:0|0:0,0:0:0:0:
256,304,59728,2,0,L|256:384,1,68,8|10,0:0|0:0,0:0:0:0:
159,235,60028,6,0,P|132:175|146:109,1,136,2|8,0:0|0:0,0:0:0:0:
256,24,60478,2,0,B|312:-4|328:48|387:17,1,136,2|0,0:0|0:0,0:0:0:0:
436,136,60928,2,0,L|356:132,1,68,10|0,0:0|0:0,0:0:0:0:
256,24,61228,6,0,B|200:-4|184:48|124:17,1,136,2|8,0:0|0:0,0:0:0:0:
76,136,61678,2,0,L|156:132,1,68
208,296,61978,1,8,0:0:0:0:
152,120,62128,1,2,0:0:0:0:
136,328,62278,1,8,0:0:0:0:
160,108,62428,6,0,L|295:111,1,136,6|8,0:0|0:0,0:0:0:0:
352,276,62878,2,0,L|216:272,1,136,2|0,0:0|0:0,0:0:0:0:
404,171,63328,2,0,P|437:167|471:167,1,68,8|0,0:0|0:0,0:0:0:0:
392,372,63628,6,0,L|256:368,1,136,2|8,0:0|0:0,0:0:0:0:
135,327,64078,2,0,P|115:263|119:195,1,136,2|0,0:0|0:0,0:0:0:0:
256,80,64528,2,0,L|336:76,1,68,8|0,0:0|0:0,0:0:0:0:
119,195,64828,5,14,0:0:0:0:
132,24,64978,1,0,3:0:0:0:
196,256,65128,1,8,1:0:0:0:
256,80,65278,1,2,3:2:0:0:
272,316,65428,1,8,1:0:0:0:
380,136,65578,1,0,3:0:0:0:
208,376,65728,1,10,1:2:0:0:
172,112,65878,1,4,3:2:0:0:
368,308,66028,5,10,1:2:0:0:
104,288,66178,1,0,3:0:0:0:
146,62,66328,1,8,1:0:0:0:
432,236,66478,1,0,3:0:0:0:
112,372,66628,1,8,1:3:0:0:
164,48,66778,2,0,L|172:100,1,34,0|0,1:0|1:0,0:0:0:0:
294,210,66928,6,0,B|218:134|114:178|114:178|23:200|-22:64|86:10|146:62,1,476,4|4,0:0|3:3,0:0:0:0:
154,78,68053,1,4,3:3:0:0:
154,94,68128,1,2,1:3:0:0:
154,94,68428,6,0,B|190:118|238:110|238:110|278:94|320:103,1,170,6|10,0:0|1:2,0:1:0:0:
294,210,68878,1,2,1:2:0:0:
216,4,69028,1,2,0:1:0:0:
416,152,69178,2,0,P|426:110|423:68,1,85,0|10,1:0|1:2,0:0:0:0:
140,39,69478,2,0,L|153:93,1,55.2499974708558,2|10,1:2|1:2,0:0:0:0:
153,241,69628,6,0,B|146:155|259:208|242:71|177:49|153:94,1,237.999992736817,2|8,1:0|1:0,0:1:0:0:
72,120,70078,2,0,B|27:96|-14:150|47:273|111:166|153:241,1,237.999992736817,10|2,1:0|1:0,0:1:0:0:
64,308,70528,1,10,1:2:0:0:
303,181,70678,2,0,L|231:189,1,59.4999981842042,8|8,0:0|0:0,0:0:0:0:
72,120,70828,6,0,L|64:32,1,85,2|0,0:1|0:0,0:1:0:0:
154,241,71128,2,0,L|152:340,1,85,10|0,1:2|0:0,0:0:0:0:
64,308,71428,1,2,0:1:0:0:
152,325,71578,1,10,1:2:0:0:
320,136,71728,1,10,1:2:0:0:
244,188,71878,1,8,0:0:0:0:
244,188,71953,1,8,0:0:0:0:
244,188,72028,6,0,P|231:147|236:105,1,85,10|0,0:1|0:0,0:1:0:0:
392,32,72328,1,10,1:2:0:0:
300,260,72478,2,0,B|260:284|216:272|216:272|180:244|139:246,1,170,2|10,0:1|0:1,0:1:0:0:
372,316,72928,2,0,P|388:277|387:235,1,85,10|0,1:2|0:0,0:0:0:0:
235,105,73228,6,0,L|99:109,1,127.5,2|0,0:1|0:0,0:1:0:0:
112,120,73528,2,0,P|64:112|48:72,1,85,10|0,1:2|0:0,0:0:0:0:
16,216,73828,1,2,0:1:0:0:
139,246,73978,1,8,0:0:0:0:
139,246,74053,1,8,0:0:0:0:
139,246,74128,2,0,P|147:287|139:329,1,85,8|0,1:0|0:0,0:0:0:0:
0,340,74428,6,0,L|136:340,1,127.5,2|0,0:1|0:0,0:1:0:0:
139,329,74728,1,10,1:2:0:0:
296,344,74878,2,0,P|373:367|430:309,1,170,10|2,1:1|1:1,0:1:0:0:
464,120,75328,2,0,L|452:32,1,85,10|0,1:2|0:0,0:0:0:0:
296,100,75628,5,2,0:1:0:0:
464,120,75778,1,0,0:0:0:0:
284,184,75928,1,4,1:2:0:0:
468,136,76078,1,0,0:0:0:0:
316,264,76228,1,2,0:1:0:0:
472,152,76378,1,10,1:2:0:0:
380,320,76528,1,10,1:1:0:0:
212,228,76678,1,8,0:0:0:0:
200,184,76753,1,8,0:0:0:0:
207,140,76828,6,0,P|231:119|263:114,1,63.7500024318696,4|0,0:0|0:0,0:0:0:0:
416,100,76978,2,0,P|442:116|457:144,1,63.7500024318696,2|0,0:0|0:0,0:0:0:0:
292,8,77128,6,0,P|318:24|333:52,1,59.4999981842042,8|0,1:0|0:0,0:0:0:0:
372,188,77278,2,0,P|364:218|342:241,1,59.4999981842042,8|0,1:0|0:0,0:0:0:0:
116,120,77428,6,0,L|124:24,1,55.2499974708558,0|0,3:0|0:0,0:0:0:0:
140,384,77578,2,0,L|145:320,1,55.2499974708558,8|0,1:0|0:0,0:0:0:0:
276,184,77728,6,0,L|281:120,1,50.9999984436036,8|0,1:0|0:0,0:0:0:0:
69,253,77878,1,0,1:0:0:0:
69,253,77953,1,0,1:0:0:0:
69,253,78028,6,0,B|23:215|23:215|0:156|31:115,1,165.749992412568,4|0,0:0|0:2,0:1:0:0:
16,116,78328,2,0,P|37:80|77:68,1,85,8|0,1:2|0:0,0:0:0:0:
160,268,78628,2,0,L|76:264,1,85,2|0,0:1|1:2,0:0:0:0:
268,160,78928,1,10,1:2:0:0:
155,102,79078,2,0,L|143:14,1,55.2499974708558,2|10,1:2|1:2,0:0:0:0:
276,144,79228,6,0,B|362:137|309:250|446:233|468:168|423:144,1,237.999992736817,2|8,1:1|1:0,0:1:0:0:
397,62,79678,2,0,B|421:17|367:-24|244:37|351:101|276:143,1,237.999992736817,10|2,1:0|1:0,0:1:0:0:
232,60,80128,1,10,1:2:0:0:
481,54,80278,1,10,0:0:0:0:
481,54,80353,1,10,0:0:0:0:
481,54,80428,6,0,L|397:62,1,85,2|0,0:1|0:0,0:1:0:0:
191,142,80728,2,0,L|276:144,1,85,8|0,1:0|0:0,0:0:0:0:
232,60,81028,1,2,0:1:0:0:
414,224,81178,1,10,1:2:0:0:
192,142,81328,1,10,1:2:0:0:
329,232,81478,1,8,0:0:0:0:
329,232,81553,1,8,0:0:0:0:
329,232,81628,6,0,L|415:223,1,85,10|0,0:1|0:0,0:1:0:0:
484,368,81928,1,10,1:2:0:0:
260,288,82078,2,0,B|235:246|248:204|248:204|279:174|274:128,1,170,2|10,0:1|0:1,0:1:0:0:
204,360,82528,2,0,P|243:376|285:375,1,85,10|0,1:2|0:0,0:0:0:0:
192,232,82828,6,0,L|56:228,1,127.5,2|0,0:1|0:0,0:1:0:0:
69,216,83128,2,0,P|21:224|5:264,1,85,10|0,1:2|0:0,0:0:0:0:
16,132,83428,1,2,0:1:0:0:
139,138,83578,1,8,0:0:0:0:
139,138,83653,1,8,0:0:0:0:
139,138,83728,2,0,P|147:97|139:55,1,85,8|0,1:0|0:0,0:0:0:0:
0,44,84028,6,0,L|136:44,1,127.5,2|0,0:1|0:0,0:1:0:0:
139,55,84328,1,10,1:2:0:0:
296,40,84478,2,0,P|373:17|430:75,1,170,10|2,1:1|1:0,0:1:0:0:
464,264,84928,2,0,L|452:352,1,85,10|0,1:2|0:0,0:0:0:0:
296,284,85228,5,2,0:1:0:0:
464,264,85378,1,0,0:0:0:0:
284,200,85528,1,4,1:2:0:0:
468,248,85678,1,0,0:0:0:0:
316,120,85828,1,2,0:1:0:0:
472,232,85978,1,10,1:2:0:0:
380,64,86128,1,10,1:1:0:0:
212,156,86278,1,8,0:0:0:0:
204,204,86353,1,8,0:0:0:0:
216,248,86428,5,4,0:0:0:0:
364,232,86578,1,2,0:0:0:0:
244,80,86728,1,10,1:1:0:0:
108,216,86878,1,2,0:0:0:0:
296,284,87028,5,2,1:1:0:0:
180,24,87178,1,10,1:1:0:0:
32,252,87328,1,12,1:2:0:0:
284,200,87478,1,0,1:0:0:0:
284,200,87553,1,0,1:0:0:0:
284,200,87628,6,0,P|296:164|291:126,1,76.4999976654053,0|0,0:0|0:0,0:1:0:0:
212,156,87928,6,0,B|200:204|200:204|215:280,1,127.5,4|0,0:0|0:0,0:0:0:0:
296,352,88228,1,12,1:2:0:0:
176,348,88378,1,2,0:0:0:0:
408,312,88528,1,8,1:0:0:0:
72,304,88678,1,8,1:0:0:0:
488,232,88828,1,4,0:0:0:0:
492,248,89128,5,0,1:0:0:0:
492,248,89278,1,8,0:0:0:0:
308,212,89428,1,0,1:0:0:0:
312,196,89503,1,0,1:0:0:0:
316,180,89578,1,0,1:0:0:0:
244,22,89728,1,0,1:0:0:0:
88,84,89878,1,0,1:0:0:0:
92,100,89953,1,0,1:0:0:0:
96,116,90028,5,4,0:0:0:0:
340,100,90178,2,0,P|298:94|261:113,1,85,2|8,0:0|0:0,0:0:0:0:
188,324,90478,2,0,B|192:292|180:268|180:268|188:224|188:224|184:198,1,127.5,2|0,0:1|0:0,0:0:0:0:
104,232,90778,2,0,P|96:280|116:320,1,85,2|8,0:0|0:0,0:0:0:0:
256,372,91078,6,0,B|282:362|305:366|305:366|336:351,1,85,2|0,0:1|0:0,0:0:0:0:
104,332,91378,2,0,B|77:322|54:326|54:326|23:311,1,85,2|8,0:1|0:0,0:0:0:0:
348,360,91678,2,0,L|351:275,1,85,2|0,0:1|0:0,0:0:0:0:
11,324,91978,1,2,0:1:0:0:
7,296,92053,1,2,0:0:0:0:
3,268,92128,1,8,0:0:0:0:
176,64,92278,1,2,0:0:0:0:
172,92,92353,1,2,0:0:0:0:
168,120,92428,5,2,0:1:0:0:
0,100,92578,2,0,L|92:92,1,85,2|8,0:0|0:0,0:0:0:0:
328,211,92878,2,0,P|268:229|215:196,1,127.5,2|0,0:1|0:0,0:0:0:0:
268,68,93178,2,0,P|288:104|281:145,1,85,2|8,0:0|0:0,0:0:0:0:
24,8,93478,6,0,B|56:20|56:20|80:12|106:13,1,85,2|0,0:1|0:0,0:0:0:0:
328,211,93778,2,0,B|296:225|296:225|272:218|246:222,1,85,2|8,0:1|0:0,0:0:0:0:
20,324,94078,2,0,P|40:286|48:245,1,85,2|0,0:1|0:0,0:0:0:0:
281,145,94378,2,0,P|256:67|312:9,1,170,2|2,0:1|0:0,0:0:0:0:
392,24,94753,1,2,0:0:0:0:
392,24,94828,6,0,L|488:16,1,85,4|2,1:2|0:0,0:0:0:0:
312,9,95128,1,8,0:0:0:0:
441,127,95278,2,0,B|400:120|372:144|372:144|324:120|280:144,1,170,2|2,0:0|0:0,0:0:0:0:
236,216,95653,1,2,0:0:0:0:
244,248,95728,1,8,0:0:0:0:
428,296,95878,1,2,0:0:0:0:
440,252,95953,1,2,0:0:0:0:
428,208,96028,5,0,0:0:0:0:
280,144,96178,1,0,0:0:0:0:
292,316,96328,1,8,0:0:0:0:
332,232,96478,1,2,0:2:0:0:
332,232,96553,1,2,0:2:0:0:
332,232,96628,1,0,1:0:0:0:
112,316,96778,1,8,1:0:0:0:
112,316,96928,2,0,P|99:273|108:220,1,85,8|0,1:0|1:0,0:0:0:0:
132,160,97153,1,2,1:2:0:0:
132,160,97228,5,8,1:0:0:0:
192,36,97378,1,0,0:0:0:0:
68,96,97528,1,8,1:0:0:0:
276,60,97678,1,4,0:0:0:0:
104,16,97828,1,8,1:0:0:0:
360,36,97978,1,0,0:0:0:0:
132,160,98128,1,12,1:2:0:0:
344,120,98278,1,8,1:0:0:0:
204,296,98428,5,12,1:2:0:0:
376,204,98578,2,0,L|424:204,1,42.5,0|0,1:0|0:0,0:0:0:0:
328,368,98728,1,8,1:0:0:0:
420,292,98878,2,0,L|372:292,1,42.5,0|0,1:0|0:0,0:0:0:0:
212,216,99028,5,8,1:0:0:0:
204,200,99103,1,0,1:0:0:0:
204,180,99178,1,0,1:0:0:0:
216,152,99253,1,0,1:0:0:0:
252,136,99328,5,4,1:2:0:0:
296,152,99403,1,0,1:0:0:0:
308,200,99478,1,0,1:0:0:0:
272,240,99553,1,0,1:0:0:0:
220,224,99628,6,0,B|148:196|140:256|70:228,1,152.999995330811,4|4,1:0|0:3,0:0:0:0:
108,44,100228,2,0,B|180:16|188:76|258:48,1,152.999995330811,8|4,1:0|0:3,0:0:0:0:
408,56,100828,2,0,L|344:64,1,50.9999984436036,0|0,0:0|1:0,0:0:0:0:
256,188,101128,1,4,0:3:0:0:
440,156,101278,2,0,L|500:160,1,50.9999984436036,4|4,0:3|1:2,0:0:0:0:
440,156,101578,1,4,0:3:0:0:
332,272,101728,2,0,L|276:275,1,50.9999984436036,4|4,0:0|0:3,0:0:0:0:
152,228,102028,5,4,0:0:0:0:
332,272,102178,2,0,P|335:322|336:373,1,101.999996887207,4|4,0:3|0:3,0:0:0:0:
272,204,102628,1,8,1:0:0:0:
264,224,102928,1,8,1:0:0:0:
200,56,103078,1,8,0:0:0:0:
160,204,103228,1,0,1:0:0:0:
284,80,103378,1,8,1:0:0:0:
288,104,103453,1,8,1:0:0:0:
292,128,103528,1,8,1:0:0:0:
84,136,103678,1,8,1:0:0:0:
160,204,103828,5,4,1:2:0:0:
180,176,103978,1,8,0:3:0:0:
188,140,104128,1,4,0:3:0:0:
184,104,104278,1,4,0:3:0:0:
168,72,104428,5,8,2:1:0:0:
24,52,104578,1,8,2:1:0:0:
160,88,104728,1,8,2:1:0:0:
24,32,104878,1,8,2:1:0:0:
84,136,105028,5,0,3:0:0:0:
108,208,105178,1,0,3:0:0:0:
92,256,105328,1,0,3:0:0:0:
76,276,105478,1,0,3:0:0:0:
220,224,105628,5,0,1:1:0:0:
208,368,105778,1,0,1:1:0:0:
236,232,105928,1,0,1:1:0:0:
192,368,106078,1,0,1:1:0:0:
296,304,106228,5,0,3:0:0:0:
368,280,106378,1,0,3:0:0:0:
412,304,106528,1,0,3:0:0:0:
420,328,106678,1,0,3:0:0:0:
322,123,106828,5,8,2:1:0:0:
476,112,106978,1,8,2:1:0:0:
320,108,107128,1,8,2:1:0:0:
472,128,107278,1,8,2:1:0:0:
420,192,107428,5,0,0:0:0:0:
396,120,107578,1,0,0:0:0:0:
404,68,107728,1,0,0:0:0:0:
416,48,107878,1,0,0:0:0:0:
256,44,108028,5,0,1:1:0:0:
284,195,108178,1,0,1:1:0:0:
272,36,108328,1,0,1:1:0:0:
268,187,108478,2,0,L|218:192,1,50.9999984436036,0|0,1:0|0:0,0:0:0:0:
112,116,108778,1,2,0:0:0:0:
84,296,108928,1,8,0:0:0:0:
188,92,109078,2,0,L|190:117,1,25.4999992218018,10|10,0:0|0:0,0:0:0:0:
232,180,109228,5,8,0:1:0:0:
40,164,109378,1,8,0:1:0:0:
218,193,109528,1,8,0:1:0:0:
32,148,109678,1,8,0:1:0:0:
124,172,109828,5,0,0:0:0:0:
156,240,109978,1,0,0:0:0:0:
160,292,110128,1,0,0:0:0:0:
156,316,110278,1,0,0:0:0:0:
272,256,110428,5,0,1:1:0:0:
464,244,110578,1,0,1:1:0:0:
268,272,110728,1,0,1:1:0:0:
454,227,110878,1,0,1:1:0:0:
362,251,111028,5,0,0:0:0:0:
324,320,111178,1,0,0:0:0:0:
340,368,111328,1,0,0:0:0:0:
360,384,111478,1,0,0:0:0:0:
224,368,111628,5,8,0:1:0:0:
218,193,111778,1,8,0:1:0:0:
208,360,111928,1,8,0:1:0:0:
236,184,112078,1,8,0:1:0:0:
312,248,112228,2,0,L|362:251,1,50.9999984436036,2|8,0:0|0:1,0:0:0:0:
260,100,112528,6,0,B|208:80|160:112|160:112|113:114,1,152.999995330811,4|0,0:0|0:0,0:0:0:0:
32,108,112828,1,2,0:0:0:0:
215,275,112978,2,0,P|225:234|218:193,1,85,0|4,0:0|1:2,0:0:0:0:
16,316,113278,5,0,1:0:0:0:
36,328,113353,1,0,1:0:0:0:
60,332,113428,1,0,1:0:0:0:
84,328,113503,1,0,1:0:0:0:
116,312,113578,5,0,1:0:0:0:
132,284,113653,1,0,1:0:0:0:
136,252,113728,1,0,1:0:0:0:
124,220,113803,1,0,1:0:0:0:
92,192,113878,5,8,1:0:0:0:
48,188,113953,1,8,1:0:0:0:
63,260,114028,5,4,0:0:0:0:
449,124,114478,1,2,1:0:0:0:
255,342,114928,2,0,B|220:256|292:244|256:157,1,191.250007295609,2|2,1:0|1:1,0:1:0:0:
188,16,115528,1,2,1:0:0:0:
172,204,115678,1,2,1:0:0:0:
344,128,115828,1,4,1:2:0:0:
