osu file format v14

[General]
AudioFilename: audio.mp3
AudioLeadIn: 0
PreviewTime:51599
Countdown: 0
SampleSet: Soft
StackLeniency: 0.7
Mode: 0
LetterboxInBreaks: 0
WidescreenStoryboard: 0

[Editor]
Bookmarks:23962
DistanceSpacing: 1.2
BeatDivisor: 4
GridSize: 16
TimelineZoom: 1.9

[Metadata]
Title:Snow halation (NICO Mix)
TitleUnicode:Snow halation(NICO Mix)
Artist:Yazawa Nico (CV: Tokui Sora)
ArtistUnicode:矢澤にこ (CV: 徳井青空)
Creator:Blitzifyyy
Version:Easy ft. Crescxnt
Source:ラブライブ! School idol project
Tags:µ's u's muse lovelive! love live! japanese anime mononymous mono demonical crescxnt baar_vendel theblank zan zan1to
BeatmapID:2222889
BeatmapSetID:1051318

[Difficulty]
HPDrainRate:2
CircleSize:2
OverallDifficulty:2
ApproachRate:3
SliderMultiplier:0.80000000596046
SliderTickRate:1

[Events]
//Background and Video events
0,0,"Nico.jpg",0,0
//Break Periods
//Storyboard Layer 0 (Background)
//Storyboard Layer 1 (Fail)
//Storyboard Layer 2 (Pass)
//Storyboard Layer 3 (Foreground)
//Storyboard Layer 4 (Overlay)
//Storyboard Sound Samples

[TimingPoints]
379,346.820809248555,4,2,1,50,1,0
12864,-100,4,2,1,40,0,0
22488,-100,4,2,1,5,0,0
22575,-100,4,2,1,60,0,0
40610,-100,4,2,1,70,0,0
48933,-100,4,2,1,75,0,0
51708,-100,4,2,1,85,0,1
61332,-100,4,2,1,5,0,1
61419,-100,4,2,1,85,0,1
62286,-100,4,2,1,85,0,0
62720,-100,4,2,1,75,0,0
62806,-100,4,2,1,85,0,1
72431,-100,4,2,1,5,0,1
72517,-100,4,2,1,85,0,1
73905,-100,4,2,1,55,0,0
74945,-100,4,2,1,70,0,0
75985,-100,4,2,1,55,0,0
76592,-100,4,2,1,5,0,0
76679,-100,4,2,1,70,0,0
79367,-100,4,2,1,5,0,0
79454,-100,4,2,1,70,0,0
92199,-100,4,2,1,5,0,0
92286,-100,4,2,1,70,0,0
92720,-100,4,2,1,5,0,0
92806,-100,4,2,1,70,0,0
93326,-100,4,2,1,85,0,1
104251,-100,4,2,1,60,0,1
104425,-100,4,2,1,60,0,0
114136,-100,4,2,1,5,0,0

[Colours]
Combo1 : 194,133,133
Combo2 : 255,72,72
Combo3 : 216,216,216
Combo4 : 248,78,107

[HitObjects]
389,39,379,6,0,P|502:59|453:145,1,240.000001788138,2|2,0:2|0:2,0:0:0:0:
381,190,1766,2,0,B|262:234|262:128|134:189,1,240.000001788138,2|2,0:2|0:2,0:0:0:0:
66,231,3153,2,0,P|52:179|85:111,1,120.000000894069,2|2,0:2|0:2,0:0:0:0:
290,11,4540,2,0,L|310:179,1,160.000001192092,2|2,0:2|0:2,0:0:0:0:
183,316,5928,6,0,P|79:308|115:211,1,240.000001788138,2|2,0:2|0:2,0:0:0:0:
201,170,7315,2,0,B|309:122|309:206|410:162,1,200.000001490115,2|2,0:2|0:2,0:0:0:0:
358,28,8702,2,0,L|185:23,1,160.000001192092,2|2,0:2|0:2,0:0:0:0:
101,21,9743,1,2,0:2:0:0:
256,192,10089,12,2,11477,0:2:0:0:
385,34,12864,6,0,L|509:29,2,120.000000894069,2|2|2,0:2|0:2|0:2,0:0:0:0:
309,93,14251,2,0,B|231:131|231:57|138:94,1,160.000001192092,2|2,0:2|0:2,0:0:0:0:
67,129,15292,1,2,0:2:0:0:
18,212,15639,2,0,L|32:331,1,120.000000894069,2|2,0:2|0:2,0:0:0:0:
137,63,17199,6,0,P|189:28|249:28,1,120.000000894069,2|2,0:2|0:2,0:0:0:0:
340,33,18066,1,2,0:2:0:0:
419,87,18413,2,0,B|455:164|388:164|424:257,1,160.000001192092,2|0,0:2|0:0,0:0:0:0:
466,326,19454,1,0,0:0:0:0:
381,371,19800,2,0,L|252:368,1,120.000000894069,2|2,0:2|0:2,0:0:0:0:
170,334,20668,1,2,0:2:0:0:
60,240,21188,6,0,P|6:184|6:90,1,160.000001192092,2|0,0:2|0:0,0:0:0:0:
29,13,22228,1,2,0:2:0:0:
120,40,22575,2,0,L|175:36,1,40.000000298023,8|8,0:2|0:2,0:0:0:0:
264,136,23269,2,0,L|304:133,1,40.000000298023,8|8,0:2|0:2,0:0:0:0:
446,111,23962,6,0,B|449:172|449:172|457:195|457:195|461:283,1,160.000001192092,4|0,1:0|1:0,0:0:0:0:
446,364,25003,1,0,1:0:0:0:
364,312,25350,2,0,P|321:303|279:313,1,80.000000596046,0|0,1:0|1:0,0:0:0:0:
204,361,26043,2,0,P|161:369|119:359,1,80.000000596046,0|0,1:0|1:0,0:0:0:0:
62,289,26737,6,0,L|66:200,2,80.000000596046,0|0|0,1:0|1:0|1:0,0:0:0:0:
125,361,27777,1,0,1:0:0:0:
196,296,28124,2,0,P|240:288|281:297,1,80.000000596046,0|0,1:0|1:0,0:0:0:0:
350,353,28818,2,0,P|394:360|435:352,1,80.000000596046,0|0,1:0|1:0,0:0:0:0:
498,289,29511,6,0,L|493:112,1,160.000001192092,0|0,1:0|1:0,0:0:0:0:
432,54,30552,1,0,1:0:0:0:
354,111,30899,2,0,B|277:152|277:98|187:118,1,160.000001192092,0|2,1:0|1:2,0:0:0:0:
108,148,31939,1,0,1:0:0:0:
53,226,32286,6,0,L|56:316,1,80.000000596046,0|4,1:0|1:0,0:0:0:0:
132,363,32980,2,0,P|180:373|220:362,1,80.000000596046,4|4,1:0|1:0,0:0:0:0:
291,317,33673,2,0,P|339:307|379:318,1,80.000000596046,4|4,1:0|1:0,0:0:0:0:
460,341,34367,1,8,0:2:0:0:
497,252,34714,1,4,3:0:0:0:
423,190,35061,6,0,B|355:188|355:188|327:196|327:196|247:192,1,160.000001192092,4|8,1:2|0:2,0:0:0:0:
174,157,36101,1,0,0:0:0:0:
112,230,36448,2,0,L|116:324,1,80.000000596046,0|0,0:0|1:0,0:0:0:0:
189,371,37142,2,0,L|283:367,1,80.000000596046,8|4,0:2|1:0,0:0:0:0:
350,316,37835,6,0,B|380:238|319:238|348:147,1,160.000001192092,4|8,1:0|0:2,0:0:0:0:
375,69,38876,1,0,0:0:0:0:
290,23,39222,2,0,P|250:15|203:26,1,80.000000596046,0|0,0:0|0:0,0:0:0:0:
124,63,39916,2,0,P|84:71|37:60,1,80.000000596046,8|4,0:2|1:0,0:0:0:0:
4,151,40610,6,0,L|6:241,1,80.000000596046,4|8,1:0|0:2,0:0:0:0:
58,310,41303,1,0,1:0:0:0:
152,326,41650,1,8,0:2:0:0:
218,256,41997,2,0,P|276:239|339:265,1,120.000000894069,0|0,1:0|1:0,0:0:0:0:
410,311,42864,2,0,L|482:311,1,40.000000298023,0|8,1:0|0:2,0:0:0:0:
506,233,43384,6,0,L|509:148,1,80.000000596046,4|8,1:0|0:2,0:0:0:0:
471,64,44078,1,0,1:0:0:0:
375,55,44425,1,8,0:2:0:0:
308,124,44772,2,0,L|310:254,1,120.000000894069,0|0,1:0|1:0,0:0:0:0:
242,312,45639,2,0,L|187:310,1,40.000000298023,0|8,1:0|0:2,0:0:0:0:
121,258,46159,6,0,P|114:219|122:179,1,80.000000596046,4|8,1:0|0:2,0:0:0:0:
167,95,46852,1,0,1:0:0:0:
262,83,47199,1,8,0:2:0:0:
335,145,47546,2,0,B|413:182|413:118|502:148,1,160.000001192092,0|0,1:0|0:0,0:0:0:0:
457,235,48587,1,8,0:2:0:0:
398,310,48933,6,0,L|310:305,1,80.000000596046,8|8,0:2|0:2,0:0:0:0:
242,246,49627,2,0,L|154:251,1,80.000000596046,8|8,0:2|0:2,0:0:0:0:
77,204,50321,2,0,L|79:153,1,40.000000298023,8|8,0:2|0:2,0:0:0:0:
389,36,51708,6,0,L|487:30,2,80.000000596046,4|8|0,1:0|0:2|1:0,0:0:0:0:
318,101,52748,1,8,0:2:0:0:
372,180,53095,2,0,P|381:230|371:266,1,80.000000596046,0|8,1:0|0:2,0:0:0:0:
311,330,53789,2,0,L|222:324,1,80.000000596046,0|8,0:0|0:2,0:0:0:0:
158,263,54483,6,0,B|128:185|182:185|158:100,1,160.000001192092,0|0,1:0|1:0,0:0:0:0:
108,27,55523,1,8,0:2:0:0:
31,85,55870,2,0,L|34:180,1,80.000000596046,0|8,1:0|0:2,0:0:0:0:
115,214,56563,2,0,L|112:309,1,80.000000596046,0|8,3:0|0:2,0:0:0:0:
183,359,57257,6,0,P|221:368|266:359,2,80.000000596046,4|8|0,1:0|0:2|1:0,0:0:0:0:
112,293,58298,1,8,0:2:0:0:
192,241,58644,2,0,P|202:199|193:154,1,80.000000596046,0|8,1:0|0:2,0:0:0:0:
118,106,59338,2,0,P|108:64|117:19,1,80.000000596046,0|8,0:0|0:2,0:0:0:0:
203,62,60032,6,0,B|373:62|204:69|373:68,1,160.000001192092,4|0,1:0|1:0,0:0:0:0:
450,31,61072,1,8,0:2:0:0:
480,123,61419,2,0,L|478:178,1,40.000000298023,12|12,0:2|0:2,0:0:0:0:
344,216,62113,2,0,L|346:161,1,40.000000298023,12|12,0:2|0:2,0:0:0:0:
267,54,62806,6,0,P|224:46|179:57,2,80.000000596046,4|8|0,1:0|0:2|1:0,0:0:0:0:
352,98,63847,1,8,0:2:0:0:
403,178,64194,2,0,L|401:271,1,80.000000596046,0|8,1:0|0:2,0:0:0:0:
349,339,64887,2,0,P|310:349|271:340,1,80.000000596046,0|8,0:0|0:2,0:0:0:0:
189,290,65581,6,0,B|19:290|188:297|19:296,1,160.000001192092,0|0,1:0|1:0,0:0:0:0:
23,198,66621,1,8,0:2:0:0:
84,124,66968,2,0,P|124:113|167:122,1,80.000000596046,2|10,1:2|0:2,0:0:0:0:
246,164,67662,2,0,P|286:175|329:166,1,80.000000596046,2|8,1:2|0:2,0:0:0:0:
392,101,68355,6,0,L|388:11,2,80.000000596046,4|8|0,1:0|0:2|1:0,0:0:0:0:
323,168,69396,1,8,0:2:0:0:
232,135,69743,2,0,L|144:137,1,80.000000596046,0|8,1:0|0:2,0:0:0:0:
74,193,70436,2,0,P|66:243|77:284,1,80.000000596046,0|8,0:0|0:2,0:0:0:0:
130,347,71130,6,0,B|208:383|208:317|298:350,1,160.000001192092,4|0,1:0|1:0,0:0:0:0:
378,370,72170,1,8,0:2:0:0:
445,301,72517,2,0,P|464:247|439:181,2,120.000000894069,4|4|8,1:0|1:0|0:2,0:0:0:0:
368,241,73905,6,0,B|291:207|291:281|197:251,1,160.000001192092,4|8,1:0|0:2,0:0:0:0:
132,205,74945,1,0,0:0:0:0:
78,126,75292,2,0,L|81:39,2,80.000000596046,0|0|8,0:0|0:0|0:2,0:0:0:0:
132,205,76332,1,4,1:0:0:0:
206,144,76679,6,0,B|376:144|207:151|376:150,1,160.000001192092,4|8,1:0|0:2,0:0:0:0:
448,102,77720,1,0,0:0:0:0:
483,192,78066,2,0,L|477:284,2,80.000000596046,0|0|8,1:0|0:0|0:2,0:0:0:0:
448,102,79107,1,4,1:0:0:0:
373,39,79454,6,0,P|301:11|221:42,1,160.000001192092,0|8,1:0|0:2,0:0:0:0:
156,103,80494,1,8,0:2:0:0:
100,181,80841,2,0,L|102:225,1,40.000000298023,0|0,1:0|1:0,0:0:0:0:
287,372,81881,1,10,0:2:0:0:
350,299,82228,6,0,L|347:126,1,160.000001192092,4|2,1:0|1:2,0:0:0:0:
288,62,83269,1,10,0:2:0:0:
200,100,83615,2,0,L|110:99,1,80.000000596046,0|8,1:0|0:2,0:0:0:0:
35,145,84309,2,0,P|25:194|33:234,1,80.000000596046,2|10,0:0|0:2,0:0:0:0:
90,297,85003,6,0,B|169:326|169:270|254:298,1,160.000001192092,0|2,1:0|1:2,0:0:0:0:
336,329,86043,1,10,0:2:0:0:
403,261,86390,2,0,L|399:177,1,80.000000596046,2|8,1:2|0:2,0:0:0:0:
324,120,87084,2,0,L|328:36,1,80.000000596046,2|10,0:2|0:2,0:0:0:0:
236,8,87777,6,0,B|172:11|172:11|138:-3|138:-3|66:-1,1,160.000001192092,4|2,1:0|1:2,0:0:0:0:
6,62,88818,1,10,0:2:0:0:
70,134,89165,2,0,P|111:145|157:130,1,80.000000596046,2|8,1:2|0:2,0:0:0:0:
226,81,89858,2,0,P|267:70|313:85,1,80.000000596046,2|10,0:0|0:2,0:0:0:0:
379,138,90552,6,0,B|401:216|352:216|370:309,1,160.000001192092,2|2,1:2|1:2,0:0:0:0:
294,356,91592,1,10,0:2:0:0:
208,312,91939,2,0,L|76:316,2,120.000000894069,2|2|8,1:2|1:2|0:2,0:0:0:0:
252,226,93326,6,0,P|260:188|243:137,2,80.000000596046,12|8|8,0:2|0:2|0:2,0:0:0:0:
208,312,94367,1,8,0:2:0:0:
127,259,94714,2,0,L|37:263,2,80.000000596046,12|8|8,0:2|0:2|0:2,0:0:0:0:
199,196,95754,1,8,0:2:0:0:
141,118,96101,6,0,P|129:77|142:31,1,80.000000596046,12|8,0:2|0:2,0:0:0:0:
225,4,96795,2,0,L|312:6,1,80.000000596046,8|8,0:2|0:2,0:0:0:0:
380,65,97488,2,0,L|467:63,2,80.000000596046,12|12|8,0:2|0:2|0:2,0:0:0:0:
302,121,98529,1,8,0:2:0:0:
329,212,98876,6,0,P|336:256|326:302,2,80.000000596046,12|8|8,0:2|0:2|0:2,0:0:0:0:
302,121,99916,1,8,0:2:0:0:
214,160,100263,2,0,P|170:167|124:157,2,80.000000596046,12|8|8,0:2|0:2|0:2,0:0:0:0:
175,72,101303,1,8,0:2:0:0:
107,3,101650,6,0,P|63:-4|17:6,1,80.000000596046,12|8,0:2|0:2,0:0:0:0:
1,94,102344,2,0,L|4:187,1,80.000000596046,8|8,0:2|0:2,0:0:0:0:
64,248,103037,2,0,L|122:250,1,40.000000298023,12|12,0:2|0:2,0:0:0:0:
230,179,103731,2,0,L|269:180,1,40.000000298023,12|12,0:2|0:2,0:0:0:0:
67,49,104772,5,2,0:0:0:0:
256,192,104945,12,2,108326,0:0:0:0:
