osu file format v14

[General]
AudioFilename: audio.mp3
AudioLeadIn: 0
PreviewTime:51599
Countdown: 0
SampleSet: Soft
StackLeniency: 0.7
Mode: 0
LetterboxInBreaks: 0
WidescreenStoryboard: 1

[Editor]
DistanceSpacing: 1.1
BeatDivisor: 4
GridSize: 16
TimelineZoom: 3.799999

[Metadata]
Title:Snow halation (NICO Mix)
TitleUnicode:Snow halation(NICO Mix)
Artist:Yazawa Nico (CV: Tokui Sora)
ArtistUnicode:矢澤にこ (CV: 徳井青空)
Creator:Blitzifyyy
Version:Demonical's Normal
Source:ラブライブ! School idol project
Tags:µ's u's muse lovelive! love live! japanese anime mononymous mono demonical crescxnt baar_vendel theblank zan zan1to
BeatmapID:2228256
BeatmapSetID:1051318

[Difficulty]
HPDrainRate:3.5
CircleSize:3
OverallDifficulty:4
ApproachRate:5.5
SliderMultiplier:1.1
SliderTickRate:1

[Events]
//Background and Video events
0,0,"Nico.jpg",0,0
//Break Periods
//Storyboard Layer 0 (Background)
//Storyboard Layer 1 (Fail)
//Storyboard Layer 2 (Pass)
//Storyboard Layer 3 (Foreground)
//Storyboard Layer 4 (Overlay)
//Storyboard Sound Samples

[TimingPoints]
379,346.820809248555,4,2,1,50,1,0
379,-133.333333333333,4,2,1,50,0,0
10176,-133.333333333333,4,2,1,40,0,0
11477,-133.333333333333,4,2,1,50,0,0
12864,-111.111111111111,4,2,1,40,0,0
22488,-111.111111111111,4,2,1,5,0,0
22575,-111.111111111111,4,2,1,60,0,0
35061,-105.263157894737,4,2,1,60,0,0
40610,-105.263157894737,4,2,1,70,0,0
48933,-105.263157894737,4,2,1,75,0,0
51708,-100,4,2,1,85,0,1
61332,-100,4,2,1,5,0,1
61419,-100,4,2,1,85,0,1
62720,-100,4,2,1,75,0,1
62806,-100,4,2,1,85,0,1
72431,-100,4,2,1,5,0,1
72517,-100,4,2,1,85,0,1
73905,-100,4,2,1,55,0,0
76592,-100,4,2,1,5,0,0
76679,-100,4,2,1,70,0,0
79367,-100,4,2,1,5,0,0
79454,-100,4,2,1,70,0,0
82228,-100,4,2,1,70,0,0
92199,-100,4,2,1,5,0,0
92286,-100,4,2,1,70,0,0
92720,-100,4,2,1,5,0,0
92806,-100,4,2,1,70,0,0
93326,-100,4,2,1,85,0,1
104251,-100,4,2,1,60,0,1
104772,-100,4,2,1,60,0,0
114136,-100,4,2,1,5,0,0

[Colours]
Combo1 : 194,133,133
Combo2 : 255,72,72
Combo3 : 216,216,216
Combo4 : 248,78,107

[HitObjects]
0,58,379,6,0,P|35:41|91:46,1,82.5000031471254,2|2,0:2|0:2,0:0:0:0:
142,105,1072,2,0,P|182:105|219:88,1,82.5000031471254,2|2,0:2|0:2,0:0:0:0:
258,63,1592,1,2,0:2:0:0:
258,63,1766,2,0,B|267:206,1,123.750004720688,2|2,0:2|0:2,0:0:0:0:
314,263,2633,2,0,P|368:264|397:241,1,82.5000031471254,2|2,0:2|0:2,0:0:0:0:
402,205,3153,6,0,L|400:110,1,82.5000031471254,2|2,0:2|0:2,0:0:0:0:
398,77,3673,1,2,0:2:0:0:
167,32,4540,6,0,P|129:84|126:110,1,82.5000031471254,2|2,0:2|0:2,0:0:0:0:
140,143,5061,1,2,0:2:0:0:
140,143,5234,2,0,B|234:145,1,82.5000031471254,2|2,0:2|0:2,0:0:0:0:
278,216,5928,2,0,P|251:251|246:296,1,82.5000031471254,2|2,0:2|0:2,0:0:0:0:
282,314,6448,1,2,0:2:0:0:
369,337,6795,2,0,P|384:363|388:390,2,41.2500015735627,2|2|2,0:2|0:2|0:2,0:0:0:0:
391,297,7315,6,0,L|401:213,1,82.5000031471254,2|2,0:2|0:2,0:0:0:0:
407,169,7835,1,2,0:2:0:0:
325,128,8182,1,2,0:2:0:0:
246,15,8702,2,0,P|330:36|372:30,1,123.750004720688,2|2,0:2|0:2,0:0:0:0:
408,47,9396,2,0,P|417:83|420:97,1,41.2500015735627,2|2,0:2|0:2,0:0:0:0:
400,129,9743,2,0,P|391:165|388:179,1,41.2500015735627,2|2,0:2|0:2,0:0:0:0:
403,212,10089,5,2,0:2:0:0:
256,192,10176,12,2,11477,0:2:0:0:
32,361,12864,6,0,P|61:327|62:261,1,98.9999969787599,2|2,0:2|0:2,0:0:0:0:
41,225,13384,2,0,L|35:106,1,98.9999969787599,2|0,0:2|0:0,0:0:0:0:
33,71,13905,1,2,0:2:0:0:
133,30,14251,2,0,B|245:25,1,98.9999969787599,2|2,0:2|0:2,0:0:0:0:
341,19,14945,2,0,B|329:46|329:46|352:123,1,98.9999969787599,2|2,0:2|0:2,0:0:0:0:
435,179,15639,6,0,L|434:284,1,98.9999969787599,2|2,0:2|0:2,0:0:0:0:
432,332,16159,1,2,0:2:0:0:
105,347,17199,2,0,L|98:231,1,98.9999969787599,2|2,0:2|0:2,0:0:0:0:
94,193,17720,1,2,0:2:0:0:
169,114,18066,1,2,0:2:0:0:
258,176,18413,6,0,P|231:220|241:284,1,98.9999969787599,2|2,0:2|0:2,0:0:0:0:
261,312,18933,2,0,L|146:330,1,98.9999969787599,2|2,0:2|0:2,0:0:0:0:
80,256,19627,2,0,B|56:212|56:212|61:102,1,148.49999546814,2|2,0:2|0:2,0:0:0:0:
82,63,20321,2,0,L|194:64,1,98.9999969787599,2|2,0:2|0:2,0:0:0:0:
245,148,21014,1,2,0:2:0:0:
245,148,21188,6,0,B|297:147|339:125|339:125|355:171|420:206,1,197.99999395752,2|0,0:2|0:0,0:0:0:0:
469,286,22228,1,2,0:2:0:0:
507,189,22575,5,8,0:2:0:0:
507,189,22748,1,8,0:2:0:0:
418,51,23269,1,8,0:2:0:0:
418,51,23442,1,8,0:2:0:0:
401,213,23962,6,0,L|295:225,1,98.9999969787599,4|0,1:0|1:0,0:0:0:0:
255,195,24483,2,0,L|236:81,1,98.9999969787599,0|0,0:0|0:0,0:0:0:0:
225,44,25003,1,0,1:0:0:0:
127,92,25350,2,0,L|143:189,1,98.9999969787599,0|0,1:0|1:0,0:0:0:0:
55,283,26043,1,0,1:0:0:0:
161,341,26390,1,0,1:0:0:0:
262,275,26737,5,0,1:0:0:0:
347,342,27084,2,0,P|304:378|249:376,1,98.9999969787599,0|0,1:0|1:0,0:0:0:0:
161,341,27777,2,0,L|159:242,1,98.9999969787599,0|0,1:0|1:0,0:0:0:0:
158,187,28298,1,2,0:0:0:0:
250,130,28644,1,2,0:0:0:0:
355,156,28991,2,0,L|370:268,1,98.9999969787599,2|8,0:0|0:2,0:0:0:0:
375,307,29511,5,0,1:0:0:0:
267,290,29858,1,0,1:0:0:0:
267,290,30032,2,0,B|199:288|199:288|159:306,1,98.9999969787599,2|2,0:0|0:0,0:0:0:0:
64,326,30725,2,0,P|62:292|100:228,1,98.9999969787599,2|2,0:0|0:0,0:0:0:0:
137,207,31246,1,0,1:0:0:0:
137,207,31419,1,2,0:0:0:0:
240,241,31766,1,2,0:0:0:0:
294,147,32113,1,2,0:0:0:0:
294,147,32286,5,0,1:0:0:0:
371,223,32633,1,4,1:0:0:0:
360,331,32980,2,0,L|252:325,1,98.9999969787599,4|4,1:0|1:0,0:0:0:0:
249,217,33673,2,0,L|140:233,1,98.9999969787599,4|4,1:0|1:0,0:0:0:0:
46,264,34367,2,0,P|42:295|46:327,1,49.4999984893799,8|4,0:2|3:0,0:0:0:0:
78,355,34714,2,0,P|105:356|130:353,1,49.4999984893799,4|4,3:0|3:0,0:0:0:0:
180,331,35061,5,4,1:2:0:0:
237,231,35407,1,0,0:0:0:0:
190,125,35754,2,0,P|257:135|309:124,1,104.499997209549,8|0,0:2|0:0,0:0:0:0:
338,94,36274,1,0,1:0:0:0:
338,94,36448,2,0,P|346:149|357:198,1,104.499997209549,0|0,0:0|1:0,0:0:0:0:
445,271,37142,1,8,0:2:0:0:
347,331,37488,1,4,1:0:0:0:
238,292,37835,6,0,L|130:293,1,104.499997209549,4|0,1:0|0:0,0:0:0:0:
24,359,38529,2,0,B|10:311|10:311|15:237,1,104.499997209549,8|0,0:2|0:0,0:0:0:0:
26,200,39049,1,0,1:0:0:0:
26,200,39222,2,0,L|135:198,1,104.499997209549,0|0,0:0|0:0,0:0:0:0:
242,172,39916,1,8,0:2:0:0:
329,246,40263,1,4,1:0:0:0:
417,172,40610,6,0,L|414:58,1,104.499997209549,4|8,1:0|0:2,0:0:0:0:
309,20,41303,2,0,L|311:124,1,104.499997209549,0|8,1:0|0:2,0:0:0:0:
206,172,41997,2,0,B|181:145|181:145|91:144,1,104.499997209549,0|8,1:0|0:2,0:0:0:0:
67,179,42517,1,0,1:0:0:0:
67,179,42691,2,0,L|59:303,1,104.499997209549,0|8,0:0|0:2,0:0:0:0:
155,354,43384,6,0,L|274:360,1,104.499997209549,4|8,1:0|0:2,0:0:0:0:
311,256,44078,2,0,L|206:250,1,104.499997209549,0|8,1:0|0:2,0:0:0:0:
111,195,44772,2,0,B|84:170|84:170|81:84,1,104.499997209549,0|8,1:0|0:2,0:0:0:0:
107,50,45292,1,0,1:0:0:0:
107,50,45465,2,0,L|231:45,1,104.499997209549,0|8,0:0|0:2,0:0:0:0:
322,76,46159,6,0,P|341:127|325:193,1,104.499997209549,4|8,1:0|0:2,0:0:0:0:
248,252,46852,2,0,L|136:268,1,104.499997209549,0|8,1:0|0:2,0:0:0:0:
86,273,47373,1,2,0:0:0:0:
23,176,47720,1,2,0:0:0:0:
92,84,48066,1,0,1:0:0:0:
195,134,48413,1,0,1:0:0:0:
286,63,48760,1,0,1:0:0:0:
286,63,48933,6,0,B|333:40|333:40|406:49,1,104.499997209549,8|8,0:2|0:2,0:0:0:0:
432,78,49454,1,0,1:0:0:0:
464,125,49627,2,0,L|473:237,1,104.499997209549,8|8,0:2|0:2,0:0:0:0:
415,329,50321,1,8,0:2:0:0:
415,329,50494,1,8,0:2:0:0:
321,184,51014,2,0,P|287:154|208:147,1,104.499997209549,2|8,0:2|0:2,0:0:0:0:
110,124,51708,5,4,1:0:0:0:
57,234,52055,1,8,0:2:0:0:
130,329,52402,2,0,B|159:348|159:348|256:334,1,110,0|8,1:0|0:2,0:0:0:0:
281,300,52922,2,0,L|260:181,1,110,0|0,0:0|0:0,0:0:0:0:
251,131,53442,1,8,0:2:0:0:
364,173,53789,1,0,0:0:0:0:
476,218,54136,1,8,0:2:0:0:
477,339,54483,6,0,P|422:345|373:324,1,110,0|8,1:0|0:2,0:0:0:0:
338,273,55003,2,0,B|323:230|323:230|334:156,1,110,0|0,0:0|1:0,0:0:0:0:
342,106,55523,1,8,0:2:0:0:
230,59,55870,1,0,1:0:0:0:
136,136,56217,1,8,0:2:0:0:
163,253,56563,2,0,P|158:282|165:329,1,55,0|8,3:0|0:2,0:0:0:0:
185,362,56910,2,0,P|214:367|261:360,1,55,8|0,0:2|1:0,0:0:0:0:
297,349,57257,5,4,1:0:0:0:
264,232,57604,1,8,0:2:0:0:
339,137,57951,2,0,L|461:159,1,110,0|8,1:0|0:2,0:0:0:0:
492,196,58471,1,0,0:0:0:0:
492,196,58644,2,0,P|485:257|451:287,1,110,0|8,1:0|0:2,0:0:0:0:
389,294,59165,1,0,1:0:0:0:
229,381,59685,2,0,P|216:344|222:310,1,55,8|0,0:2|0:0,0:0:0:0:
243,274,60032,6,0,P|160:284|116:265,1,110,4|8,1:0|0:2,0:0:0:0:
24,232,60725,2,0,P|49:193|55:170,1,55,0|0,1:0|1:0,0:0:0:0:
53,124,61072,2,0,L|50:54,1,55,8|0,0:2|0:0,0:0:0:0:
87,21,61419,5,12,0:2:0:0:
87,21,61592,1,12,0:2:0:0:
204,159,62113,1,12,0:2:0:0:
204,159,62286,2,0,B|227:137|227:137|309:131,1,110,12|0,0:2|1:0,0:0:0:0:
366,136,62806,6,0,L|383:261,1,110,4|8,1:0|0:2,0:0:0:0:
402,364,63500,2,0,B|330:344|330:344|276:358,1,110,0|8,1:0|0:2,0:0:0:0:
240,378,64020,2,0,L|229:253,1,110,0|0,0:0|0:0,0:0:0:0:
225,207,64540,1,8,0:2:0:0:
114,255,64887,1,0,0:0:0:0:
3,303,65234,1,8,0:2:0:0:
6,182,65581,6,0,L|10:57,1,110,0|8,1:0|0:2,0:0:0:0:
57,35,66101,2,0,B|133:30|133:30|176:57,1,110,0|0,0:0|1:0,0:0:0:0:
184,104,66621,1,8,0:2:0:0:
168,224,66968,1,2,1:2:0:0:
281,265,67315,1,10,0:2:0:0:
373,186,67662,2,0,L|368:124,1,55,2|8,1:2|0:2,0:0:0:0:
403,81,68009,2,0,P|432:62|456:55,1,55,8|0,0:2|1:0,0:0:0:0:
504,84,68355,5,4,1:0:0:0:
511,204,68702,1,8,0:2:0:0:
511,325,69049,2,0,B|440:339|440:339|398:319,1,110,0|8,1:0|0:2,0:0:0:0:
368,283,69569,1,0,0:0:0:0:
368,283,69743,2,0,P|300:256|244:269,1,110,0|8,1:0|0:2,0:0:0:0:
222,303,70263,1,0,1:0:0:0:
43,337,70783,2,0,P|57:304|59:279,1,55,8|0,0:2|0:0,0:0:0:0:
39,227,71130,6,0,L|11:104,1,110,4|8,1:0|0:2,0:0:0:0:
56,6,71824,2,0,P|91:27|127:30,1,55,0|0,1:0|1:0,0:0:0:0:
165,35,72170,2,0,L|234:31,1,55,8|0,0:2|0:0,0:0:0:0:
276,52,72517,2,0,B|297:86|297:86|285:174,1,110,4|8,1:0|0:2,0:0:0:0:
244,197,73037,1,4,1:0:0:0:
130,237,73384,2,0,P|112:286|117:356,1,110,0|8,1:0|0:2,0:0:0:0:
170,366,73905,5,4,1:0:0:0:
290,359,74251,1,0,0:0:0:0:
410,352,74598,2,0,L|405:233,1,110,8|0,0:2|0:0,0:0:0:0:
283,243,75292,2,0,P|220:264|166:244,1,110,0|0,0:0|0:0,0:0:0:0:
145,202,75812,2,0,L|141:74,1,110,0|0,1:0|0:0,0:0:0:0:
140,31,76332,1,4,1:0:0:0:
21,7,76679,5,4,1:0:0:0:
21,128,77026,2,0,L|24:202,1,55,0|0,0:0|1:0,0:0:0:0:
74,215,77373,2,0,B|108:184|108:184|193:180,1,110,8|0,0:2|0:0,0:0:0:0:
262,261,78066,2,0,P|270:286|269:328,1,55,0|8,1:0|0:2,0:0:0:0:
296,369,78413,1,0,0:0:0:0:
296,369,78587,2,0,L|427:364,1,110,0|0,1:0|1:0,0:0:0:0:
466,359,79107,1,4,1:0:0:0:
491,240,79454,5,0,1:0:0:0:
496,119,79800,2,0,P|448:113|424:122,1,55,0|0,0:0|1:0,0:0:0:0:
403,160,80147,2,0,P|356:177|285:157,1,110,8|8,0:2|0:2,0:0:0:0:
249,54,80841,1,0,1:0:0:0:
249,54,81014,1,0,1:0:0:0:
7,42,81708,1,0,1:0:0:0:
7,42,81881,2,0,L|4:112,1,55,10|2,0:2|0:0,0:0:0:0:
13,157,82228,6,0,B|33:175|33:175|128:177,1,110,4|8,1:0|0:2,0:0:0:0:
205,94,82922,2,0,L|269:93,1,55,2|0,1:2|1:0,0:0:0:0:
320,93,83269,1,10,0:2:0:0:
403,180,83615,2,0,L|402:306,1,110,0|8,1:0|0:2,0:0:0:0:
289,335,84309,2,0,P|235:323|171:342,1,110,2|10,0:0|0:2,0:0:0:0:
124,351,84829,1,0,0:0:0:0:
124,351,85003,6,0,L|123:224,1,110,0|8,1:0|0:2,0:0:0:0:
237,200,85696,2,0,L|235:135,1,55,2|0,1:2|1:0,0:0:0:0:
233,84,86043,1,10,0:2:0:0:
129,21,86390,2,0,P|75:30|42:73,1,110,2|8,1:2|0:2,0:0:0:0:
23,191,87084,2,0,P|32:226|47:243,1,55,2|8,0:2|0:2,0:0:0:0:
90,279,87431,2,0,P|124:288|147:284,1,55,10|0,0:2|1:0,0:0:0:0:
195,256,87777,6,0,L|191:138,1,110,4|8,1:0|0:2,0:0:0:0:
240,35,88471,2,0,P|284:18|306:22,1,55,2|0,1:2|1:0,0:0:0:0:
349,32,88818,1,10,0:2:0:0:
444,106,89165,2,0,B|415:132|415:132|421:225,1,110,2|8,1:2|0:2,0:0:0:0:
456,318,89858,2,0,L|388:315,1,55,2|0,0:0|1:0,0:0:0:0:
340,311,90205,1,10,0:2:0:0:
228,358,90552,6,0,L|102:363,1,110,2|8,1:2|0:2,0:0:0:0:
45,265,91246,2,0,L|46:189,1,55,2|0,1:2|1:0,0:0:0:0:
44,149,91592,1,10,0:2:0:0:
46,27,91939,2,0,B|76:1|76:1|152:4,1,110,2|8,1:2|0:2,0:0:0:0:
198,34,92459,2,0,L|206:159,1,110,2|8,1:2|0:2,0:0:0:0:
213,205,92980,1,8,0:2:0:0:
93,185,93326,6,0,L|102:294,2,110,12|8|8,0:2|0:2|0:2,0:0:0:0:
203,235,94367,1,8,0:2:0:0:
268,133,94714,2,0,B|291:114|291:114|391:114,2,110,12|8|8,0:2|0:2|0:2,0:0:0:0:
301,249,95754,1,8,0:2:0:0:
418,278,96101,6,0,P|446:233|446:165,2,110,12|8|8,0:2|0:2|0:2,0:0:0:0:
301,249,97142,1,8,0:2:0:0:
214,332,97488,2,0,P|174:365|156:374,1,55,12|0,0:2|1:0,0:0:0:0:
111,374,97835,2,0,P|62:355|45:344,1,55,12|0,0:2|1:0,0:0:0:0:
45,295,98182,1,8,0:2:0:0:
61,175,98529,1,8,0:2:0:0:
170,122,98876,6,0,L|304:127,1,110,12|8,0:2|0:2,0:0:0:0:
398,151,99569,1,8,0:2:0:0:
450,260,99916,1,8,0:2:0:0:
364,345,100263,2,0,B|335:328|335:328|244:329,1,110,12|8,0:2|0:2,0:0:0:0:
142,364,100957,1,8,0:2:0:0:
69,267,101303,1,8,0:2:0:0:
75,146,101650,6,0,P|95:103|117:84,1,55,12|0,0:2|1:0,0:0:0:0:
156,75,101997,2,0,P|199:95|218:116,1,55,8|0,0:2|1:0,0:0:0:0:
227,156,102344,2,0,P|207:199|185:218,1,55,8|0,0:2|1:0,0:0:0:0:
147,230,102691,1,8,0:2:0:0:
208,334,103037,5,12,0:2:0:0:
208,334,103211,1,12,0:2:0:0:
389,340,103731,1,12,0:2:0:0:
389,340,103905,2,0,B|368:286|368:286|382:190,1,137.5,12|8,0:2|0:2,0:0:0:0:
408,58,104772,5,2,0:0:0:0:
256,192,104858,12,2,108326,0:0:0:0:
