osu file format v14

[General]
AudioFilename: audio.mp3
AudioLeadIn: 0
PreviewTime: 51599
Countdown: 0
SampleSet: Soft
StackLeniency: 0.7
Mode: 0
LetterboxInBreaks: 0
WidescreenStoryboard: 1

[Editor]
Bookmarks: 31570,51686,63131
DistanceSpacing: 0.6
BeatDivisor: 4
GridSize: 16
TimelineZoom: 3.599998

[Metadata]
Title:Snow halation (NICO Mix)
TitleUnicode:Snow halation(NICO Mix)
Artist:Yazawa Nico (CV: Tokui Sora)
ArtistUnicode:矢澤にこ (CV: 徳井青空)
Creator:Blitzifyyy
Version:TheBlank's Insane
Source:ラブライブ! School idol project
Tags:µ's u's muse lovelive! love live! japanese anime mononymous mono demonical crescxnt baar_vendel theblank zan zan1to
BeatmapID:2201292
BeatmapSetID:1051318

[Difficulty]
HPDrainRate:5.5
CircleSize:3.5
OverallDifficulty:8.5
ApproachRate:8.8
SliderMultiplier:1.6
SliderTickRate:1

[Events]
//Background and Video events
0,0,"Nico.jpg",0,0
//Break Periods
//Storyboard Layer 0 (Background)
//Storyboard Layer 1 (Fail)
//Storyboard Layer 2 (Pass)
//Storyboard Layer 3 (Foreground)
//Storyboard Layer 4 (Overlay)
//Storyboard Sound Samples

[TimingPoints]
379,346.820809248555,4,2,1,50,1,0
4193,-100,4,2,1,20,0,0
4540,-100,4,2,1,50,0,0
6101,-100,4,2,1,40,0,0
6274,-100,4,2,1,50,0,0
6621,-100,4,2,1,40,0,0
6795,-100,4,2,1,50,0,0
10176,-100,4,2,1,40,0,0
14511,-100,4,2,1,5,0,0
14598,-100,4,2,1,40,0,0
22488,-100,4,2,1,5,0,0
22575,-100,4,2,1,60,0,0
27691,-100,4,2,1,5,0,0
27777,-100,4,2,1,60,0,0
32286,-90.9090909090909,4,2,1,60,0,0
32546,-90.9090909090909,4,2,1,5,0,0
32633,-90.9090909090909,4,2,1,60,0,0
32893,-90.9090909090909,4,2,1,5,0,0
32980,-90.9090909090909,4,2,1,60,0,0
33240,-90.9090909090909,4,2,1,5,0,0
33326,-90.9090909090909,4,2,1,60,0,0
33587,-90.9090909090909,4,2,1,5,0,0
33673,-90.9090909090909,4,2,1,60,0,0
33933,-90.9090909090909,4,2,1,5,0,0
34020,-90.9090909090909,4,2,1,60,0,0
36014,-90.9090909090909,4,2,1,5,0,0
36101,-90.9090909090909,4,2,1,60,0,0
40610,-90.9090909090909,4,2,1,70,0,0
42777,-90.9090909090909,4,2,1,5,0,0
42864,-90.9090909090909,4,2,1,70,0,0
48933,-90.9090909090909,4,2,1,75,0,0
51361,-80,4,2,1,75,0,0
51708,-80,4,2,1,85,0,0
53355,-80,4,2,1,5,0,0
53442,-80,4,2,1,85,0,0
54483,-95.2380952380952,4,2,1,85,0,0
54829,-80,4,2,1,85,0,0
56130,-80,4,2,1,5,0,0
56217,-80,4,2,1,85,0,0
61332,-80,4,2,1,5,0,0
61419,-80,4,2,1,85,0,0
62720,-80,4,2,1,75,0,0
62806,-80,4,2,1,85,0,0
68615,-80,4,2,1,5,0,0
68702,-80,4,2,1,85,0,0
72431,-80,4,2,1,5,0,0
72517,-80,4,2,1,85,0,0
73905,-105.263157894737,4,2,1,55,0,0
74165,-105.263157894737,4,2,1,5,0,0
74251,-105.263157894737,4,2,1,55,0,0
76592,-105.263157894737,4,2,1,5,0,0
76679,-105.263157894737,4,2,1,70,0,0
76939,-105.263157894737,4,2,1,5,0,0
77026,-105.263157894737,4,2,1,70,0,0
77633,-105.263157894737,4,2,1,5,0,0
77720,-105.263157894737,4,2,1,70,0,0
79367,-105.263157894737,4,2,1,5,0,0
79454,-105.263157894737,4,2,1,70,0,0
82228,-90.9090909090909,4,2,1,70,0,0
86303,-90.9090909090909,4,2,1,5,0,0
86390,-90.9090909090909,4,2,1,70,0,0
88037,-90.9090909090909,4,2,1,5,0,0
88124,-90.9090909090909,4,2,1,70,0,0
89945,-90.9090909090909,4,2,1,5,0,0
90032,-90.9090909090909,4,2,1,70,0,0
90465,-90.9090909090909,4,2,1,5,0,0
90552,-90.9090909090909,4,2,1,70,0,0
91852,-90.9090909090909,4,2,1,5,0,0
91939,-90.9090909090909,4,2,1,70,0,0
92199,-90.9090909090909,4,2,1,5,0,0
92286,-90.9090909090909,4,2,1,70,0,0
92720,-90.9090909090909,4,2,1,5,0,0
92806,-90.9090909090909,4,2,1,70,0,0
93326,-80,4,2,1,85,0,0
102951,-80,4,2,1,5,0,0
103037,-80,4,2,1,85,0,0
104251,-80,4,2,1,60,0,0
104772,-400,4,2,1,60,0,0
114136,-312.5,4,2,1,5,0,0

[Colours]
Combo1 : 194,133,133
Combo2 : 255,72,72
Combo3 : 216,216,216
Combo4 : 248,78,107

[HitObjects]
46,120,379,5,2,0:2:0:0:
46,120,552,2,0,L|41:13,2,80,2|2|2,0:2|0:2|0:2,0:0:0:0:
0,217,1072,2,0,B|97:208|52:268|174:265,1,160,2|2,0:2|0:2,0:0:0:0:
226,173,1592,1,2,0:2:0:0:
226,173,1766,6,0,P|186:160|127:199,1,80,2|2,0:2|0:2,0:0:0:0:
265,267,2113,1,2,0:2:0:0:
265,267,2286,2,0,P|262:175|280:95,1,160,2|2,0:2|0:2,0:0:0:0:
338,37,2806,1,2,0:2:0:0:
412,94,2980,1,2,0:2:0:0:
483,42,3153,6,0,B|446:84|446:84|459:210,1,160,2|2,0:2|0:2,0:0:0:0:
489,270,3673,2,0,B|369:256|411:363|258:348,1,240,2|0,0:2|0:0,0:0:0:0:
54,323,4540,5,2,0:2:0:0:
58,327,4714,2,0,P|124:291|158:298,2,80,2|2|2,0:2|0:2|0:2,0:0:0:0:
189,384,5234,2,0,P|167:305|204:123,1,240,2|2,0:2|0:2,0:0:0:0:
201,126,5841,1,2,0:0:0:0:
201,126,5928,6,0,P|160:134|123:121,1,80,2|0,0:2|0:0,0:0:0:0:
21,24,6274,1,2,0:2:0:0:
21,24,6448,2,0,P|62:16|99:29,1,80,2|0,0:2|0:0,0:0:0:0:
201,126,6795,2,0,P|197:76|218:23,2,80,2|2|2,0:2|0:2|0:2,0:0:0:0:
329,130,7315,6,0,B|334:196|334:196|342:203|342:203|347:287,1,160,2|2,0:2|0:2,0:0:0:0:
512,384,7835,2,0,B|506:317|506:317|498:310|498:310|494:227,1,160,2|2,0:2|0:2,0:0:0:0:
512,59,8702,6,0,B|377:51|431:142|273:129,1,240,2|2,0:2|0:2,0:0:0:0:
217,0,9396,2,0,P|231:56|218:102,1,80,2|2,0:2|0:2,0:0:0:0:
122,90,9743,2,0,P|108:34|121:-12,1,80,2|2,0:2|0:2,0:0:0:0:
183,168,10089,5,2,0:2:0:0:
256,192,10176,12,0,12691,0:0:0:0:
43,315,12864,6,0,P|95:305|139:325,1,80,2|0,0:2|0:0,0:0:0:0:
210,384,13211,1,2,0:2:0:0:
210,384,13384,2,0,P|212:331|313:342,1,160,2|0,0:2|0:0,0:0:0:0:
427,214,13905,1,2,0:2:0:0:
338,222,14078,1,2,0:2:0:0:
278,165,14251,6,0,P|274:96|322:34,1,120,2|0,0:2|0:0,0:0:0:0:
363,4,14598,2,0,B|324:27|324:27|188:12,2,160,2|2|2,0:2|0:2|0:2,0:0:0:0:
209,14,15639,6,0,P|169:17|127:56,1,80,2|0,0:2|0:0,0:0:0:0:
103,119,15985,1,2,0:2:0:0:
26,34,16159,6,0,B|96:121|52:231|12:181|-8:313|22:370|22:370|75:307|146:345,1,480,2|2,0:2|0:2,0:0:0:0:
143,348,17373,5,2,0:2:0:0:
162,242,17546,1,2,0:2:0:0:
252,309,17720,5,2,0:2:0:0:
260,384,17893,1,2,0:2:0:0:
353,285,18066,5,2,0:2:0:0:
357,258,18240,1,2,0:2:0:0:
512,384,18413,6,0,L|505:299,1,80,2|0,0:2|0:0,0:0:0:0:
494,167,18760,1,2,0:2:0:0:
494,167,18933,2,0,B|430:162|430:162|409:176|409:176|320:171,1,160,2|2,0:2|0:2,0:0:0:0:
338,172,19627,1,2,0:2:0:0:
283,78,19800,6,0,P|234:70|187:89,1,80,2|0,0:2|0:0,0:0:0:0:
130,171,20147,1,2,0:2:0:0:
130,171,20321,2,0,P|116:58|79:9,2,160,2|2|2,0:2|0:2|0:2,0:0:0:0:
0,238,21188,6,0,P|49:227|107:332,1,160,2|0,0:2|0:0,0:0:0:0:
41,384,21708,1,0,0:0:0:0:
188,308,22055,5,2,0:2:0:0:
256,340,22228,1,2,0:2:0:0:
194,383,22402,1,2,0:2:0:0:
354,184,22575,5,8,0:2:0:0:
328,383,22748,1,8,0:2:0:0:
162,109,23269,5,8,0:2:0:0:
188,308,23442,1,8,0:2:0:0:
410,125,23615,5,8,0:2:0:0:
385,108,23702,1,8,0:2:0:0:
355,102,23789,1,8,0:2:0:0:
326,107,23876,1,8,0:2:0:0:
300,122,23962,6,0,P|247:149|201:140,1,80,4|0,1:0|0:0,0:0:0:0:
135,36,24309,1,0,1:0:0:0:
135,36,24483,2,0,P|162:89|153:135,2,80,0|0|0,0:0|1:0|0:0,0:0:0:0:
0,0,25003,1,0,1:0:0:0:
75,94,25176,1,0,0:0:0:0:
0,239,25350,6,0,P|57:230|102:251,1,80,0|0,1:0|0:0,0:0:0:0:
161,108,25696,2,0,P|207:141|224:188,1,80,0|0,1:0|0:0,0:0:0:0:
140,368,26043,6,0,P|149:311|128:266,1,80,0|0,1:0|0:0,0:0:0:0:
271,207,26390,2,0,P|237:160|190:143,1,80,0|0,1:0|0:0,0:0:0:0:
278,233,26650,1,2,0:0:0:0:
278,233,26737,6,0,L|388:237,1,80,0|0,1:0|0:0,0:0:0:0:
219,365,27084,2,0,L|109:369,1,80,0|0,1:0|0:0,0:0:0:0:
357,235,27431,2,0,L|362:355,1,120,0|0,1:0|0:0,0:0:0:0:
364,384,27777,2,0,L|474:380,1,80,0|0,1:0|0:0,0:0:0:0:
484,233,28124,5,0,1:0:0:0:
484,233,28298,2,0,P|477:295|501:332,1,80,2|0,0:0|1:0,0:0:0:0:
422,154,28644,2,0,P|429:92|405:55,1,80,2|0,0:0|1:0,0:0:0:0:
325,0,28991,5,2,0:0:0:0:
306,92,29165,1,0,1:0:0:0:
130,0,29338,1,8,0:2:0:0:
163,222,29511,6,0,L|152:142,1,80,0|0,1:0|0:0,0:0:0:0:
34,85,29858,1,0,1:0:0:0:
34,85,30032,2,0,L|23:164,1,80,0|0,0:0|1:0,0:0:0:0:
0,322,30379,2,0,B|46:345|85:324|67:313|114:290|155:314,1,160,0|0,0:0|0:0,0:0:0:0:
187,384,30812,1,2,0:0:0:0:
187,384,30899,6,0,P|179:334|196:294,1,80,0|0,1:0|0:0,0:0:0:0:
279,250,31246,1,0,1:0:0:0:
279,250,31419,1,0,0:0:0:0:
357,373,31592,5,2,1:2:0:0:
263,346,31766,1,0,0:0:0:0:
418,285,31939,5,0,1:0:0:0:
512,258,32113,1,0,0:0:0:0:
376,165,32286,6,0,P|435:180|470:129,1,132.00000402832,0|0,1:0|0:0,0:0:0:0:
396,85,32633,6,0,B|366:64|366:64|250:44,1,132.00000402832,4|0,1:0|0:0,0:0:0:0:
151,0,32980,2,0,B|180:20|180:20|296:40,1,132.00000402832,4|0,1:0|0:0,0:0:0:0:
175,41,33326,6,0,B|140:101|140:101|151:196,1,132.00000402832,4|0,1:0|0:0,0:0:0:0:
123,255,33673,6,0,L|107:123,1,132.00000402832,4|0,1:0|0:0,0:0:0:0:
75,39,34020,2,0,L|59:170,1,132.00000402832,4|8,1:0|0:2,0:0:0:0:
56,200,34367,5,8,0:2:0:0:
244,123,34540,1,4,3:0:0:0:
216,324,34714,5,4,3:0:0:0:
172,216,34887,1,4,3:0:0:0:
397,182,35061,6,0,B|361:226|361:226|377:378,1,176.000005371094,4|0,1:2|0:0,0:0:0:0:
512,243,35581,1,0,1:0:0:0:
512,243,35754,6,0,B|498:111,1,132.00000402832,8|0,0:2|0:0,0:0:0:0:
496,89,36101,1,0,0:0:0:0:
342,23,36274,1,0,1:0:0:0:
342,23,36448,6,0,B|266:29|266:29|244:44|244:44|156:50,2,176.000005371094,0|0|8,0:0|1:0|0:2,0:0:0:0:
361,227,37315,1,0,1:0:0:0:
267,30,37488,1,4,1:0:0:0:
218,130,37662,1,0,0:0:0:0:
59,7,37835,6,0,B|99:42|99:42|104:178,1,176.000005371094,4|0,1:0|0:0,0:0:0:0:
106,293,38355,1,0,1:0:0:0:
265,221,38529,2,0,P|222:213|180:226,1,88.000002685547,8|0,0:2|0:0,0:0:0:0:
309,320,38876,1,0,0:0:0:0:
309,320,39049,6,0,P|292:250|320:115,1,176.000005371094,0|8,1:0|0:2,0:0:0:0:
419,62,39569,1,0,0:0:0:0:
403,204,39743,1,0,1:0:0:0:
337,22,39916,2,0,P|380:18|419:37,1,88.000002685547,8|0,0:2|0:0,0:0:0:0:
285,143,40263,2,0,L|159:122,1,88.000002685547,4|0,1:0|0:0,0:0:0:0:
119,78,40523,1,0,0:0:0:0:
119,78,40610,6,0,P|122:21|154:-20,1,88.000002685547,4|0,1:0|0:0,0:0:0:0:
287,164,40957,2,0,P|284:221|252:262,1,88.000002685547,8|0,0:2|0:0,0:0:0:0:
83,207,41303,1,0,1:0:0:0:
204,184,41477,1,0,1:0:0:0:
75,311,41650,2,0,P|122:342|142:390,1,88.000002685547,8|0,0:2|0:0,0:0:0:0:
228,348,41910,1,2,0:0:0:0:
228,348,41997,6,0,P|231:291|263:250,1,88.000002685547,0|0,1:0|0:0,0:0:0:0:
373,362,42344,1,8,0:2:0:0:
373,362,42517,2,0,P|363:273|383:210,1,132.00000402832,0|0,1:0|0:0,0:0:0:0:
385,213,42864,1,0,1:0:0:0:
512,121,43037,2,0,B|469:120|469:120|464:122|464:122|418:120,1,88.000002685547,8|0,0:2|0:0,0:0:0:0:
341,87,43298,1,2,0:0:0:0:
341,87,43384,6,0,L|346:-20,1,88.000002685547,4|0,1:0|0:0,0:0:0:0:
183,147,43731,2,0,L|187:234,1,88.000002685547,8|0,0:2|0:0,0:0:0:0:
351,300,44078,1,0,1:0:0:0:
187,234,44251,1,0,1:0:0:0:
53,347,44425,2,0,L|47:230,1,88.000002685547,8|0,0:2|0:0,0:0:0:0:
0,185,44685,1,2,0:0:0:0:
0,185,44772,6,0,P|56:169|103:193,1,88.000002685547,0|0,1:0|0:0,0:0:0:0:
222,93,45118,1,8,0:2:0:0:
222,93,45292,2,0,P|181:109|139:100,1,88.000002685547,0|0,1:0|0:0,0:0:0:0:
43,0,45639,1,0,1:0:0:0:
303,23,45812,2,0,B|347:28|347:28|352:25|352:25|402:31,1,88.000002685547,8|0,0:2|0:0,0:0:0:0:
436,109,46072,1,2,0:0:0:0:
436,109,46159,6,0,P|370:122|334:100,1,88.000002685547,4|0,1:0|0:0,0:0:0:0:
139,100,46506,2,0,P|204:86|240:108,1,88.000002685547,8|0,0:2|0:0,0:0:0:0:
263,250,46852,5,0,1:0:0:0:
353,118,47026,1,0,1:0:0:0:
376,355,47199,1,8,0:2:0:0:
252,239,47373,1,0,0:0:0:0:
138,369,47546,6,0,P|125:327|131:283,1,88.000002685547,0|0,1:0|0:0,0:0:0:0:
222,97,47893,1,8,0:2:0:0:
222,97,48066,2,0,P|234:138|228:182,1,88.000002685547,0|0,1:0|0:0,0:0:0:0:
131,283,48413,1,0,1:0:0:0:
39,42,48587,1,8,0:2:0:0:
39,42,48673,1,8,0:2:0:0:
39,42,48760,1,0,1:0:0:0:
13,199,48933,5,8,0:2:0:0:
149,151,49107,1,0,1:0:0:0:
267,331,49280,5,8,0:2:0:0:
131,283,49454,1,0,1:0:0:0:
294,156,49627,5,8,0:2:0:0:
430,204,49800,1,0,1:0:0:0:
432,351,49974,5,8,0:2:0:0:
431,225,50147,1,0,1:0:0:0:
512,18,50321,5,8,0:2:0:0:
509,279,50494,1,8,0:2:0:0:
509,279,51014,6,0,L|510:316,6,22.0000006713867,2|0|2|0|2|0|2,0:2|0:0|0:2|0:0|1:2|0:0|0:2,0:0:0:0:
409,224,51361,2,0,P|351:212|296:240,1,100,8|0,0:2|1:0,1:0:0:0:
295,346,51621,1,0,1:0:0:0:
295,346,51708,6,0,B|291:297|291:297|293:290|293:290|287:204,1,100,4|0,1:0|0:0,0:0:0:0:
169,91,52055,2,0,P|216:77|264:89,1,100,8|0,0:2|0:0,0:0:0:0:
122,230,52402,2,0,P|74:243|26:231,1,100,0|0,1:0|1:0,0:0:0:0:
162,74,52748,1,8,0:2:0:0:
213,225,52922,1,0,0:0:0:0:
353,43,53095,6,0,B|357:105|357:105|354:114|354:114|362:226,1,150,0|0,1:0|0:0,0:0:0:0:
363,217,53442,1,8,0:2:0:0:
478,317,53615,2,0,B|474:268|474:268|476:261|476:261|470:175,1,100,0|0,1:0|0:0,0:0:0:0:
355,116,53962,1,0,1:0:0:0:
286,326,54136,2,0,P|229:343|171:321,1,100,8|0,0:2|0:0,0:0:0:0:
175,239,54396,1,2,0:0:0:0:
175,239,54483,6,0,B|176:276|176:276|182:285|182:285|183:352,1,83.9999974365235,0|0,1:0|0:0,0:0:0:0:
0,301,54829,1,8,0:2:0:0:
0,301,55003,2,0,P|66:280|113:310,1,100,0|0,0:0|1:0,0:0:0:0:
175,197,55350,1,0,1:0:0:0:
188,384,55523,2,0,B|186:335|186:335|183:329|183:329|180:242,1,100,8|0,0:2|0:0,0:0:0:0:
197,101,55870,6,0,B|136:104|136:104|117:120|117:120|40:124,1,150,0|0,1:0|0:0,0:0:0:0:
22,127,56217,1,8,0:2:0:0:
129,5,56390,1,0,1:0:0:0:
256,192,56563,1,0,3:0:0:0:
136,104,56737,1,8,0:2:0:0:
364,41,56910,2,0,B|403:43|403:43|413:53|413:53|469:57,1,100,8|0,0:2|1:0,0:0:0:0:
512,136,57170,1,2,0:0:0:0:
512,136,57257,6,0,L|503:249,1,100,4|0,1:0|0:0,0:0:0:0:
283,182,57604,2,0,P|344:177|384:205,1,100,8|0,0:2|0:0,0:0:0:0:
497,349,57951,2,0,P|436:354|396:326,1,100,0|0,1:0|1:0,0:0:0:0:
283,182,58298,1,8,0:2:0:0:
224,348,58471,1,0,0:0:0:0:
224,348,58558,1,0,0:0:0:0:
224,348,58644,6,0,P|196:276|212:232,1,100,0|0,1:0|0:0,0:0:0:0:
164,63,58991,1,8,0:2:0:0:
164,63,59165,2,0,P|192:135|176:179,1,100,0|0,1:0|0:0,0:0:0:0:
76,251,59511,5,0,1:0:0:0:
54,75,59685,1,8,0:2:0:0:
199,256,59858,1,0,0:0:0:0:
296,37,60032,6,0,P|370:26|423:57,1,100,4|0,1:0|0:0,0:0:0:0:
488,155,60379,1,8,0:2:0:0:
345,119,60552,1,0,0:0:0:0:
447,318,60725,1,0,1:0:0:0:
483,175,60899,1,0,1:0:0:0:
306,359,61072,1,8,0:2:0:0:
306,359,61419,5,12,0:2:0:0:
256,149,61592,1,12,0:2:0:0:
256,149,62113,5,12,0:2:0:0:
99,297,62286,1,12,0:2:0:0:
34,46,62459,1,2,0:0:0:0:
34,46,62546,1,2,0:0:0:0:
34,46,62633,1,0,1:0:0:0:
34,46,62720,1,0,1:0:0:0:
34,46,62806,6,0,P|95:30|141:58,1,100,4|0,1:0|0:0,0:0:0:0:
170,229,63153,2,0,L|162:109,1,100,8|0,0:2|0:0,0:0:0:0:
317,11,63500,2,0,L|310:110,1,100,0|0,1:0|1:0,0:0:0:0:
302,261,63847,1,8,0:2:0:0:
163,129,64020,1,0,0:0:0:0:
108,334,64194,6,0,P|175:350|221:326,1,100,0|0,1:0|0:0,0:0:0:0:
308,166,64540,1,8,0:2:0:0:
308,166,64714,2,0,P|292:233|316:279,1,100,0|0,1:0|0:0,0:0:0:0:
420,193,65061,1,0,1:0:0:0:
434,384,65234,2,0,L|425:267,1,100,8|0,0:2|0:0,0:0:0:0:
420,193,65494,1,2,0:0:0:0:
420,192,65581,6,0,P|464:172|512:184,1,100,0|0,1:0|0:0,0:0:0:0:
348,94,65928,1,8,0:2:0:0:
348,94,66101,2,0,P|303:114|255:102,1,100,0|0,0:0|1:0,0:0:0:0:
148,14,66448,1,0,1:0:0:0:
162,205,66621,2,0,L|153:88,1,100,8|0,0:2|0:0,0:0:0:0:
0,275,66968,6,0,P|69:283|104:264,1,100,2|0,1:2|0:0,0:0:0:0:
317,277,67315,2,0,P|248:269|213:288,1,100,10|0,0:2|1:0,0:0:0:0:
119,355,67662,5,2,1:2:0:0:
162,205,67835,1,8,0:2:0:0:
328,384,68009,1,8,0:2:0:0:
312,164,68182,1,0,1:0:0:0:
511,174,68355,6,0,B|470:176|470:176|419:216|419:216|374:216,1,150,4|0,1:0|0:0,0:0:0:0:
307,149,68702,2,0,P|261:125|206:139,1,100,8|0,0:2|0:0,0:0:0:0:
45,44,69049,2,0,P|91:68|146:54,1,100,0|0,1:0|1:0,0:0:0:0:
307,149,69396,1,8,0:2:0:0:
290,0,69569,1,0,0:0:0:0:
132,153,69743,6,0,L|136:279,1,100,0|0,1:0|0:0,0:0:0:0:
255,365,70089,1,8,0:2:0:0:
255,365,70263,2,0,L|258:265,1,100,0|0,1:0|0:0,0:0:0:0:
390,171,70610,1,0,1:0:0:0:
261,234,70783,1,8,0:2:0:0:
418,322,70957,1,0,0:0:0:0:
437,72,71130,6,0,P|371:59|325:88,1,100,4|0,1:0|0:0,0:0:0:0:
261,234,71477,1,8,0:2:0:0:
390,171,71650,1,0,0:0:0:0:
228,12,71824,1,0,1:0:0:0:
255,216,71997,1,0,1:0:0:0:
45,115,72170,2,0,B|109:118|109:118|132:107|132:107|202:110,1,150,8|0,0:2|0:0,0:0:0:0:
222,112,72517,5,4,1:0:0:0:
109,342,72691,1,0,0:0:0:0:
82,234,72864,1,8,0:2:0:0:
292,384,73037,2,0,P|303:323|270:253,1,100,4|0,1:0|0:0,0:0:0:0:
337,171,73384,1,0,1:0:0:0:
401,384,73558,2,0,P|412:323|379:253,1,100,8|8,0:2|0:2,0:0:0:0:
387,242,73818,1,8,0:2:0:0:
387,242,73905,6,0,P|454:250|497:214,1,113.999996955872,4|0,1:0|0:0,0:0:0:0:
484,202,74251,2,0,P|472:120|487:45,2,151.999995941162,0|8|0,0:0|0:2|0:0,0:0:0:0:
378,98,75118,1,0,1:0:0:0:
378,98,75292,6,0,P|316:90|277:111,1,75.9999979705811,0|8,0:0|0:2,0:0:0:0:
237,190,75639,2,0,P|199:195|163:185,1,75.9999979705811,0|0,0:0|1:0,0:0:0:0:
89,93,75985,1,8,0:2:0:0:
89,93,76159,1,0,0:0:0:0:
9,201,76332,2,0,B|-8:235|-8:235|5:342,1,113.999996955872,4|0,1:0|0:0,0:0:0:0:
9,343,76679,6,0,L|135:318,1,113.999996955872,4|0,1:0|0:0,0:0:0:0:
154,314,77026,1,0,0:0:0:0:
240,319,77199,1,0,1:0:0:0:
300,384,77373,2,0,L|435:376,1,113.999996955872,8|0,0:2|0:0,0:0:0:0:
448,374,77720,2,0,L|438:286,1,75.9999979705811,0|0,0:0|1:0,0:0:0:0:
329,217,78066,6,0,L|320:292,1,75.9999979705811,0|8,1:0|0:2,0:0:0:0:
462,209,78413,2,0,L|453:133,1,75.9999979705811,0|0,0:0|1:0,0:0:0:0:
345,35,78760,1,8,0:2:0:0:
345,35,78933,1,0,1:0:0:0:
449,103,79107,2,0,B|411:107|411:107|384:129|384:129|312:136,1,113.999996955872,4|0,1:0|0:0,0:0:0:0:
309,135,79454,6,0,P|261:105|247:57,1,75.9999979705811,0|0,1:0|0:0,0:0:0:0:
162,20,79800,2,0,P|160:76|125:112,1,75.9999979705811,0|0,0:0|1:0,0:0:0:0:
25,116,80147,1,8,0:2:0:0:
25,116,80321,1,0,0:0:0:0:
123,239,80494,1,8,0:2:0:0:
123,239,80581,1,8,0:2:0:0:
123,239,80668,1,8,0:2:0:0:
0,351,80841,5,0,1:0:0:0:
27,104,81014,1,0,1:0:0:0:
256,384,81708,5,0,1:0:0:0:
384,300,81881,1,10,0:2:0:0:
399,299,81968,1,2,0:0:0:0:
413,302,82055,1,2,0:0:0:0:
427,307,82142,1,2,0:0:0:0:
439,315,82228,6,0,P|426:258|448:215,1,88.000002685547,4|0,1:0|0:0,0:0:0:0:
499,87,82575,2,0,P|512:144|490:187,1,88.000002685547,8|0,0:2|0:0,0:0:0:0:
313,148,82922,1,2,1:2:0:0:
422,129,83095,1,0,1:0:0:0:
279,28,83269,2,0,L|161:36,1,88.000002685547,10|0,0:2|0:0,0:0:0:0:
94,42,83529,1,0,0:0:0:0:
94,42,83615,6,0,P|87:95|105:144,1,88.000002685547,0|0,1:0|0:0,0:0:0:0:
188,199,83962,1,8,0:2:0:0:
188,199,84136,1,0,1:0:0:0:
30,289,84309,2,0,P|89:264|138:282,1,88.000002685547,2|0,0:0|1:0,0:0:0:0:
216,370,84656,1,10,0:2:0:0:
202,282,84829,1,0,0:0:0:0:
349,384,85003,6,0,L|354:268,1,88.000002685547,0|0,1:0|0:0,0:0:0:0:
357,168,85350,1,8,0:2:0:0:
480,263,85523,1,0,0:0:0:0:
480,263,85696,2,0,L|475:147,1,88.000002685547,2|0,1:2|1:0,0:0:0:0:
411,38,86043,2,0,B|346:33|346:33|343:39|343:39|261:34,1,132.00000402832,10|0,0:2|0:0,0:0:0:0:
242,32,86390,6,0,L|233:136,1,88.000002685547,2|0,1:2|0:0,0:0:0:0:
86,195,86737,2,0,L|79:107,1,88.000002685547,8|0,0:2|1:0,0:0:0:0:
227,240,87084,1,2,0:2:0:0:
235,119,87257,1,8,0:2:0:0:
94,316,87431,1,10,0:2:0:0:
86,195,87604,1,0,1:0:0:0:
278,358,87777,6,0,L|410:350,1,132.00000402832,4|0,1:0|0:0,0:0:0:0:
435,348,88124,1,8,0:2:0:0:
512,260,88298,1,0,0:0:0:0:
512,260,88471,2,0,P|516:215|490:160,1,88.000002685547,2|0,1:2|1:0,0:0:0:0:
396,115,88818,1,10,0:2:0:0:
396,115,88991,1,0,0:0:0:0:
511,6,89165,6,0,P|457:-7|397:18,1,88.000002685547,2|0,1:2|0:0,0:0:0:0:
318,53,89511,1,8,0:2:0:0:
318,53,89685,2,0,B|263:48|263:48|251:57|251:57|189:52,1,132.00000402832,0|0,1:0|0:0,0:0:0:0:
162,49,90032,1,0,1:0:0:0:
30,14,90205,2,0,B|-1:46|-1:46|11:155,1,132.00000402832,10|0,0:2|0:0,0:0:0:0:
17,163,90552,5,2,1:2:0:0:
125,237,90725,2,0,L|114:142,2,88.000002685547,0|8|0,0:0|0:2|0:0,0:0:0:0:
38,319,91246,1,2,1:2:0:0:
38,319,91419,1,0,1:0:0:0:
166,382,91592,2,0,B|220:376|220:376|239:355|239:355|310:344,1,132.00000402832,10|0,0:2|0:0,0:0:0:0:
313,343,91939,5,2,1:2:0:0:
410,316,92113,1,0,0:0:0:0:
479,384,92286,1,8,0:2:0:0:
512,196,92459,6,0,L|519:143,2,44.0000013427735,2|0|0,1:2|1:0|1:0,0:0:0:0:
376,384,92806,1,8,0:2:0:0:
340,165,92980,1,8,0:2:0:0:
340,165,93066,1,8,0:2:0:0:
340,165,93153,1,8,0:2:0:0:
197,271,93326,6,0,L|307:257,1,100,12|0,0:2|1:0,0:0:0:0:
408,71,93673,2,0,L|298:57,1,100,8|0,0:2|1:0,0:0:0:0:
126,168,94020,5,8,0:2:0:0:
152,23,94194,1,0,1:0:0:0:
26,271,94367,1,8,0:2:0:0:
0,126,94540,1,0,1:0:0:0:
139,335,94714,6,0,L|263:324,1,100,12|0,0:2|1:0,0:0:0:0:
388,239,95061,2,0,L|260:224,1,100,8|0,0:2|1:0,0:0:0:0:
407,371,95407,5,8,0:2:0:0:
388,239,95581,1,0,1:0:0:0:
139,335,95754,1,8,0:2:0:0:
158,203,95928,1,0,1:0:0:0:
388,239,96101,6,0,L|279:229,1,100,12|0,0:2|1:0,0:0:0:0:
94,117,96448,2,0,L|198:107,1,100,8|0,0:2|1:0,0:0:0:0:
391,163,96795,5,8,0:2:0:0:
318,33,96968,1,0,1:0:0:0:
158,203,97142,1,8,0:2:0:0:
182,57,97315,1,0,1:0:0:0:
300,231,97488,6,0,L|324:330,1,100,12|0,0:2|1:0,0:0:0:0:
461,383,97835,2,0,L|484:285,1,100,12|0,0:2|1:0,0:0:0:0:
300,231,98182,5,8,0:2:0:0:
300,231,98269,1,0,1:0:0:0:
300,231,98355,1,0,1:0:0:0:
227,379,98529,1,8,0:2:0:0:
227,379,98615,1,0,1:0:0:0:
227,379,98702,1,0,1:0:0:0:
152,173,98876,6,0,L|39:165,1,100,12|0,0:2|1:0,0:0:0:0:
318,77,99222,2,0,L|431:69,1,100,8|0,0:2|1:0,0:0:0:0:
503,169,99569,5,8,0:2:0:0:
475,0,99743,1,0,1:0:0:0:
296,209,99916,1,8,0:2:0:0:
324,40,100089,1,0,1:0:0:0:
421,246,100263,6,0,L|423:365,1,100,12|0,0:2|1:0,0:0:0:0:
202,250,100610,2,0,L|203:150,1,100,8|0,0:2|1:0,0:0:0:0:
197,0,100957,5,8,0:2:0:0:
309,124,101130,1,0,1:0:0:0:
85,44,101303,1,8,0:2:0:0:
76,210,101477,1,0,1:0:0:0:
309,124,101650,6,0,L|315:224,1,100,12|0,0:2|1:0,0:0:0:0:
201,384,101997,5,8,0:2:0:0:
202,250,102170,1,0,1:0:0:0:
408,384,102344,1,8,0:2:0:0:
407,250,102517,1,0,1:0:0:0:
189,372,102691,2,0,P|119:378|65:297,1,150,8|0,0:2|0:0,0:0:0:0:
60,292,103037,5,12,0:2:0:0:
256,192,103211,1,12,0:2:0:0:
256,192,103731,5,12,0:2:0:0:
450,328,103905,1,12,0:2:0:0:
450,328,103991,1,8,0:2:0:0:
450,328,104078,1,8,0:2:0:0:
450,328,104165,1,8,0:2:0:0:
450,328,104251,1,8,0:2:0:0:
454,59,104772,6,0,B|53:100|459:68|49:111,1,410,2|2,0:0|0:0,0:0:0:0:
