osu file format v14

[General]
AudioFilename: audio.mp3
AudioLeadIn: 0
PreviewTime:51599
Countdown: 0
SampleSet: Soft
StackLeniency: 0.7
Mode: 0
LetterboxInBreaks: 0
WidescreenStoryboard: 1

[Editor]
DistanceSpacing: 1.3
BeatDivisor: 4
GridSize: 16
TimelineZoom: 1.9

[Metadata]
Title:Snow halation (NICO Mix)
TitleUnicode:Snow halation(NICO Mix)
Artist:Yazawa Nico (CV: Tokui Sora)
ArtistUnicode:矢澤にこ (CV: 徳井青空)
Creator:Blitzifyyy
Version:BaAR's Hard
Source:ラブライブ! School idol project
Tags:µ's u's muse lovelive! love live! japanese anime mononymous mono demonical crescxnt baar_vendel theblank zan zan1to
BeatmapID:2197366
BeatmapSetID:1051318

[Difficulty]
HPDrainRate:4
CircleSize:3.5
OverallDifficulty:6
ApproachRate:7.5
SliderMultiplier:1.4
SliderTickRate:1

[Events]
//Background and Video events
0,0,"Nico.jpg",0,0
//Break Periods
//Storyboard Layer 0 (Background)
//Storyboard Layer 1 (Fail)
//Storyboard Layer 2 (Pass)
//Storyboard Layer 3 (Foreground)
//Storyboard Layer 4 (Overlay)
//Storyboard Sound Samples

[TimingPoints]
379,346.820809248555,4,2,1,50,1,0
379,-125,4,2,1,50,0,0
6101,-125,4,2,1,40,0,0
6274,-125,4,2,1,50,0,0
8008,-125,4,2,1,40,0,0
8182,-125,4,2,1,50,0,0
8528,-125,4,2,1,40,0,0
8702,-125,4,2,1,50,0,0
10176,-125,4,2,1,40,0,0
11477,-125,4,2,1,50,0,0
12864,-125,4,2,1,40,0,0
22488,-125,4,2,1,5,0,0
22575,-100,4,2,1,60,0,0
32980,-90.9090909090909,4,2,1,60,0,0
34367,-100,4,2,1,60,0,0
35061,-125,4,2,1,60,0,0
40610,-111.111111111111,4,2,1,70,0,0
48933,-90.9090909090908,4,2,1,75,0,0
50841,-111.111111111111,4,2,1,75,0,0
51708,-90.9090909090909,4,2,1,85,0,1
61332,-90.9090909090909,4,2,1,5,0,1
61419,-90.9090909090909,4,2,1,85,0,1
62286,-111.111111111111,4,2,1,85,0,0
62720,-111.111111111111,4,2,1,75,0,0
62806,-90.9090909090909,4,2,1,85,0,1
72431,-90.9090909090909,4,2,1,5,0,1
72517,-90.9090909090909,4,2,1,85,0,1
73905,-125,4,2,1,55,0,0
76592,-125,4,2,1,5,0,0
76679,-125,4,2,1,70,0,0
79367,-125,4,2,1,5,0,0
79454,-125,4,2,1,70,0,0
81881,-111.111111111111,4,2,1,70,0,0
82228,-100,4,2,1,70,0,0
92199,-100,4,2,1,5,0,0
92286,-100,4,2,1,70,0,0
92720,-100,4,2,1,5,0,0
92806,-100,4,2,1,70,0,0
93326,-90.9090909090909,4,2,1,85,0,1
103037,-111.111111111111,4,2,1,85,0,0
103991,-111.111111111111,4,2,1,85,0,0
104078,-111.111111111111,4,2,1,85,0,0
104251,-111.111111111111,4,2,1,60,0,0
104858,-111.111111111111,4,2,1,60,0,0
114136,-111.111111111111,4,2,1,5,0,0

[Colours]
Combo1 : 194,133,133
Combo2 : 255,72,72
Combo3 : 216,216,216
Combo4 : 248,78,107

[HitObjects]
115,36,379,6,0,P|89:30|45:35,2,56,2|2|2,0:2|0:2|0:2,0:0:0:0:
164,104,899,1,2,0:2:0:0:
164,104,1072,2,0,P|175:164|183:222,1,112,2|2,0:2|0:2,0:0:0:0:
143,289,1592,1,2,0:2:0:0:
61,267,1766,2,0,P|29:260|-1:259,2,56,2|2|2,0:2|0:2|0:2,0:0:0:0:
85,347,2286,2,0,P|134:371|206:343,1,112,2|2,0:2|0:2,0:0:0:0:
228,284,2806,2,0,P|236:248|244:217,1,56,2|2,0:2|0:2,0:0:0:0:
309,181,3153,6,0,P|376:191|428:198,1,112,2|2,0:2|0:2,0:0:0:0:
481,139,3673,1,2,0:2:0:0:
481,139,4540,2,0,P|497:93|468:29,1,112,2|2,0:2|0:2,0:0:0:0:
393,58,5061,1,2,0:2:0:0:
314,27,5234,2,0,P|257:16|180:8,1,112,2|2,0:2|0:2,0:0:0:0:
203,9,5928,6,0,P|214:49|221:86,1,56,2|0,0:2|0:0,0:0:0:0:
176,136,6274,1,2,0:2:0:0:
176,136,6448,2,0,P|125:118|63:149,1,112,2|2,0:2|0:2,0:0:0:0:
36,213,6968,1,2,0:2:0:0:
79,285,7142,1,2,0:2:0:0:
28,352,7315,2,0,P|88:339|154:328,1,112,2|2,0:2|0:2,0:0:0:0:
191,265,7835,2,0,P|230:284|263:301,1,56,2|0,0:2|0:0,0:0:0:0:
287,360,8182,2,0,P|340:379|394:342,1,112,2|0,0:2|0:0,0:0:0:0:
439,288,8702,6,0,B|401:215|473:206|434:118,1,168,2|2,0:2|0:2,0:0:0:0:
407,41,9396,2,0,P|370:43|332:48,3,56,2|2|2|2,0:2|0:2|0:2|0:2,0:0:0:0:
287,136,10089,1,2,0:2:0:0:
256,192,10176,12,2,11477,0:2:0:0:
421,91,12864,6,0,P|366:69|299:86,1,112,2|2,0:2|0:2,0:0:0:0:
262,143,13384,2,0,P|207:150|156:129,1,112,2|0,0:2|0:0,0:0:0:0:
71,137,13905,2,0,P|82:176|90:214,1,56,2|2,0:2|0:2,0:0:0:0:
41,262,14251,1,2,0:2:0:0:
41,262,14598,2,0,B|22:315|22:315|40:375,2,112,2|2|2,0:2|0:2|0:2,0:0:0:0:
209,252,15639,6,0,P|266:258|338:271,1,112,2|2,0:2|0:2,0:0:0:0:
386,318,16159,2,0,P|423:360|440:259,1,224,2|0,0:2|0:0,0:0:0:0:
447,260,17199,2,0,P|454:214|456:195,1,56,2|2,0:2|0:2,0:0:0:0:
409,133,17546,1,2,0:2:0:0:
459,65,17720,2,0,L|524:60,2,56,2|2|2,0:2|0:2|0:2,0:0:0:0:
409,133,18240,1,2,0:2:0:0:
331,101,18413,6,0,P|275:91|220:85,1,112,2|2,0:2|0:2,0:0:0:0:
142,119,18933,2,0,L|133:59,1,56,2|0,0:2|0:0,0:0:0:0:
49,56,19280,2,0,L|58:-4,2,56,2|0|2,0:2|0:0|0:2,0:0:0:0:
0,123,19800,2,0,B|-14:164|-14:164|2:238,1,112,2|2,0:2|0:2,0:0:0:0:
22,313,20321,1,2,0:2:0:0:
22,313,20668,2,0,P|74:295|134:327,1,112,2|2,0:2|0:2,0:0:0:0:
186,373,21188,6,0,B|313:410|275:310|409:358,1,224,2|0,0:2|0:0,0:0:0:0:
477,384,22055,1,2,0:2:0:0:
477,384,22228,2,0,P|483:342|469:309,1,56,2|2,0:2|0:2,0:0:0:0:
407,252,22575,5,8,0:2:0:0:
512,174,22748,1,8,0:2:0:0:
512,174,23269,5,8,0:2:0:0:
393,117,23442,1,8,0:2:0:0:
330,172,23615,2,0,P|324:197|321:229,3,35,8|8|8|8,0:2|0:2|0:2|0:2,0:0:0:0:
293,236,23962,6,0,P|246:224|212:224,1,70,4|0,1:0|0:0,0:0:0:0:
156,273,24309,1,0,1:0:0:0:
156,273,24483,1,0,0:0:0:0:
78,242,24656,2,0,P|65:170|53:98,1,140,0|0,1:0|1:0,0:0:0:0:
51,19,25176,1,0,0:0:0:0:
127,54,25350,6,0,P|180:45|209:39,1,70,0|0,1:0|0:0,0:0:0:0:
272,0,25696,2,0,P|325:9|354:15,1,70,0|0,1:0|0:0,0:0:0:0:
409,61,26043,1,0,1:0:0:0:
409,61,26217,1,0,0:0:0:0:
487,31,26390,2,0,P|499:79|506:115,1,70,0|0,1:0|0:0,0:0:0:0:
480,180,26737,6,0,L|403:172,1,70,0|0,1:0|0:0,0:0:0:0:
337,130,27084,1,0,1:0:0:0:
337,130,27257,1,0,0:0:0:0:
272,184,27431,2,0,P|260:232|253:268,1,70,0|0,1:0|0:0,0:0:0:0:
273,333,27777,6,0,P|228:279|150:295,1,140,0|0,1:0|1:0,0:0:0:0:
123,359,28298,2,0,P|89:370|44:355,1,70,2|0,0:0|1:0,0:0:0:0:
3,298,28644,2,0,P|-8:264|7:219,1,70,2|0,0:0|1:0,0:0:0:0:
28,152,28991,2,0,P|62:141|107:156,1,70,2|0,0:0|1:0,0:0:0:0:
173,178,29338,1,8,0:2:0:0:
173,178,29511,6,0,P|235:138|240:67,1,140,0|0,1:0|1:0,0:0:0:0:
293,8,30032,2,0,P|348:19|375:23,1,70,0|0,0:0|1:0,0:0:0:0:
376,104,30379,2,0,P|425:77|448:62,1,70,0|0,0:0|1:0,0:0:0:0:
498,13,30725,1,0,0:0:0:0:
511,96,30899,6,0,P|502:159|490:249,1,140,0|0,1:0|1:0,0:0:0:0:
453,309,31419,2,0,P|402:317|371:302,1,70,0|2,0:0|1:2,0:0:0:0:
324,252,31766,1,0,0:0:0:0:
324,252,31939,2,0,P|273:244|242:259,1,70,0|0,1:0|0:0,0:0:0:0:
194,306,32286,1,0,1:0:0:0:
194,306,32459,1,0,0:0:0:0:
136,244,32633,6,0,L|146:170,1,70,4|0,1:0|0:0,0:0:0:0:
186,91,32980,2,0,L|175:14,1,77.0000023498536,4|0,1:0|0:0,0:0:0:0:
267,134,33326,2,0,P|319:134|367:107,1,77.0000023498536,4|0,1:0|0:0,0:0:0:0:
397,50,33673,6,0,P|449:50|497:77,1,77.0000023498536,4|0,1:0|0:0,0:0:0:0:
510,143,34020,2,0,P|503:195|499:244,1,77.0000023498536,4|8,1:0|0:2,0:0:0:0:
500,219,34280,1,8,0:2:0:0:
500,219,34367,1,8,0:2:0:0:
446,283,34540,1,4,3:0:0:0:
372,241,34714,1,4,3:0:0:0:
302,287,34887,1,4,3:0:0:0:
315,370,35061,6,0,P|255:360|182:354,1,112,4|0,1:2|0:0,0:0:0:0:
122,377,35581,1,0,1:0:0:0:
45,341,35754,2,0,P|26:282|57:222,1,112,8|0,0:2|0:0,0:0:0:0:
120,204,36274,1,0,1:0:0:0:
151,125,36448,6,0,P|144:82|137:48,1,56,0|0,0:0|0:0,0:0:0:0:
70,13,36795,2,0,P|64:40|60:68,1,56,0|0,1:0|0:0,0:0:0:0:
35,150,37142,1,8,0:2:0:0:
35,150,37315,1,0,1:0:0:0:
90,213,37488,2,0,P|131:214|156:199,1,56,4|0,1:0|0:0,0:0:0:0:
209,151,37835,5,4,1:0:0:0:
209,151,38182,2,0,L|270:145,1,56,0|0,0:0|1:0,0:0:0:0:
344,192,38529,2,0,P|323:246|254:271,1,112,8|0,0:2|0:0,0:0:0:0:
189,289,39049,1,0,1:0:0:0:
228,367,39222,6,0,P|267:374|300:374,1,56,0|8,0:0|0:2,0:0:0:0:
354,329,39569,2,0,P|393:322|426:322,1,56,0|0,0:0|1:0,0:0:0:0:
494,351,39916,1,8,0:2:0:0:
494,351,40089,1,0,0:0:0:0:
510,263,40263,2,0,P|511:218|511:193,1,56,4|0,1:0|0:0,0:0:0:0:
445,147,40610,6,0,P|449:113|458:73,1,62.9999980773926,4|0,1:0|0:0,0:0:0:0:
505,11,40957,2,0,P|467:-2|425:3,1,62.9999980773926,8|0,0:2|0:0,0:0:0:0:
375,53,41303,1,0,1:0:0:0:
375,53,41477,1,0,1:0:0:0:
297,10,41650,2,0,P|259:24|230:55,1,62.9999980773926,8|0,0:2|0:0,0:0:0:0:
196,114,41997,6,0,P|134:125|92:76,1,125.999996154785,0|8,1:0|0:2,0:0:0:0:
41,11,42517,2,0,P|54:100|63:161,1,125.999996154785,0|0,1:0|1:0,0:0:0:0:
19,214,43037,1,8,0:2:0:0:
19,214,43211,1,0,0:0:0:0:
46,297,43384,6,0,P|85:289|132:285,1,62.9999980773926,4|0,1:0|0:0,0:0:0:0:
172,346,43731,2,0,P|211:354|258:358,1,62.9999980773926,8|0,0:2|0:0,0:0:0:0:
322,349,44078,1,0,1:0:0:0:
322,349,44251,1,0,1:0:0:0:
394,298,44425,2,0,P|385:251|379:212,1,62.9999980773926,8|0,0:2|0:0,0:0:0:0:
441,169,44772,6,0,B|459:108|459:108|429:36,1,125.999996154785,0|8,1:0|0:2,0:0:0:0:
354,12,45292,2,0,P|311:25|284:32,1,62.9999980773926,0|0,1:0|0:0,0:0:0:0:
205,23,45639,1,0,1:0:0:0:
179,140,45812,1,8,0:2:0:0:
179,140,46159,6,0,L|255:143,1,62.9999980773926,4|0,1:0|0:0,0:0:0:0:
264,228,46506,2,0,L|188:231,1,62.9999980773926,8|0,0:2|0:0,0:0:0:0:
123,271,46852,1,0,1:0:0:0:
123,271,47026,1,0,1:0:0:0:
43,232,47199,1,8,0:2:0:0:
43,232,47373,6,0,P|53:184|47:144,1,62.9999980773926,0|0,0:0|1:0,0:0:0:0:
13,90,47720,2,0,P|3:42|9:2,1,62.9999980773926,0|8,0:0|0:2,0:0:0:0:
89,8,48066,2,0,P|164:14|226:21,1,125.999996154785,0|0,1:0|1:0,0:0:0:0:
286,72,48587,1,8,0:2:0:0:
286,72,48673,1,8,0:2:0:0:
286,72,48760,1,0,1:0:0:0:
357,13,48933,6,0,P|406:21|458:30,1,77.0000023498536,8|0,0:2|1:0,0:0:0:0:
477,107,49280,2,0,P|428:115|376:124,1,77.0000023498536,8|0,0:2|1:0,0:0:0:0:
319,163,49627,1,8,0:2:0:0:
359,245,49800,1,0,1:0:0:0:
306,321,49974,2,0,P|257:313|205:304,1,77.0000023498536,8|0,0:2|1:0,0:0:0:0:
149,263,50321,5,8,0:2:0:0:
87,373,50494,1,8,0:2:0:0:
87,373,51014,6,0,L|73:297,1,62.9999980773926,2|2,0:2|1:2,0:0:0:0:
56,231,51361,1,8,0:2:0:0:
84,154,51535,1,0,1:0:0:0:
48,60,51708,6,0,P|95:67|135:72,1,77.0000023498536,4|0,1:0|0:0,0:0:0:0:
199,4,52055,1,8,0:2:0:0:
199,4,52228,1,0,0:0:0:0:
273,61,52402,2,0,P|311:56|349:50,1,77.0000023498536,0|0,1:0|1:0,0:0:0:0:
430,6,52748,1,8,0:2:0:0:
497,69,52922,1,0,0:0:0:0:
458,152,53095,6,0,P|448:200|456:233,1,77.0000023498536,0|0,1:0|0:0,0:0:0:0:
507,302,53442,2,0,P|517:350|509:383,1,77.0000023498536,8|0,0:2|1:0,0:0:0:0:
424,343,53789,1,0,0:0:0:0:
424,343,53962,1,0,1:0:0:0:
349,383,54136,2,0,P|289:377|256:372,1,77.0000023498536,8|0,0:2|0:0,0:0:0:0:
209,306,54483,6,0,P|138:294|81:363,1,154.000004699707,0|8,1:0|0:2,0:0:0:0:
1,305,55003,1,0,0:0:0:0:
35,219,55176,2,0,P|41:173|45:129,1,77.0000023498536,0|0,1:0|1:0,0:0:0:0:
129,106,55523,2,0,P|132:144|137:182,1,77.0000023498536,8|0,0:2|0:0,0:0:0:0:
222,219,55870,6,0,B|286:215|286:215|319:237|319:237|373:233,1,154.000004699707,0|8,1:0|0:2,0:0:0:0:
460,250,56390,1,0,1:0:0:0:
504,168,56563,1,0,3:0:0:0:
439,100,56737,1,8,0:2:0:0:
354,140,56910,2,0,P|310:132|269:122,1,77.0000023498536,8|0,0:2|1:0,0:0:0:0:
231,44,57257,6,0,P|187:52|146:62,1,77.0000023498536,4|0,1:0|0:0,0:0:0:0:
64,44,57604,1,8,0:2:0:0:
64,44,57777,1,0,0:0:0:0:
12,121,57951,2,0,P|17:159|20:197,1,77.0000023498536,0|0,1:0|1:0,0:0:0:0:
25,290,58298,1,8,0:2:0:0:
114,266,58471,1,0,0:0:0:0:
167,340,58644,6,0,P|244:371|316:332,1,154.000004699707,0|8,1:0|0:2,0:0:0:0:
369,276,59165,2,0,P|446:245|518:284,1,154.000004699707,0|0,1:0|1:0,0:0:0:0:
444,339,59685,1,8,0:2:0:0:
444,339,59858,1,0,0:0:0:0:
369,276,60032,6,0,P|378:204|385:122,1,154.000004699707,4|8,1:0|0:2,0:0:0:0:
369,31,60552,1,0,0:0:0:0:
457,57,60725,1,0,1:0:0:0:
457,57,60899,1,0,1:0:0:0:
480,144,61072,2,0,P|479:183|476:221,1,77.0000023498536,8|0,0:2|0:0,0:0:0:0:
384,122,61419,5,12,0:2:0:0:
267,182,61592,1,12,0:2:0:0:
267,182,62113,5,12,0:2:0:0:
270,51,62286,2,0,P|219:21|138:50,1,125.999996154785,12|0,0:2|1:0,0:0:0:0:
131,63,62720,1,0,1:0:0:0:
131,63,62806,6,0,P|83:57|37:48,1,77.0000023498536,4|0,1:0|0:0,0:0:0:0:
0,127,63153,1,8,0:2:0:0:
0,127,63326,1,0,0:0:0:0:
57,199,63500,2,0,P|63:240|52:279,1,77.0000023498536,0|0,1:0|1:0,0:0:0:0:
0,349,63847,1,8,0:2:0:0:
91,354,64020,1,0,0:0:0:0:
148,281,64194,6,0,P|210:272|237:270,1,77.0000023498536,0|0,1:0|0:0,0:0:0:0:
292,333,64540,2,0,P|354:342|381:344,1,77.0000023498536,8|0,0:2|1:0,0:0:0:0:
452,304,64887,1,0,0:0:0:0:
452,304,65061,1,0,1:0:0:0:
402,226,65234,2,0,P|395:177|403:139,1,77.0000023498536,8|0,0:2|0:0,0:0:0:0:
481,107,65581,6,0,P|444:68|348:73,1,154.000004699707,0|8,1:0|0:2,0:0:0:0:
306,154,66101,1,0,0:0:0:0:
220,119,66274,2,0,P|211:57|209:30,1,77.0000023498536,0|0,1:0|1:0,0:0:0:0:
121,16,66621,2,0,P|117:54|110:92,1,77.0000023498536,8|0,0:2|0:0,0:0:0:0:
72,176,66968,6,0,L|157:169,1,77.0000023498536,2|0,1:2|0:0,0:0:0:0:
231,211,67315,1,10,0:2:0:0:
219,302,67488,1,0,1:0:0:0:
219,302,67575,1,0,1:0:0:0:
219,302,67662,1,2,1:2:0:0:
127,291,67835,1,8,0:2:0:0:
87,374,68009,2,0,P|48:377|10:370,1,77.0000023498536,8|0,0:2|1:0,0:0:0:0:
19,278,68355,6,0,P|30:220|35:187,1,77.0000023498536,4|0,1:0|0:0,0:0:0:0:
92,131,68702,1,8,0:2:0:0:
92,131,68876,1,0,0:0:0:0:
45,51,69049,2,0,P|95:39|129:45,1,77.0000023498536,0|0,1:0|1:0,0:0:0:0:
187,105,69396,1,8,0:2:0:0:
272,69,69569,1,0,0:0:0:0:
352,115,69743,6,0,P|417:143|492:101,1,154.000004699707,0|8,1:0|0:2,0:0:0:0:
483,15,70263,2,0,P|417:-13|342:28,1,154.000004699707,0|0,1:0|1:0,0:0:0:0:
276,73,70783,1,8,0:2:0:0:
276,73,70957,1,0,0:0:0:0:
277,165,71130,6,0,B|306:216|306:216|290:310,1,154.000004699707,4|8,1:0|0:2,0:0:0:0:
352,379,71650,1,0,0:0:0:0:
438,345,71824,1,0,1:0:0:0:
438,345,71997,1,0,1:0:0:0:
429,253,72170,2,0,P|419:212|411:170,1,77.0000023498536,8|0,0:2|0:0,0:0:0:0:
445,85,72517,6,0,L|369:95,1,77.0000023498536,4|0,1:0|0:0,0:0:0:0:
288,141,72864,1,8,0:2:0:0:
217,81,73037,2,0,B|153:77|153:77|120:99|120:99|66:95,1,154.000004699707,4|0,1:0|1:0,0:0:0:0:
5,160,73558,1,8,0:2:0:0:
83,225,73731,1,8,0:2:0:0:
83,225,73818,1,8,0:2:0:0:
83,225,73905,6,0,P|99:286|74:342,1,112,4|0,1:0|0:0,0:0:0:0:
148,384,74425,1,0,0:0:0:0:
220,342,74598,2,0,P|287:335|355:328,1,112,8|0,0:2|0:0,0:0:0:0:
409,362,75118,1,0,1:0:0:0:
471,305,75292,5,0,0:0:0:0:
471,305,75465,2,0,P|483:236|455:197,1,112,8|0,0:2|1:0,0:0:0:0:
381,178,75985,2,0,P|389:139|399:98,1,56,8|0,0:2|0:0,0:0:0:0:
448,60,76332,2,0,P|440:21|430:-20,1,56,4|0,1:0|0:0,0:0:0:0:
352,12,76679,5,4,1:0:0:0:
352,12,77026,2,0,P|317:18|284:19,1,56,0|0,0:0|1:0,0:0:0:0:
213,4,77373,2,0,P|151:2|88:17,1,112,8|0,0:2|0:0,0:0:0:0:
24,48,77893,1,0,1:0:0:0:
51,127,78066,5,0,1:0:0:0:
51,127,78240,2,0,P|58:174|54:208,2,56,8|0|0,0:2|0:0|1:0,0:0:0:0:
134,112,78760,1,8,0:2:0:0:
134,112,78933,1,0,1:0:0:0:
187,176,79107,2,0,L|258:166,1,56,4|0,1:0|0:0,0:0:0:0:
325,155,79454,5,0,1:0:0:0:
325,155,79800,2,0,L|396:165,1,56,0|0,0:0|1:0,0:0:0:0:
455,201,80147,1,8,0:2:0:0:
424,279,80321,1,0,0:0:0:0:
489,331,80494,2,0,L|535:325,2,28,8|8|8,0:2|0:2|0:2,0:0:0:0:
394,384,80841,5,0,1:0:0:0:
292,318,81014,1,0,1:0:0:0:
292,318,81708,5,0,1:0:0:0:
331,239,81881,2,0,P|334:205|325:172,1,62.9999980773926,10|2,0:2|0:0,0:0:0:0:
272,95,82228,6,0,B|181:76|218:138|112:109,1,140,4|8,1:0|0:2,0:0:0:0:
64,73,82748,1,0,0:0:0:0:
9,137,82922,2,0,P|0:183|13:219,1,70,2|0,1:2|1:0,0:0:0:0:
64,264,83269,2,0,P|73:310|60:346,1,70,10|0,0:2|0:0,0:0:0:0:
0,382,83615,6,0,P|86:368|167:358,1,140,0|8,1:0|0:2,0:0:0:0:
207,311,84136,1,0,1:0:0:0:
279,353,84309,2,0,P|340:364|354:365,1,70,2|0,0:0|1:0,0:0:0:0:
431,353,84656,1,10,0:2:0:0:
431,353,84829,1,0,0:0:0:0:
481,285,85003,6,0,B|499:198|499:198|477:151,1,140,0|8,1:0|0:2,0:0:0:0:
407,104,85523,1,0,0:0:0:0:
339,153,85696,2,0,P|297:146|259:136,1,70,2|0,1:2|1:0,0:0:0:0:
217,73,86043,2,0,P|175:80|137:90,1,70,10|0,0:2|0:0,0:0:0:0:
92,149,86390,6,0,L|101:222,2,70,2|0|8,1:2|0:0|0:2,0:0:0:0:
31,90,86910,1,0,1:0:0:0:
31,90,86997,1,0,1:0:0:0:
31,90,87084,1,2,0:2:0:0:
87,27,87257,1,8,0:2:0:0:
148,86,87431,2,0,P|182:78|217:73,1,70,10|0,0:2|1:0,0:0:0:0:
277,15,87777,6,0,P|328:46|408:21,1,140,4|8,1:0|0:2,0:0:0:0:
486,16,88298,1,0,0:0:0:0:
512,97,88471,2,0,L|508:177,1,70,2|0,1:2|1:0,0:0:0:0:
457,234,88818,2,0,L|461:314,1,70,10|0,0:2|0:0,0:0:0:0:
509,372,89165,6,0,P|444:351|384:383,1,140,2|8,1:2|0:2,0:0:0:0:
300,373,89685,2,0,P|245:356|225:348,1,70,0|2,1:0|0:0,0:0:0:0:
169,296,90032,1,0,1:0:0:0:
84,300,90205,2,0,P|51:309|18:321,1,70,10|0,0:2|0:0,0:0:0:0:
125,225,90552,5,2,1:2:0:0:
125,225,90725,1,0,0:0:0:0:
65,165,90899,2,0,P|61:118|76:85,1,70,8|0,0:2|0:0,0:0:0:0:
137,48,91246,1,2,1:2:0:0:
137,48,91419,1,0,1:0:0:0:
209,89,91592,2,0,P|256:82|288:75,1,70,10|0,0:2|0:0,0:0:0:0:
349,32,91939,6,0,P|396:39|428:46,2,70,2|0|8,1:2|0:0|0:2,0:0:0:0:
351,116,92459,2,0,P|360:184|369:261,1,140,2|8,1:2|0:2,0:0:0:0:
337,334,92980,1,8,0:2:0:0:
337,334,93066,1,8,0:2:0:0:
337,334,93153,1,8,0:2:0:0:
231,273,93326,6,0,P|189:263|138:265,1,77.0000023498536,12|0,0:2|1:0,0:0:0:0:
87,326,93673,2,0,P|49:335|11:336,1,77.0000023498536,8|0,0:2|1:0,0:0:0:0:
0,238,94020,1,8,0:2:0:0:
0,238,94194,1,0,1:0:0:0:
72,181,94367,1,8,0:2:0:0:
72,181,94540,1,0,1:0:0:0:
21,103,94714,6,0,L|16:17,1,77.0000023498536,12|0,0:2|1:0,0:0:0:0:
109,21,95061,2,0,L|114:107,1,77.0000023498536,8|0,0:2|1:0,0:0:0:0:
163,175,95407,1,8,0:2:0:0:
163,175,95581,1,0,1:0:0:0:
246,137,95754,1,8,0:2:0:0:
246,137,95928,1,0,1:0:0:0:
311,202,96101,6,0,P|349:196|387:191,1,77.0000023498536,12|0,0:2|1:0,0:0:0:0:
257,277,96448,2,0,P|219:272|168:264,1,77.0000023498536,8|0,0:2|1:0,0:0:0:0:
108,324,96795,1,8,0:2:0:0:
108,324,96968,1,0,1:0:0:0:
177,384,97142,1,8,0:2:0:0:
177,384,97315,1,0,1:0:0:0:
267,364,97488,6,0,L|357:356,1,77.0000023498536,12|0,0:2|1:0,0:0:0:0:
414,296,97835,2,0,L|504:304,1,77.0000023498536,12|0,0:2|1:0,0:0:0:0:
505,211,98182,1,8,0:2:0:0:
505,211,98269,1,0,1:0:0:0:
505,211,98355,1,0,1:0:0:0:
430,156,98529,1,8,0:2:0:0:
430,156,98615,1,0,1:0:0:0:
430,156,98702,1,0,1:0:0:0:
487,83,98876,6,0,P|495:42|483:2,1,77.0000023498536,12|0,0:2|1:0,0:0:0:0:
373,5,99222,2,0,P|365:46|377:86,1,77.0000023498536,8|0,0:2|1:0,0:0:0:0:
311,148,99569,1,8,0:2:0:0:
311,148,99743,1,0,1:0:0:0:
227,108,99916,1,8,0:2:0:0:
227,108,100089,1,0,1:0:0:0:
150,159,100263,6,0,P|85:149|53:142,1,77.0000023498536,12|0,0:2|1:0,0:0:0:0:
11,70,100610,2,0,P|48:62|86:57,1,77.0000023498536,8|0,0:2|1:0,0:0:0:0:
162,0,100957,1,8,0:2:0:0:
162,0,101130,1,0,1:0:0:0:
251,23,101303,1,8,0:2:0:0:
251,23,101477,1,0,1:0:0:0:
225,105,101650,6,0,L|216:193,1,77.0000023498536,12|0,0:2|1:0,0:0:0:0:
152,248,101997,2,0,L|161:336,1,77.0000023498536,8|0,0:2|1:0,0:0:0:0:
234,379,102344,2,0,P|279:384|321:362,1,77.0000023498536,8|0,0:2|1:0,0:0:0:0:
363,298,102691,1,8,0:2:0:0:
363,298,102864,1,0,1:0:0:0:
452,318,103037,5,12,0:2:0:0:
419,198,103211,1,12,0:2:0:0:
419,198,103731,5,12,0:2:0:0:
502,100,103905,1,12,0:2:0:0:
502,100,103991,1,8,0:2:0:0:
502,100,104078,2,0,P|504:80|507:62,3,31.4999990386963,8|8|8|8,0:2|0:2|0:2|0:2,0:0:0:0:
266,83,104772,5,2,0:0:0:0:
256,192,104859,12,0,114136,0:0:0:0:
