osu file format v14

[General]
AudioFilename: audio.mp3
AudioLeadIn: 0
PreviewTime: 31276
Countdown: 0
SampleSet: Soft
StackLeniency: 0.7
Mode: 0
LetterboxInBreaks: 0
WidescreenStoryboard: 1

[Editor]
DistanceSpacing: 1.2
BeatDivisor: 4
GridSize: 32
TimelineZoom: 1

[Metadata]
Title:Dangerous Smile Precure
TitleUnicode:危険なキュアピース
Artist:Yayoi Kize
ArtistUnicode:Yayoi Kize
Creator:MrMcMikey22
Version:Hard
Source:NicoNicoDouga
Tags:niconicodouga, smileprecure, ytpmv, meme, anime, yellow, funny, lol
BeatmapID:3517065
BeatmapSetID:1718340

[Difficulty]
HPDrainRate:4.5
CircleSize:4
OverallDifficulty:6
ApproachRate:8
SliderMultiplier:1.4
SliderTickRate:1

[Events]
//Background and Video events
Video,0,"危険なキュアピース.mp4"
0,0,"screenshot007.jpg",0,0
//Break Periods
//Storyboard Layer 0 (Background)
//Storyboard Layer 1 (Fail)
//Storyboard Layer 2 (Pass)
//Storyboard Layer 3 (Foreground)
//Storyboard Layer 4 (Overlay)
//Storyboard Sound Samples

[TimingPoints]
1542,424.778761061947,4,1,0,40,1,0
1542,-100,4,1,0,55,0,0
4940,-100,4,1,0,65,0,0
10887,-100,4,1,0,70,0,0
11099,-100,4,1,0,85,0,0
11311,-100,4,1,0,100,0,0
11736,-100,4,1,0,55,0,0
15134,-100,4,1,0,60,0,0
16621,-100,4,1,0,80,0,0
18002,-100,4,1,0,100,0,0
18533,-100,4,1,0,69,0,0
23630,-100,4,1,0,60,0,0
25117,-100,4,1,0,100,0,0
25329,-100,4,2,0,70,0,0
28727,-76.9230769230769,4,1,0,69,0,0
31276,-100,4,1,0,100,0,0
32126,-100,4,2,0,69,0,0
34674,-100,4,1,0,69,0,0
35524,-100,4,1,0,100,0,0
35630,-100,4,1,0,40,0,0
35949,-100,4,1,0,100,0,0
36055,-100,4,1,0,40,0,0
36373,-100,4,1,0,100,0,0
36480,-100,4,1,0,40,0,0
36798,-100,4,1,0,100,0,0
36904,-100,4,1,0,40,0,0
38497,-100,4,1,0,69,0,0
38922,-100,4,1,0,75,0,0
40196,-50,4,1,0,100,0,0
40621,-100,4,1,0,70,0,0
42108,-100,4,1,0,75,0,0
43170,-100,4,1,0,82,0,0
44019,-100,4,1,0,90,0,0
45294,-50,4,1,0,100,0,1
45505,-50,4,1,0,100,0,1
45717,-100,4,1,0,50,0,0
47418,-100,4,1,0,65,0,0
49117,-100,4,1,0,90,0,0
50816,-100,4,2,0,90,0,0
52515,-100,4,1,0,55,0,0
55488,-100,4,1,0,58,0,0
55595,-100,4,1,0,61,0,0
55701,-100,4,1,0,64,0,0
55807,-100,4,1,0,67,0,0
55913,-100,4,1,0,70,0,0
62710,-100,4,1,0,55,0,0
66108,-100,4,1,0,60,0,0
67595,-100,4,1,0,80,0,0
68975,-100,4,1,0,100,0,0
69506,-100,4,1,0,72,0,0
74603,-100,4,1,0,60,0,0
75453,-100,4,3,0,100,0,0
76090,-100,4,2,0,100,0,0

[Colours]
Combo1 : 234,209,34
Combo2 : 255,255,128
Combo3 : 232,193,91
Combo4 : 249,128,17
Combo5 : 255,192,0

[HitObjects]
170,53,692,5,0,0:0:0:0:
170,53,1117,1,0,0:0:0:0:
170,53,1542,6,0,P|242:63|305:103,1,140
382,107,2179,1,0,0:0:0:0:
331,174,2391,6,0,P|259:164|196:124,1,140
119,120,3028,1,0,0:0:0:0:
152,197,3241,6,0,P|224:207|287:247,1,140
364,251,3878,1,0,0:0:0:0:
313,318,4090,6,0,P|241:308|178:268,1,140
148,250,4621,1,0,0:0:0:0:
106,242,4727,1,0,0:0:0:0:
64,251,4834,1,0,0:0:0:0:
25,267,4940,6,0,L|4:179,1,70,4|0,0:0|0:0,0:0:0:0:
33,118,5365,2,0,L|39:59,2,35
112,143,5789,1,8,0:0:0:0:
145,264,6002,1,0,0:0:0:0:
23,295,6214,1,8,0:0:0:0:
84,365,6426,5,2,0:0:0:0:
84,365,6533,1,2,0:0:0:0:
84,365,6639,2,0,P|144:354|168:332,1,70,2|2,0:0|0:0,0:0:0:0:
176,317,6957,1,0,0:0:0:0:
185,275,7064,2,0,P|213:224|241:217,1,70,2|0,0:0|0:0,0:0:0:0:
286,328,7488,6,0,B|301:295|301:295|327:316|327:316|341:283|341:283|368:304|368:304,1,140
390,137,8338,6,0,P|425:127|453:92,1,70
454,61,8657,1,0,0:0:0:0:
442,20,8763,2,8,L|495:8,2,35
318,46,9188,5,0,0:0:0:0:
315,171,9400,1,0,0:0:0:0:
193,204,9612,1,0,0:0:0:0:
274,249,9825,5,0,0:0:0:0:
274,249,9931,1,0,0:0:0:0:
274,249,10037,1,2,0:0:0:0:
203,355,10249,1,0,0:0:0:0:
203,355,10356,1,0,0:0:0:0:
203,355,10462,2,2,P|143:363|116:358,2,70
196,228,11099,5,12,0:0:0:0:
126,122,11311,1,8,0:0:0:0:
162,1,11524,1,8,0:0:0:0:
242,25,11736,6,0,P|271:77|269:106,2,70
326,27,12373,1,0,0:0:0:0:
412,17,12586,1,0,0:0:0:0:
412,17,12692,2,0,B|401:73|440:69|436:118,1,105,0|2,0:0|0:0,0:0:0:0:
433,242,13223,1,0,0:0:0:0:
474,236,13329,1,0,0:0:0:0:
512,220,13435,6,0,P|492:159|497:64,1,140
492,83,13966,1,0,0:0:0:0:
492,83,14072,1,0,0:0:0:0:
404,173,14285,6,0,B|333:156|328:225|276:226,1,140,0|2,0:0|0:0,0:0:0:0:
258,261,14816,1,2,0:0:0:0:
253,302,14922,1,2,0:0:0:0:
269,340,15028,1,2,0:0:0:0:
303,363,15134,6,0,P|347:374|393:368,1,70
494,335,15559,1,0,0:0:0:0:
494,335,15772,1,0,0:0:0:0:
387,267,15984,2,0,P|352:243|351:212,2,70
267,284,16621,5,8,0:0:0:0:
267,284,16727,1,0,0:0:0:0:
267,284,16834,1,8,0:0:0:0:
339,147,17046,1,8,0:0:0:0:
339,147,17152,1,0,0:0:0:0:
339,147,17258,1,8,0:0:0:0:
185,144,17471,1,8,0:0:0:0:
185,144,17683,1,4,0:0:0:0:
59,127,18002,6,2,L|38:171,1,35
31,283,18320,1,2,0:0:0:0:
113,185,18533,6,0,P|127:114|164:67,1,105
308,52,19170,1,0,0:0:0:0:
186,18,19382,1,8,0:0:0:0:
144,16,19488,1,8,0:0:0:0:
101,14,19595,2,8,P|67:39|17:42,1,70
25,127,20019,1,8,0:0:0:0:
25,127,20232,5,8,0:0:0:0:
40,44,20444,2,8,P|74:35|101:14,1,70
144,16,20763,1,8,0:0:0:0:
186,18,20869,1,8,0:0:0:0:
308,52,21081,1,0,0:0:0:0:
144,87,21400,2,0,P|119:133|113:185,1,105
113,185,21930,6,0,P|127:114|164:67,1,105
308,52,22567,1,0,0:0:0:0:
186,18,22779,1,8,0:0:0:0:
144,16,22885,1,8,0:0:0:0:
101,14,22992,2,8,P|67:39|17:42,1,70
25,127,23416,1,8,0:0:0:0:
149,149,23630,6,0,P|59:136|52:133,2,70
149,149,24161,1,0,0:0:0:0:
149,149,24267,1,0,0:0:0:0:
173,272,24479,6,0,P|170:334|160:361,1,70
133,365,24797,1,0,0:0:0:0:
91,365,24903,1,0,0:0:0:0:
211,357,25116,5,2,0:0:0:0:
314,284,25329,6,0,P|317:343|349:369,1,70,2|0,0:0|0:0,0:0:0:0:
352,379,25648,1,0,0:0:0:0:
393,382,25754,2,4,B|413:387|458:368,2,35
393,297,26179,5,8,0:0:0:0:
465,194,26391,1,8,0:0:0:0:
427,73,26603,2,8,P|343:51|309:56,1,105
284,61,27028,1,4,0:0:0:0:
196,151,27346,5,2,0:0:0:0:
204,192,27453,2,4,P|185:247|187:289,1,70
201,296,27772,1,0,0:0:0:0:
234,321,27878,2,4,P|273:360|279:406,1,70
152,358,28302,2,0,L|58:325,1,70,8|2,0:0|0:0,0:0:0:0:
72,170,28727,6,2,P|5:127|-12:92,1,90.9999958343508
178,120,29152,2,2,P|135:189|147:231,1,90.9999958343508
101,298,29577,2,2,L|-1:312,1,90.9999958343508
107,361,30002,2,2,L|224:371,1,90.9999958343508
263,281,30426,2,2,B|235:212|235:212|210:199,1,90.9999958343508
117,113,30851,2,2,B|90:145|90:145|92:183|92:183|75:209,1,90.9999958343508
171,191,31276,5,0,0:0:0:0:
209,310,31594,2,0,L|193:263,1,35
229,198,31913,1,0,0:0:0:0:
355,184,32126,5,8,0:0:0:0:
285,154,32338,1,8,0:0:0:0:
285,154,32444,1,8,0:0:0:0:
285,154,32550,1,8,0:0:0:0:
214,123,32763,1,8,0:0:0:0:
143,93,32975,2,10,P|89:103|71:145,1,105
214,298,33824,5,8,0:0:0:0:
287,196,34143,1,8,0:0:0:0:
287,196,34249,1,8,0:0:0:0:
336,129,34461,1,8,0:0:0:0:
203,225,34674,5,8,0:0:0:0:
203,225,34780,1,8,0:0:0:0:
203,225,34886,1,8,0:0:0:0:
203,225,34992,1,8,0:0:0:0:
203,225,35098,1,8,0:0:0:0:
126,74,35524,6,8,P|155:36|190:24,1,70
215,21,35842,1,0,0:0:0:0:
257,20,35949,2,8,L|318:19,2,35
340,23,36373,6,8,P|378:52|390:87,1,70
393,112,36691,1,0,0:0:0:0:
394,154,36798,2,8,L|395:215,2,35
256,192,37223,12,2,38497,0:0:0:0:
489,34,38922,6,0,P|408:29|399:33,1,70
354,76,39346,2,0,P|315:147|307:152,1,70
219,70,39771,1,0,0:0:0:0:
140,310,40196,6,2,P|168:257|205:242,2,70
210,355,40621,6,0,P|273:351|308:337,1,70
361,368,41046,1,0,0:0:0:0:
444,366,41258,1,0,0:0:0:0:
505,308,41471,2,0,B|437:330|496:209|393:220,1,140
316,163,42108,5,0,0:0:0:0:
316,163,42214,1,0,0:0:0:0:
316,163,42320,2,0,P|295:232|297:249,1,70
338,300,42745,2,2,L|320:383,1,70,0|0,0:0|0:0,0:0:0:0:
442,318,43169,5,0,0:0:0:0:
442,318,43276,1,0,0:0:0:0:
442,318,43382,2,2,P|518:337|521:337,1,70,0|0,0:0|0:0,0:0:0:0:
490,254,43807,1,8,0:0:0:0:
464,130,44019,6,2,L|430:140,1,35
320,169,44231,2,4,L|354:159,1,35
392,150,44444,1,8,0:0:0:0:
133,352,45294,6,14,L|140:278,3,70
171,204,45718,5,0,0:0:0:0:
205,134,45931,1,0,0:0:0:0:
236,63,46143,1,0,0:0:0:0:
236,63,46249,1,0,0:0:0:0:
236,63,46356,1,0,0:0:0:0:
266,133,46568,2,2,B|300:214|300:214,1,70
328,274,46993,1,0,0:0:0:0:
378,114,47417,6,8,P|452:145|460:193,1,105
462,204,47842,1,8,0:0:0:0:
465,245,47948,1,8,0:0:0:0:
469,286,48054,1,8,0:0:0:0:
473,328,48161,1,8,0:0:0:0:
477,369,48267,1,8,0:0:0:0:
378,290,48479,6,0,L|385:346,2,35
388,206,48903,1,4,0:0:0:0:
264,225,49116,6,4,B|207:370|207:370|155:227,1,280,4|12,0:0|0:0,0:0:0:0:
165,253,50178,1,4,0:0:0:0:
21,169,50390,1,12,0:0:0:0:
21,169,50602,1,4,0:0:0:0:
171,93,50815,6,4,B|221:238|221:238|264:164,1,210,12|4,0:0|0:0,0:0:0:0:
275,32,51664,1,4,0:0:0:0:
275,32,51877,1,4,0:0:0:0:
107,48,52090,5,2,0:0:0:0:
265,106,52515,6,0,P|321:109|374:173,1,140
373,169,53046,1,0,0:0:0:0:
373,169,53152,1,0,0:0:0:0:
288,166,53365,6,0,P|285:222|221:275,1,140
225,274,53896,1,0,0:0:0:0:
225,274,54002,1,0,0:0:0:0:
227,190,54214,6,0,P|171:187|118:123,1,140
119,127,54745,1,0,0:0:0:0:
119,127,54851,1,0,0:0:0:0:
204,130,55064,6,0,P|207:74|271:21,1,140
304,41,55595,1,0,0:0:0:0:
345,46,55701,1,0,0:0:0:0:
384,32,55807,1,0,0:0:0:0:
420,12,55913,6,0,P|439:50|438:99,1,70,4|0,0:0|0:0,0:0:0:0:
473,154,56338,2,8,L|492:190,2,35
430,226,56762,5,4,0:0:0:0:
333,144,56974,1,4,0:0:0:0:
207,159,57186,1,4,0:0:0:0:
285,213,57400,5,0,0:0:0:0:
285,213,57506,1,0,0:0:0:0:
285,213,57612,2,2,L|207:232,1,70
96,265,58037,2,2,L|164:248,1,70
84,150,58461,6,2,B|117:135|117:135|96:109|96:109|129:95|129:95|108:68|108:68,1,140
270,111,59311,6,0,P|293:155|332:173,1,70
396,199,59736,1,8,0:0:0:0:
396,199,59842,1,8,0:0:0:0:
396,199,59948,1,8,0:0:0:0:
385,325,60161,5,0,0:0:0:0:
288,243,60373,1,0,0:0:0:0:
162,258,60585,1,0,0:0:0:0:
265,317,60798,5,2,0:0:0:0:
265,317,60904,1,2,0:0:0:0:
265,317,61011,1,2,0:0:0:0:
375,252,61223,1,2,0:0:0:0:
375,252,61329,1,2,0:0:0:0:
375,252,61435,2,2,P|335:191|311:181,2,70,2|2|6,0:0|0:0|0:0,0:0:0:0:
259,202,62072,5,8,0:0:0:0:
139,240,62284,1,12,0:0:0:0:
156,364,62496,1,8,0:0:0:0:
238,340,62710,6,0,P|314:336|332:327,1,70
388,357,63134,2,0,P|399:318|425:286,1,70
432,217,63559,1,0,0:0:0:0:
432,217,63665,2,0,B|383:248|357:202|307:244,1,105
282,239,64196,1,2,0:0:0:0:
279,154,64409,6,0,P|286:86|296:72,1,70
315,56,64727,1,0,0:0:0:0:
353,38,64833,2,0,L|407:33,2,35
375,162,65258,6,2,P|385:112|424:83,1,70
305,11,65683,2,2,P|239:16|210:5,1,70
154,20,66108,6,0,P|143:61|152:96,1,70
148,87,66426,1,0,0:0:0:0:
148,87,66533,1,0,0:0:0:0:
69,116,66745,1,0,0:0:0:0:
40,195,66957,5,0,0:0:0:0:
147,261,67169,1,0,0:0:0:0:
29,306,67382,1,0,0:0:0:0:
145,375,67594,5,2,0:0:0:0:
145,375,67700,1,2,0:0:0:0:
145,375,67806,1,2,0:0:0:0:
25,384,68018,1,2,0:0:0:0:
25,384,68125,1,2,0:0:0:0:
25,384,68231,1,2,0:0:0:0:
82,271,68444,2,2,L|106:187,1,70,2|0,0:0|0:0,0:0:0:0:
215,327,68975,6,2,L|169:326,1,35
54,328,69293,1,2,0:0:0:0:
180,326,69506,6,8,P|173:275|148:229,1,105
120,198,69931,2,8,P|103:167|104:132,1,70
204,58,70355,2,0,L|224:110,3,35
250,115,70780,1,8,0:0:0:0:
364,178,70993,1,8,0:0:0:0:
364,178,71205,5,8,0:0:0:0:
250,115,71417,1,8,0:0:0:0:
216,90,71524,2,0,L|204:58,3,35
103,133,72054,2,8,P|103:167|120:198,1,70
147,228,72373,2,8,P|172:274|180:326,1,105
180,326,72904,6,8,P|173:275|148:229,1,105
120,198,73329,2,8,P|103:167|104:132,1,70
204,58,73753,2,0,L|224:110,3,35
250,115,74178,1,8,0:0:0:0:
360,174,74391,1,8,0:0:0:0:
426,224,74603,6,0,P|434:264|422:310,1,70
362,343,75028,1,0,0:0:0:0:
342,308,75134,1,0,0:0:0:0:
321,275,75241,1,0,0:0:0:0:
310,192,75453,5,8,0:0:0:0:
201,192,75666,1,8,0:0:0:0:
217,153,75771,1,0,0:0:0:0:
256,137,75878,1,0,0:0:0:0:
256,246,76090,1,14,0:0:0:0:
