osu file format v14

[General]
AudioFilename: audio.mp3
AudioLeadIn: 0
PreviewTime: 31276
Countdown: 0
SampleSet: Normal
StackLeniency: 0.7
Mode: 0
LetterboxInBreaks: 0
WidescreenStoryboard: 1

[Editor]
DistanceSpacing: 1.4
BeatDivisor: 4
GridSize: 32
TimelineZoom: 1

[Metadata]
Title:Dangerous Smile Precure
TitleUnicode:危険なキュアピース
Artist:Yayoi Kize
ArtistUnicode:Yayoi Kize
Creator:MrMcMikey22
Version:Extra
Source:NicoNicoDouga
Tags:niconicodouga, smileprecure, ytpmv, meme, anime, yellow, funny, lol
BeatmapID:3609902
BeatmapSetID:1718340

[Difficulty]
HPDrainRate:5
CircleSize:4.5
OverallDifficulty:8.2
ApproachRate:8.7
SliderMultiplier:1.7
SliderTickRate:1

[Events]
//Background and Video events
Video,0,"危険なキュアピース.mp4"
0,0,"screenshot007.jpg",0,0
//Break Periods
//Storyboard Layer 0 (Background)
//Storyboard Layer 1 (Fail)
//Storyboard Layer 2 (Pass)
//Storyboard Layer 3 (Foreground)
//Storyboard Layer 4 (Overlay)
//Storyboard Sound Samples

[TimingPoints]
1542,424.778761061947,4,1,0,60,1,0
4940,-100,4,1,0,70,0,0
5789,-66.6666666666667,4,1,0,70,0,0
6426,-100,4,1,0,70,0,0
9188,-66.6666666666667,4,1,0,70,0,0
9612,-100,4,1,0,70,0,0
11099,-80,4,1,0,70,0,0
11736,-100,4,1,0,70,0,0
13011,-100,4,1,0,70,0,0
13329,-100,4,1,0,70,0,0
28727,-66.6666666666667,4,1,0,69,0,0
30426,-50,4,1,0,69,0,0
30851,-25,4,1,0,69,0,0
31276,-100,4,1,0,80,0,0
32126,-100,4,1,0,70,0,0
37223,-66.6666666666667,4,1,0,70,0,0
38072,-50,4,1,0,70,0,0
38922,-100,4,1,0,70,0,0
39772,-66.6666666666667,4,1,0,70,0,0
40196,-33.3333333333333,4,1,0,100,0,0
40621,-100,4,1,0,70,0,0
42108,-100,4,1,0,83,0,0
44444,-500,4,1,0,83,0,0
45294,-25,4,1,0,100,0,1
45506,-100,4,1,0,100,0,0
45718,-100,4,1,0,70,0,0
48904,-133.333333333333,4,1,0,70,0,0
49117,-80,4,1,0,70,0,0
49435,-66.6666666666667,4,1,0,70,0,0
49966,-50,4,1,0,70,0,0
50816,-100,4,1,0,70,0,0
52515,-100,4,1,0,60,0,0
56763,-66.6666666666667,4,1,0,70,0,0
57190,-100,4,1,0,70,0,0
57400,-100,4,1,0,70,0,0
60798,-100,4,1,0,70,0,0
68657,-133.333333333333,4,1,0,70,0,0
69081,-66.6666666666667,4,1,0,70,0,0
69294,-100,4,1,0,70,0,0
75453,-100,4,3,0,69,0,0
75665,-100,4,1,0,69,0,0
75878,-100,4,2,0,69,0,0
76090,-100,4,2,0,100,0,0
76196,-100,4,3,0,100,0,0
76303,-100,4,1,0,100,0,0

[Colours]
Combo1 : 234,209,34
Combo2 : 255,255,128
Combo3 : 232,193,91
Combo4 : 249,128,17
Combo5 : 255,192,0

[HitObjects]
132,89,692,5,0,0:0:0:0:
132,89,1117,1,0,0:0:0:0:
237,33,1329,5,0,0:0:0:0:
296,30,1435,1,0,0:0:0:0:
354,41,1542,2,0,P|395:79|376:150,1,127.5
342,187,1966,2,0,P|335:222|382:249,1,85
289,337,2391,6,0,P|251:378|180:359,1,127.5
143,327,2815,2,0,P|108:320|81:367,1,85
50,238,3241,6,0,P|9:200|28:129,1,127.5
60,92,3665,2,0,P|67:57|20:30,1,85
147,58,4090,6,0,P|185:17|256:36,1,127.5
271,44,4515,1,8,0:0:0:0:
297,77,4621,1,8,0:0:0:0:
305,135,4727,1,8,0:0:0:0:
291,202,4834,1,8,0:0:0:0:
211,173,4940,6,0,L|197:124,1,42.5
140,126,5152,2,0,L|126:77,1,42.5
225,15,5365,1,8,0:0:0:0:
166,15,5471,1,8,0:0:0:0:
195,66,5577,1,8,0:0:0:0:
257,325,5789,5,4,0:0:0:0:
90,258,6002,1,4,0:0:0:0:
211,126,6214,1,4,0:0:0:0:
375,198,6426,5,0,0:0:0:0:
412,244,6533,1,0,0:0:0:0:
449,198,6639,1,2,0:0:0:0:
256,337,6850,5,2,0:0:0:0:
256,277,6957,1,2,0:0:0:0:
303,312,7063,1,2,0:0:0:0:
318,133,7276,1,2,0:0:0:0:
147,77,7488,6,0,B|181:189|50:194|160:316,1,255,4|0,0:0|0:0,0:0:0:0:
213,292,8232,1,0,0:0:0:0:
238,238,8338,5,0,0:0:0:0:
241,178,8444,1,0,0:0:0:0:
259,121,8550,1,0,0:0:0:0:
306,84,8657,1,8,0:0:0:0:
364,75,8763,1,8,0:0:0:0:
415,104,8869,1,8,0:0:0:0:
434,160,8975,1,8,0:0:0:0:
166,172,9188,6,4,L|151:45,2,127.500004863739
256,326,9825,5,8,0:0:0:0:
146,372,9931,1,8,0:0:0:0:
41,326,10037,1,8,0:0:0:0:
201,246,10250,5,8,0:0:0:0:
256,223,10356,1,8,0:0:0:0:
311,246,10462,1,8,0:0:0:0:
189,41,10674,1,0,0:0:0:0:
22,212,10887,1,4,0:0:0:0:
152,283,11099,5,8,0:0:0:0:
233,308,11205,1,0,0:0:0:0:
317,311,11311,1,8,0:0:0:0:
399,289,11418,1,0,0:0:0:0:
418,206,11524,1,8,0:0:0:0:
377,131,11630,1,0,0:0:0:0:
325,174,11736,6,0,P|258:155|257:149,1,85
218,109,12055,1,0,0:0:0:0:
160,94,12161,2,0,B|127:108|187:179|165:222,1,127.5,8|0,0:0|0:0,0:0:0:0:
63,301,12586,5,0,0:0:0:0:
120,314,12692,1,0,0:0:0:0:
179,319,12798,1,0,0:0:0:0:
237,309,12904,1,8,0:0:0:0:
289,279,13011,2,0,B|286:233|286:233|307:184,1,85,8|2,0:0|0:0,0:0:0:0:
248,28,13435,5,0,0:0:0:0:
243,87,13541,1,0,0:0:0:0:
218,140,13647,1,0,0:0:0:0:
172,178,13753,1,0,0:0:0:0:
117,202,13860,2,2,L|48:225,2,42.5
255,314,14285,5,8,0:0:0:0:
256,246,14391,1,8,0:0:0:0:
256,178,14497,1,8,0:0:0:0:
110,34,14710,5,10,0:0:0:0:
107,110,14816,1,10,0:0:0:0:
88,184,14922,1,10,0:0:0:0:
38,241,15028,1,10,0:0:0:0:
136,308,15134,6,0,B|158:337|158:337|238:342,1,85
206,340,15453,1,0,0:0:0:0:
168,227,15559,1,0,0:0:0:0:
322,136,15772,1,0,0:0:0:0:
405,296,15984,6,4,L|439:241,1,42.5
399,207,16196,2,4,L|383:142,1,42.5
402,107,16409,1,4,0:0:0:0:
199,44,16621,5,0,0:0:0:0:
256,101,16728,1,0,0:0:0:0:
312,44,16834,1,0,0:0:0:0:
298,260,17046,5,0,0:0:0:0:
256,217,17152,1,0,0:0:0:0:
214,260,17259,1,0,0:0:0:0:
256,301,17471,1,0,0:0:0:0:
370,192,17683,5,2,0:0:0:0:
255,54,17895,1,2,0:0:0:0:
142,192,18108,1,2,0:0:0:0:
255,330,18320,5,0,0:0:0:0:
312,317,18426,1,0,0:0:0:0:
351,271,18533,6,8,P|407:264|394:226,1,85
371,135,18851,2,0,P|302:93|320:49,1,127.5,8|0,0:0|0:0,0:0:0:0:
161,160,19383,5,0,0:0:0:0:
143,217,19490,1,0,0:0:0:0:
126,274,19596,1,0,0:0:0:0:
110,331,19702,1,0,0:0:0:0:
7,270,19807,5,8,0:0:0:0:
233,196,20020,1,8,0:0:0:0:
7,270,20233,5,8,0:0:0:0:
233,196,20445,1,8,0:0:0:0:
110,331,20551,5,0,0:0:0:0:
126,274,20657,1,0,0:0:0:0:
143,217,20763,1,0,0:0:0:0:
161,160,20870,1,0,0:0:0:0:
309,60,21082,6,0,P|313:120|371:135,1,127.5,0|8,0:0|0:0,0:0:0:0:
408,248,21506,2,8,P|388:282|351:271,1,85
350,270,21931,6,8,P|388:282|408:248,1,85
371,134,22249,2,0,P|313:120|309:60,1,127.5,8|0,0:0|0:0,0:0:0:0:
161,160,22780,5,0,0:0:0:0:
143,217,22887,1,0,0:0:0:0:
126,274,22993,1,0,0:0:0:0:
110,331,23099,1,0,0:0:0:0:
7,270,23205,5,8,0:0:0:0:
233,196,23417,1,8,0:0:0:0:
267,89,23630,5,0,0:0:0:0:
267,89,23736,1,0,0:0:0:0:
267,89,23842,1,0,0:0:0:0:
267,89,23949,1,0,0:0:0:0:
362,159,24055,6,0,L|397:196,2,42.5
379,278,24480,5,4,0:0:0:0:
352,292,24586,1,2,0:0:0:0:
326,306,24692,1,4,0:0:0:0:
300,320,24798,1,2,0:0:0:0:
274,334,24904,1,4,0:0:0:0:
248,349,25011,1,2,0:0:0:0:
189,341,25117,5,12,0:0:0:0:
130,333,25223,1,12,0:0:0:0:
71,324,25329,1,12,0:0:0:0:
5,157,25542,6,0,L|7:98,1,42.5
102,42,25754,1,0,0:0:0:0:
102,42,25860,1,0,0:0:0:0:
102,42,25966,1,0,0:0:0:0:
141,163,26179,5,0,0:0:0:0:
376,192,26391,1,0,0:0:0:0:
256,192,26604,5,0,0:0:0:0:
491,221,26922,1,0,0:0:0:0:
431,227,27028,6,0,B|399:296|325:286,1,127.5
249,375,27453,2,0,P|185:333|148:336,1,85
138,288,27772,1,0,0:0:0:0:
139,228,27878,1,4,0:0:0:0:
173,53,28090,1,4,0:0:0:0:
71,200,28303,1,4,0:0:0:0:
184,120,28515,5,0,0:0:0:0:
184,120,28621,1,0,0:0:0:0:
184,120,28727,2,2,L|325:132,1,127.500004863739
88,279,29152,6,2,P|25:379|-2:376,1,127.500004863739
297,327,29577,6,2,B|350:265|350:265|327:200,1,127.500004863739
68,251,30002,6,2,P|50:243|59:249,1,127.500004863739
393,286,30426,6,2,B|489:297|489:297|497:382|439:350,1,170
65,100,30851,6,2,B|72:70|72:70|86:101|86:101|100:68|100:68|117:108|117:108|139:57|139:57|158:123|158:123|169:51,1,340
334,120,31276,6,8,P|404:70|409:83,1,127.5
392,118,31701,2,8,L|467:197,1,85
306,372,32126,5,8,0:0:0:0:
306,372,32338,1,8,0:0:0:0:
306,372,32444,1,8,0:0:0:0:
306,372,32550,1,8,0:0:0:0:
306,372,32763,1,8,0:0:0:0:
306,372,32975,1,8,0:0:0:0:
306,372,33294,1,8,0:0:0:0:
51,247,33825,5,8,0:0:0:0:
51,247,34143,1,8,0:0:0:0:
51,247,34249,1,8,0:0:0:0:
51,247,34462,1,8,0:0:0:0:
212,123,34674,5,4,0:0:0:0:
279,123,34780,1,4,0:0:0:0:
347,123,34887,1,4,0:0:0:0:
414,123,34993,1,4,0:0:0:0:
481,123,35099,2,4,L|481:68,2,42.5
432,356,35524,5,4,0:0:0:0:
373,345,35630,1,4,0:0:0:0:
318,321,35736,1,4,0:0:0:0:
292,267,35842,1,4,0:0:0:0:
293,207,35949,2,4,P|243:195|243:195,3,42.5
321,152,36373,5,4,0:0:0:0:
309,93,36480,1,4,0:0:0:0:
277,42,36586,1,4,0:0:0:0:
219,27,36692,1,4,0:0:0:0:
161,42,36798,2,4,L|122:16,3,42.5
65,15,37223,6,4,B|40:72|40:72|93:230,1,191.250007295609
119,369,37648,2,4,B|229:288|229:288|212:219,1,191.250007295609
256,0,38072,1,8,0:0:0:0:
256,384,38497,5,6,0:0:0:0:
397,192,38922,5,0,0:0:0:0:
402,132,39028,1,0,0:0:0:0:
385,75,39134,1,0,0:0:0:0:
337,38,39241,1,0,0:0:0:0:
219,20,39347,2,8,L|173:16,2,42.5
219,288,39772,6,0,B|187:341|187:341|114:303,1,127.500004863739
71,242,40090,1,0,0:0:0:0:
283,80,40196,6,14,L|410:91,3,127.500004863739
502,166,40621,6,2,P|495:231|443:270,1,127.5
402,378,41046,2,0,P|328:382|323:394,1,85
187,271,41471,2,8,B|240:200|424:264|445:187,1,255
485,195,42214,1,0,0:0:0:0:
460,78,42320,5,8,0:0:0:0:
411,112,42426,1,0,0:0:0:0:
361,78,42533,1,8,0:0:0:0:
312,112,42639,1,0,0:0:0:0:
262,78,42745,1,8,0:0:0:0:
256,274,42957,5,0,0:0:0:0:
256,274,43064,1,0,0:0:0:0:
139,252,43170,5,0,0:0:0:0:
85,227,43276,1,0,0:0:0:0:
53,176,43382,1,8,0:0:0:0:
78,59,43595,1,8,0:0:0:0:
208,187,43807,5,0,0:0:0:0:
208,187,43913,1,0,0:0:0:0:
325,321,44019,5,4,0:0:0:0:
325,232,44125,1,4,0:0:0:0:
325,143,44231,1,4,0:0:0:0:
325,54,44338,1,4,0:0:0:0:
401,181,44444,6,0,B|425:175|429:156,1,34
461,313,45294,6,14,L|366:344,7,85
283,270,45718,6,0,P|271:191|195:131,1,170,4|0,0:0|0:0,0:0:0:0:
158,171,46249,2,0,P|157:225|198:177,1,127.5,0|4,0:0|0:0,0:0:0:0:
46,25,46780,1,8,0:0:0:0:
51,84,46886,1,8,0:0:0:0:
96,122,46992,1,8,0:0:0:0:
446,192,47418,5,8,0:0:0:0:
154,243,47736,1,8,0:0:0:0:
96,256,47843,1,8,0:0:0:0:
50,219,47949,1,8,0:0:0:0:
50,159,48055,1,8,0:0:0:0:
96,122,48161,1,8,0:0:0:0:
154,135,48267,1,8,0:0:0:0:
453,199,48480,5,2,0:0:0:0:
453,199,48586,1,2,0:0:0:0:
453,199,48692,1,8,0:0:0:0:
412,326,48904,6,0,B|425:332|425:332|450:326,1,31.8750012159348
293,344,49117,2,0,B|270:316|270:316|278:275,1,53.125
305,124,49435,2,0,B|190:97|190:97|113:107,1,191.250007295609,4|0,0:0|0:0,0:0:0:0:
44,158,49860,1,0,0:0:0:0:
70,239,49966,6,4,B|67:276|67:276|101:317,1,85
330,227,50179,2,4,B|333:264|333:264|302:300,1,85
209,300,50391,6,4,B|179:264|179:264|182:227,1,85
414,312,50604,2,4,B|445:276|445:276|442:239,1,85
364,148,50816,6,4,P|332:95|377:117,1,127.5,4|0,0:0|0:0,0:0:0:0:
148,148,51241,2,0,P|180:95|135:117,1,127.5,0|4,0:0|0:0,0:0:0:0:
256,31,51665,1,0,0:0:0:0:
256,353,52090,5,2,0:0:0:0:
26,290,52515,5,8,0:0:0:0:
70,179,52727,1,0,0:0:0:0:
128,166,52834,1,8,0:0:0:0:
187,156,52940,1,8,0:0:0:0:
147,44,53152,1,8,0:0:0:0:
300,44,53365,5,8,0:0:0:0:
375,156,53577,1,0,0:0:0:0:
442,166,53684,1,8,0:0:0:0:
508,179,53790,1,8,0:0:0:0:
449,301,54002,1,8,0:0:0:0:
296,301,54214,5,8,0:0:0:0:
202,179,54426,1,0,0:0:0:0:
125,166,54533,1,8,0:0:0:0:
49,156,54639,1,8,0:0:0:0:
139,32,54851,1,8,0:0:0:0:
309,32,55064,5,8,0:0:0:0:
154,101,55276,2,8,L|220:106,1,42.5,0|8,0:0|0:0,0:0:0:0:
252,84,55488,5,10,0:0:0:0:
262,107,55595,1,10,0:0:0:0:
296,132,55701,1,10,0:0:0:0:
353,147,55807,1,10,0:0:0:0:
458,201,55913,6,0,P|418:219|363:218,1,85
365,279,56232,1,0,0:0:0:0:
252,316,56338,1,8,0:0:0:0:
259,257,56444,1,8,0:0:0:0:
234,202,56550,1,8,0:0:0:0:
121,162,56763,5,4,0:0:0:0:
32,7,56975,1,4,0:0:0:0:
199,70,57188,1,4,0:0:0:0:
427,134,57400,5,0,0:0:0:0:
447,210,57506,1,0,0:0:0:0:
369,190,57612,1,2,0:0:0:0:
282,346,57825,5,2,0:0:0:0:
256,292,57931,1,2,0:0:0:0:
232,346,58037,1,2,0:0:0:0:
408,317,58249,5,2,0:0:0:0:
223,166,58462,6,0,B|94:6|26:141|177:161,1,255,4|0,0:0|0:0,0:0:0:0:
167,214,59205,1,0,0:0:0:0:
219,241,59311,5,0,0:0:0:0:
272,212,59418,1,0,0:0:0:0:
311,166,59524,1,0,0:0:0:0:
358,130,59630,1,0,0:0:0:0:
415,115,59736,2,8,L|473:119,2,42.5
236,126,60161,5,4,0:0:0:0:
363,250,60373,1,4,0:0:0:0:
195,311,60586,1,4,0:0:0:0:
61,192,60798,5,8,0:0:0:0:
140,192,60904,1,8,0:0:0:0:
177,120,61011,1,8,0:0:0:0:
339,192,61223,5,8,0:0:0:0:
398,192,61329,1,8,0:0:0:0:
425,246,61436,1,8,0:0:0:0:
343,87,61648,5,8,0:0:0:0:
173,139,61860,1,8,0:0:0:0:
318,327,62072,5,8,0:0:0:0:
352,267,62179,1,4,0:0:0:0:
361,199,62285,1,12,0:0:0:0:
348,132,62391,1,4,0:0:0:0:
309,75,62497,1,12,0:0:0:0:
242,59,62603,1,4,0:0:0:0:
182,93,62710,6,0,P|170:27|89:24,1,127.5
127,129,63134,2,0,L|124:285,1,127.5,8|0,0:0|0:0,0:0:0:0:
108,374,63559,5,0,0:0:0:0:
61,336,63665,1,0,0:0:0:0:
32,283,63772,1,8,0:0:0:0:
25,224,63878,1,0,0:0:0:0:
31,164,63984,2,2,P|58:127|64:75,1,85
195,211,64409,6,0,P|247:188|309:194,1,85
333,194,64727,1,0,0:0:0:0:
358,139,64834,2,2,P|348:86|324:60,1,85
156,18,65258,5,4,0:0:0:0:
144,85,65365,1,4,0:0:0:0:
133,152,65471,1,4,0:0:0:0:
88,376,65683,5,2,0:0:0:0:
153,337,65789,1,2,0:0:0:0:
217,377,65895,1,2,0:0:0:0:
285,341,66002,1,2,0:0:0:0:
350,302,66108,6,0,P|383:238|418:230,1,85
390,234,66426,1,0,0:0:0:0:
478,154,66533,1,0,0:0:0:0:
319,73,66745,1,0,0:0:0:0:
497,87,66957,5,4,0:0:0:0:
330,148,67170,1,4,0:0:0:0:
473,255,67382,1,4,0:0:0:0:
344,379,67595,5,8,0:0:0:0:
289,359,67701,1,8,0:0:0:0:
251,314,67807,1,8,0:0:0:0:
277,198,68019,5,8,0:0:0:0:
218,207,68126,1,8,0:0:0:0:
159,217,68232,1,8,0:0:0:0:
395,192,68444,5,8,0:0:0:0:
117,192,68657,2,8,P|118:225|97:189,1,95.6250036478044
395,192,69081,2,2,P|417:219|415:189,3,63.7500024318696
422,75,69506,5,0,0:0:0:0:
313,26,69612,1,0,0:0:0:0:
346,140,69825,2,8,B|362:205|362:205|360:245,1,85,8|0,0:0|0:0,0:0:0:0:
361,223,70143,1,8,0:0:0:0:
149,333,70356,5,8,0:0:0:0:
105,292,70462,1,0,0:0:0:0:
85,236,70568,1,8,0:0:0:0:
105,180,70674,1,0,0:0:0:0:
18,97,70780,5,8,0:0:0:0:
176,233,70993,1,8,0:0:0:0:
176,233,71205,5,8,0:0:0:0:
18,97,71418,1,8,0:0:0:0:
105,180,71524,5,0,0:0:0:0:
85,236,71630,1,8,0:0:0:0:
105,292,71736,1,0,0:0:0:0:
149,333,71842,1,8,0:0:0:0:
361,223,72055,5,8,0:0:0:0:
361,223,72161,2,0,B|362:205|362:205|346:140,1,85,0|8,0:0|0:0,0:0:0:0:
313,26,72586,1,0,0:0:0:0:
422,75,72692,1,0,0:0:0:0:
422,75,72904,5,0,0:0:0:0:
313,26,73010,1,0,0:0:0:0:
346,140,73223,2,0,B|362:205|362:205|361:223,1,85,8|0,0:0|0:0,0:0:0:0:
361,223,73541,1,8,0:0:0:0:
149,333,73754,5,8,0:0:0:0:
105,292,73860,1,0,0:0:0:0:
85,236,73966,1,8,0:0:0:0:
105,180,74072,1,0,0:0:0:0:
22,101,74178,5,8,0:0:0:0:
176,233,74391,1,8,0:0:0:0:
327,138,74603,5,8,0:0:0:0:
302,84,74710,1,8,0:0:0:0:
244,71,74816,1,8,0:0:0:0:
197,108,74922,1,0,0:0:0:0:
197,167,75028,1,0,0:0:0:0:
244,205,75134,1,0,0:0:0:0:
302,191,75241,1,0,0:0:0:0:
386,192,75453,5,8,0:0:0:0:
126,192,75665,5,8,0:0:0:0:
256,322,75878,5,8,0:0:0:0:
256,62,76090,5,8,0:0:0:0:
256,164,76196,1,8,0:0:0:0:
256,265,76303,1,8,0:0:0:0:
