osu file format v14

[General]
AudioFilename: audio.mp3
AudioLeadIn: 0
PreviewTime: 31276
Countdown: 0
SampleSet: Normal
StackLeniency: 0.7
Mode: 0
LetterboxInBreaks: 0
WidescreenStoryboard: 1

[Editor]
DistanceSpacing: 1.5
BeatDivisor: 4
GridSize: 32
TimelineZoom: 1

[Metadata]
Title:Dangerous Smile Precure
TitleUnicode:危険なキュアピース
Artist:Yayoi Kize
ArtistUnicode:Yayoi Kize
Creator:MrMcMikey22
Version:Dangerous Smile!
Source:NicoNicoDouga
Tags:niconicodouga, smileprecure, ytpmv, meme, anime, yellow, funny, lol
BeatmapID:3511537
BeatmapSetID:1718340

[Difficulty]
HPDrainRate:6
CircleSize:5
OverallDifficulty:8.5
ApproachRate:9
SliderMultiplier:1.4
SliderTickRate:1

[Events]
//Background and Video events
Video,0,"危険なキュアピース.mp4"
0,0,"screenshot007.jpg",0,0
//Break Periods
//Storyboard Layer 0 (Background)
//Storyboard Layer 1 (Fail)
//Storyboard Layer 2 (Pass)
//Storyboard Layer 3 (Foreground)
//Storyboard Layer 4 (Overlay)
//Storyboard Sound Samples

[TimingPoints]
1542,424.778761061947,4,1,0,60,1,0
4940,-100,4,1,0,70,0,0
28727,-50,4,1,0,69,0,0
30426,-33.3333333333333,4,1,0,69,0,0
30851,-25,4,1,0,69,0,0
31276,-100,4,1,0,100,0,0
32126,-100,4,1,0,70,0,0
40196,-25,4,1,0,100,0,0
40621,-100,4,1,0,70,0,0
42108,-100,4,1,0,83,0,0
45294,-25,4,1,0,100,0,0
45718,-50,4,1,0,70,0,0
49542,-25,4,1,0,70,0,0
49966,-12.5,4,1,0,70,0,0
50179,-50,4,1,0,70,0,0
50391,-12.5,4,1,0,70,0,0
50603,-50,4,1,0,70,0,0
50816,-100,4,1,0,70,0,0
51665,-50,4,1,0,70,0,0
52090,-100,4,1,0,70,0,0
58462,-50,4,1,0,70,0,0
59099,-100,4,1,0,70,0,0
60161,-50,4,1,0,70,0,0
60798,-100,4,1,0,70,0,0
75453,-100,4,1,0,15,0,0
75665,-100,4,1,0,30,0,0
75878,-100,4,1,0,60,0,0
76090,-100,4,1,0,100,0,0

[Colours]
Combo1 : 234,209,34
Combo2 : 255,255,128
Combo3 : 232,193,91
Combo4 : 249,128,17
Combo5 : 255,192,0

[HitObjects]
149,84,692,5,0,0:0:0:0:
149,84,1117,1,0,0:0:0:0:
102,179,1329,5,0,0:0:0:0:
102,179,1435,1,0,0:0:0:0:
189,239,1542,6,0,P|244:265|304:270,1,105
391,259,1966,1,0,0:0:0:0:
368,102,2179,1,0,0:0:0:0:
267,130,2391,6,0,P|324:150|370:189,1,105
424,259,2815,1,0,0:0:0:0:
297,354,3028,1,0,0:0:0:0:
287,249,3241,6,0,P|232:275|172:280,1,105
85,269,3665,1,0,0:0:0:0:
108,112,3878,1,0,0:0:0:0:
209,140,4090,6,0,P|151:160|105:199,1,105
65,197,4515,1,8,0:0:0:0:
15,180,4621,1,0,0:0:0:0:
3,131,4727,1,8,0:0:0:0:
13,79,4834,1,0,0:0:0:0:
114,52,4940,6,0,L|157:25,1,35,4|0,0:0|0:0,0:0:0:0:
241,70,5152,2,0,L|293:96,1,35
375,66,5365,2,0,L|433:53,2,35
291,258,5789,5,4,0:0:0:0:
135,116,6002,1,4,0:0:0:0:
134,325,6214,1,4,0:0:0:0:
200,245,6426,5,0,0:0:0:0:
200,245,6533,1,0,0:0:0:0:
246,150,6639,2,8,P|180:165|157:184,1,70
135,194,6957,1,0,0:0:0:0:
116,90,7064,1,8,0:0:0:0:
61,294,7276,1,8,0:0:0:0:
206,354,7488,6,0,B|299:402|338:364|338:364|363:362|362:356|342:344|340:334|374:333|373:323|357:298,1,210,8|0,0:0|0:0,0:0:0:0:
302,316,8232,1,0,0:0:0:0:
273,215,8338,6,0,L|275:277,1,35
227,155,8550,2,0,L|229:217,1,35
181,95,8763,2,0,L|183:157,1,35
154,230,8975,1,0,0:0:0:0:
336,334,9188,6,8,L|392:346,1,35
298,264,9400,2,8,L|253:256,1,35
184,189,9612,1,8,0:0:0:0:
346,55,9825,5,0,0:0:0:0:
346,55,9931,1,0,0:0:0:0:
346,55,10037,1,8,0:0:0:0:
346,265,10249,1,0,0:0:0:0:
361,308,10356,1,8,0:0:0:0:
376,350,10462,1,0,0:0:0:0:
276,330,10674,1,8,0:0:0:0:
263,120,10887,5,8,0:0:0:0:
53,105,11099,1,12,0:0:0:0:
61,156,11205,1,0,0:0:0:0:
69,207,11311,1,8,0:0:0:0:
77,259,11418,1,0,0:0:0:0:
86,310,11524,1,8,0:0:0:0:
94,361,11630,1,0,0:0:0:0:
168,287,11736,6,0,B|175:216|175:216|213:202,1,105
206,204,12161,1,0,0:0:0:0:
290,266,12373,1,0,0:0:0:0:
409,93,12586,5,0,0:0:0:0:
356,93,12692,1,0,0:0:0:0:
303,95,12798,1,0,0:0:0:0:
251,102,12904,1,0,0:0:0:0:
199,113,13011,1,0,0:0:0:0:
150,131,13117,1,0,0:0:0:0:
109,163,13223,2,2,L|80:208,1,35,0|0,0:0|0:0,0:0:0:0:
175,254,13435,6,0,L|166:334,1,70
219,329,13754,1,0,0:0:0:0:
271,334,13860,1,0,0:0:0:0:
323,339,13966,1,0,0:0:0:0:
375,345,14072,1,0,0:0:0:0:
472,158,14285,6,2,L|494:125,2,35
269,102,14710,2,2,L|243:64,1,35
229,198,14922,2,2,L|210:170,1,35
202,273,15134,5,0,0:0:0:0:
401,337,15347,1,0,0:0:0:0:
401,337,15453,1,0,0:0:0:0:
401,337,15559,1,0,0:0:0:0:
267,252,15772,1,0,0:0:0:0:
406,179,15984,5,0,0:0:0:0:
250,320,16196,1,0,0:0:0:0:
350,135,16409,1,0,0:0:0:0:
97,283,16621,5,2,0:0:0:0:
94,230,16727,1,2,0:0:0:0:
111,179,16834,1,2,0:0:0:0:
155,207,16940,1,0,0:0:0:0:
205,222,17046,1,2,0:0:0:0:
257,222,17152,1,2,0:0:0:0:
301,193,17258,1,2,0:0:0:0:
320,143,17365,1,0,0:0:0:0:
323,90,17471,1,2,0:0:0:0:
360,53,17577,1,0,0:0:0:0:
410,66,17683,2,0,P|433:98|434:143,1,70
380,216,18002,1,8,0:0:0:0:
209,93,18108,5,2,0:0:0:0:
209,93,18320,1,2,0:0:0:0:
180,301,18533,5,0,0:0:0:0:
128,289,18639,2,0,P|87:257|80:236,1,70,0|2,0:0|0:0,0:0:0:0:
81,189,18957,1,0,0:0:0:0:
219,31,19170,1,0,0:0:0:0:
294,227,19381,5,4,0:0:0:0:
241,227,19488,1,4,0:0:0:0:
215,182,19594,1,4,0:0:0:0:
241,137,19700,1,0,0:0:0:0:
294,137,19806,1,8,0:0:0:0:
394,322,20019,1,8,0:0:0:0:
394,322,20232,5,8,0:0:0:0:
294,137,20445,1,8,0:0:0:0:
241,137,20551,1,0,0:0:0:0:
215,182,20657,1,4,0:0:0:0:
241,227,20763,1,4,0:0:0:0:
294,227,20870,1,4,0:0:0:0:
219,31,21081,5,0,0:0:0:0:
81,189,21294,1,0,0:0:0:0:
81,241,21400,2,0,P|97:271|128:289,1,70,2|0,0:0|0:0,0:0:0:0:
180,301,21718,1,4,0:0:0:0:
180,301,21931,5,0,0:0:0:0:
128,289,22037,2,0,P|87:257|80:236,1,70,0|2,0:0|0:0,0:0:0:0:
81,189,22355,1,0,0:0:0:0:
219,31,22568,1,0,0:0:0:0:
294,227,22779,5,4,0:0:0:0:
241,227,22886,1,4,0:0:0:0:
215,182,22992,1,4,0:0:0:0:
241,137,23098,1,0,0:0:0:0:
294,137,23205,1,8,0:0:0:0:
394,322,23417,1,8,0:0:0:0:
294,137,23630,6,0,L|356:139,1,35
267,52,23842,2,0,L|329:54,1,35
208,102,24055,2,0,L|270:104,1,35
255,207,24267,1,0,0:0:0:0:
437,100,24480,5,8,0:0:0:0:
451,203,24586,1,8,0:0:0:0:
421,303,24692,1,8,0:0:0:0:
375,328,24798,1,8,0:0:0:0:
373,275,24904,1,8,0:0:0:0:
56,258,25117,6,2,L|17:264,2,35
153,298,25435,5,0,0:0:0:0:
205,289,25542,1,0,0:0:0:0:
256,280,25648,1,0,0:0:0:0:
305,187,25754,1,0,0:0:0:0:
356,178,25860,1,0,0:0:0:0:
407,170,25966,1,0,0:0:0:0:
458,162,26072,1,0,0:0:0:0:
376,95,26179,6,0,L|320:46,1,70
225,85,26497,1,0,0:0:0:0:
126,122,26603,2,0,L|106:237,1,105
108,225,27028,5,0,0:0:0:0:
295,318,27311,1,0,0:0:0:0:
317,270,27417,1,0,0:0:0:0:
322,217,27523,1,0,0:0:0:0:
317,164,27629,1,0,0:0:0:0:
295,115,27735,1,0,0:0:0:0:
322,217,27842,5,0,0:0:0:0:
295,115,28090,1,0,0:0:0:0:
295,318,28303,1,0,0:0:0:0:
15,5,28727,6,2,B|51:32|51:32|150:39,1,140
186,231,29152,2,2,B|185:210|95:223|443:68|116:163|310:170|206:118,1,140
378,128,29577,2,2,L|409:283,1,140
215,355,30002,2,2,B|190:328|190:328|205:285|205:285|180:231,1,140
489,171,30426,2,2,B|453:88|453:88|506:97|392:74|392:57|497:-42,1,210.000008010865
164,325,30851,2,2,P|249:242|285:4,1,280
359,175,31276,5,8,0:0:0:0:
66,57,31595,1,8,0:0:0:0:
66,57,31701,1,8,0:0:0:0:
66,267,31913,1,8,0:0:0:0:
256,356,32126,5,8,0:0:0:0:
308,152,32338,1,0,0:0:0:0:
256,140,32444,1,0,0:0:0:0:
202,152,32550,1,8,0:0:0:0:
256,356,32763,1,8,0:0:0:0:
256,140,32975,1,8,0:0:0:0:
256,140,33294,1,8,0:0:0:0:
256,297,33612,1,0,0:0:0:0:
33,0,33825,5,8,0:0:0:0:
256,185,34143,1,8,0:0:0:0:
256,185,34249,1,8,0:0:0:0:
479,0,34462,1,8,0:0:0:0:
343,160,34674,5,8,0:0:0:0:
321,207,34780,1,0,0:0:0:0:
169,160,34887,5,8,0:0:0:0:
191,207,34993,1,0,0:0:0:0:
256,284,35099,1,8,0:0:0:0:
256,133,35311,1,2,0:0:0:0:
342,73,35524,5,0,0:0:0:0:
298,43,35630,1,0,0:0:0:0:
247,30,35736,1,0,0:0:0:0:
194,30,35842,1,0,0:0:0:0:
93,186,35949,5,8,0:0:0:0:
144,172,36055,1,8,0:0:0:0:
180,134,36161,1,8,0:0:0:0:
218,354,36373,5,0,0:0:0:0:
261,323,36480,1,0,0:0:0:0:
287,277,36586,1,0,0:0:0:0:
293,225,36692,1,0,0:0:0:0:
443,186,36797,5,8,0:0:0:0:
409,147,36903,1,8,0:0:0:0:
357,142,37010,1,8,0:0:0:0:
233,177,37223,6,0,L|230:120,1,35
163,284,37435,2,0,L|160:227,1,35
202,216,37648,6,0,L|199:159,1,35
132,323,37860,2,0,L|129:266,1,35
333,339,38072,5,8,0:0:0:0:
44,33,38497,5,2,0:0:0:0:
398,258,38922,5,0,0:0:0:0:
347,271,39028,1,0,0:0:0:0:
296,284,39134,1,0,0:0:0:0:
244,297,39241,1,0,0:0:0:0:
91,338,39347,5,0,0:0:0:0:
142,324,39453,1,0,0:0:0:0:
193,310,39559,1,0,0:0:0:0:
193,204,39772,5,0,0:0:0:0:
34,62,39984,1,0,0:0:0:0:
454,65,40196,6,2,L|506:222,2,140
301,83,40621,5,0,0:0:0:0:
316,299,40834,1,0,0:0:0:0:
316,299,40940,1,0,0:0:0:0:
316,299,41046,1,0,0:0:0:0:
357,202,41258,1,0,0:0:0:0:
190,329,41471,6,0,P|195:305|183:249,1,70
164,213,41789,1,0,0:0:0:0:
172,161,41895,1,0,0:0:0:0:
354,56,42108,1,0,0:0:0:0:
421,255,42320,6,8,L|406:207,1,35
309,250,42533,2,8,L|324:202,1,35
354,56,42745,1,4,0:0:0:0:
354,56,42957,1,8,0:0:0:0:
274,125,43170,5,8,0:0:0:0:
191,189,43276,1,8,0:0:0:0:
107,253,43382,1,8,0:0:0:0:
124,149,43595,2,0,L|155:111,1,35,8|0,0:0|0:0,0:0:0:0:
95,29,43807,2,0,L|126:-9,1,35,8|0,0:0|0:0,0:0:0:0:
73,56,44019,5,8,0:0:0:0:
79,161,44126,1,8,0:0:0:0:
116,258,44232,1,8,0:0:0:0:
211,301,44338,1,8,0:0:0:0:
314,282,44444,1,8,0:0:0:0:
256,79,44869,5,0,0:0:0:0:
175,273,45294,6,4,L|478:274,1,280
454,273,45612,1,4,0:0:0:0:
383,350,45718,1,0,0:0:0:0:
110,355,46143,5,0,0:0:0:0:
110,355,46249,1,0,0:0:0:0:
110,355,46356,1,0,0:0:0:0:
121,145,46568,2,0,P|123:88|229:62,1,140
203,152,46887,1,0,0:0:0:0:
251,58,46993,1,0,0:0:0:0:
380,243,47418,5,8,0:0:0:0:
256,326,47736,1,8,0:0:0:0:
204,316,47842,1,8,0:0:0:0:
160,287,47949,1,8,0:0:0:0:
131,243,48055,1,8,0:0:0:0:
121,191,48161,1,8,0:0:0:0:
131,140,48267,1,8,0:0:0:0:
160,96,48373,1,8,0:0:0:0:
204,67,48480,1,8,0:0:0:0:
256,57,48586,1,8,0:0:0:0:
307,67,48692,1,8,0:0:0:0:
351,96,48798,1,8,0:0:0:0:
380,140,48904,1,8,0:0:0:0:
390,192,49011,1,8,0:0:0:0:
334,280,49117,5,0,0:0:0:0:
192,126,49223,2,4,B|151:193|151:193|92:137,1,140,4|12,0:0|0:0,0:0:0:0:
96,256,49542,2,0,L|405:293,1,280
19,65,49966,6,4,B|94:183|94:183|183:42,1,280
207,162,50179,2,0,B|213:196|213:196|266:180,1,70
430,85,50391,6,4,B|277:36|277:36|188:149,1,280
307,121,50603,2,0,B|310:161|310:161|344:146,1,70
433,191,50816,5,0,0:0:0:0:
50,360,51134,1,0,0:0:0:0:
50,360,51241,1,0,0:0:0:0:
70,257,51453,1,0,0:0:0:0:
94,303,51559,1,0,0:0:0:0:
172,233,51665,2,0,B|255:302|255:302|306:159,1,210
262,49,52090,5,2,0:0:0:0:
7,383,52515,5,8,0:0:0:0:
7,383,52727,1,0,0:0:0:0:
59,373,52834,1,8,0:0:0:0:
110,364,52940,1,8,0:0:0:0:
161,355,53046,1,0,0:0:0:0:
212,346,53152,1,8,0:0:0:0:
164,256,53365,5,8,0:0:0:0:
164,256,53577,1,0,0:0:0:0:
216,246,53684,1,8,0:0:0:0:
267,237,53790,1,8,0:0:0:0:
318,228,53896,1,0,0:0:0:0:
369,219,54002,1,8,0:0:0:0:
321,130,54214,5,8,0:0:0:0:
321,130,54426,1,0,0:0:0:0:
269,120,54533,1,8,0:0:0:0:
218,111,54639,1,8,0:0:0:0:
167,102,54745,1,0,0:0:0:0:
116,93,54851,1,8,0:0:0:0:
170,188,55064,5,8,0:0:0:0:
170,188,55276,1,0,0:0:0:0:
222,198,55382,1,8,0:0:0:0:
222,303,55488,5,8,0:0:0:0:
273,312,55594,1,8,0:0:0:0:
273,115,55701,1,8,0:0:0:0:
222,107,55807,1,8,0:0:0:0:
170,188,55913,5,4,0:0:0:0:
151,139,56019,1,0,0:0:0:0:
151,86,56126,1,0,0:0:0:0:
175,39,56232,1,0,0:0:0:0:
218,134,56338,1,8,0:0:0:0:
262,162,56444,1,8,0:0:0:0:
309,139,56550,1,8,0:0:0:0:
395,330,56763,5,4,0:0:0:0:
185,308,56975,1,4,0:0:0:0:
309,139,57188,1,4,0:0:0:0:
118,73,57400,5,2,0:0:0:0:
118,73,57506,1,0,0:0:0:0:
118,73,57612,1,8,0:0:0:0:
222,383,57825,1,2,0:0:0:0:
222,383,57931,1,0,0:0:0:0:
222,383,58037,1,8,0:0:0:0:
222,383,58249,1,8,0:0:0:0:
118,73,58462,6,8,B|201:84|201:84|213:158|213:158|276:171,1,210
263,168,58887,1,0,0:0:0:0:
263,168,59099,1,0,0:0:0:0:
313,28,59311,6,0,L|311:90,1,35
375,146,59524,2,0,L|373:208,1,35
307,261,59736,2,8,L|305:323,1,35
327,343,59948,1,8,0:0:0:0:
201,173,60161,6,0,P|123:175|137:110,1,140
145,338,60586,1,8,0:0:0:0:
119,236,60798,6,8,L|170:222,1,35
305,188,61011,1,8,0:0:0:0:
393,236,61223,6,8,L|342:222,1,35
207,188,61436,1,8,0:0:0:0:
256,95,61648,1,8,0:0:0:0:
256,304,61860,5,2,0:0:0:0:
339,0,62072,6,4,L|386:0,1,35
173,0,62285,6,4,L|126:0,1,35
256,173,62497,6,4,L|256:220,1,35
256,85,62710,6,0,L|256:155,1,70
256,32,63028,1,0,0:0:0:0:
448,62,63134,2,0,P|466:116|499:121,1,70
478,333,63559,1,4,0:0:0:0:
478,333,63665,1,4,0:0:0:0:
478,281,63772,1,4,0:0:0:0:
428,265,63878,1,4,0:0:0:0:
397,307,63984,1,4,0:0:0:0:
188,335,64197,5,0,0:0:0:0:
188,335,64303,1,0,0:0:0:0:
159,234,64409,2,0,P|234:205|253:273,1,140
282,290,64940,1,0,0:0:0:0:
331,307,65046,1,0,0:0:0:0:
407,111,65258,5,8,0:0:0:0:
359,87,65365,1,8,0:0:0:0:
306,80,65471,1,8,0:0:0:0:
292,247,65683,1,8,0:0:0:0:
340,265,65789,1,8,0:0:0:0:
385,291,65895,1,8,0:0:0:0:
340,318,66002,1,8,0:0:0:0:
292,339,66108,5,0,0:0:0:0:
305,129,66320,1,0,0:0:0:0:
401,170,66426,1,0,0:0:0:0:
316,232,66533,1,0,0:0:0:0:
132,331,66745,1,0,0:0:0:0:
153,121,66957,2,0,P|176:67|191:71,2,70
372,347,67595,5,2,0:0:0:0:
372,294,67701,1,0,0:0:0:0:
417,321,67807,1,2,0:0:0:0:
203,89,68019,5,2,0:0:0:0:
166,51,68125,1,0,0:0:0:0:
216,39,68231,1,2,0:0:0:0:
203,89,68444,5,0,0:0:0:0:
372,347,68657,1,0,0:0:0:0:
393,191,68975,5,8,0:0:0:0:
393,191,69081,5,2,0:0:0:0:
85,259,69294,1,2,0:0:0:0:
256,379,69506,6,8,L|256:288,1,70
282,263,69825,1,8,0:0:0:0:
230,263,69931,1,8,0:0:0:0:
256,54,70143,1,0,0:0:0:0:
256,229,70356,1,0,0:0:0:0:
218,192,70462,1,0,0:0:0:0:
256,154,70568,1,0,0:0:0:0:
293,192,70674,1,0,0:0:0:0:
345,192,70780,5,8,0:0:0:0:
167,192,70993,1,8,0:0:0:0:
167,192,71205,5,8,0:0:0:0:
345,192,71418,1,8,0:0:0:0:
293,192,71524,1,0,0:0:0:0:
256,154,71630,1,0,0:0:0:0:
218,192,71736,1,0,0:0:0:0:
256,229,71842,1,0,0:0:0:0:
256,54,72055,1,0,0:0:0:0:
230,263,72267,1,8,0:0:0:0:
282,263,72373,5,8,0:0:0:0:
256,309,72480,2,8,L|256:379,1,70
256,379,72904,6,8,L|256:309,1,70
282,263,73223,1,8,0:0:0:0:
230,263,73329,1,8,0:0:0:0:
256,54,73541,1,0,0:0:0:0:
256,229,73754,1,0,0:0:0:0:
218,192,73860,1,0,0:0:0:0:
256,154,73966,1,0,0:0:0:0:
293,192,74072,1,0,0:0:0:0:
345,192,74178,5,8,0:0:0:0:
167,192,74391,1,8,0:0:0:0:
399,192,74603,5,0,0:0:0:0:
399,192,74710,1,0,0:0:0:0:
486,257,74816,1,0,0:0:0:0:
486,257,74922,1,0,0:0:0:0:
400,316,75027,1,0,0:0:0:0:
486,377,75134,1,0,0:0:0:0:
384,349,75241,1,0,0:0:0:0:
399,192,75453,5,8,0:0:0:0:
256,117,75665,1,8,0:0:0:0:
113,192,75878,1,8,0:0:0:0:
256,266,76090,1,8,0:0:0:0:
256,318,76196,1,8,0:0:0:0:
256,370,76303,1,8,0:0:0:0:
