osu file format v14

[General]
AudioFilename: audio.mp3
AudioLeadIn: 0
PreviewTime: 31276
Countdown: 0
SampleSet: Normal
StackLeniency: 0.7
Mode: 0
LetterboxInBreaks: 0
WidescreenStoryboard: 1

[Editor]
DistanceSpacing: 1.2
BeatDivisor: 4
GridSize: 32
TimelineZoom: 1

[Metadata]
Title:Dangerous Smile Precure
TitleUnicode:危険なキュアピース
Artist:Yayoi Kize
ArtistUnicode:Yayoi Kize
Creator:MrMcMikey22
Version:Advanced
Source:NicoNicoDouga
Tags:niconicodouga, smileprecure, ytpmv, meme, anime, yellow, funny, lol
BeatmapID:3541073
BeatmapSetID:1718340

[Difficulty]
HPDrainRate:4
CircleSize:3.8
OverallDifficulty:5
ApproachRate:7
SliderMultiplier:1.3
SliderTickRate:1

[Events]
//Background and Video events
Video,0,"危険なキュアピース.mp4"
0,0,"screenshot007.jpg",0,0
//Break Periods
//Storyboard Layer 0 (Background)
//Storyboard Layer 1 (Fail)
//Storyboard Layer 2 (Pass)
//Storyboard Layer 3 (Foreground)
//Storyboard Layer 4 (Overlay)
//Storyboard Sound Samples

[TimingPoints]
1542,424.778761061947,4,1,0,60,1,0
4940,-100,4,1,0,70,0,0
15134,-100,4,1,0,70,0,0
28727,-80,4,1,0,69,0,0
31276,-100,4,1,0,100,0,0
32126,-100,4,1,0,70,0,0
40196,-50,4,1,0,100,0,0
40621,-100,4,1,0,70,0,0
42320,-100,4,1,0,83,0,0
45294,-80,4,1,0,100,0,1
45506,-100,4,1,0,100,0,0
45718,-100,4,1,0,70,0,0
76090,-100,4,1,0,100,0,0

[Colours]
Combo1 : 234,209,34
Combo2 : 255,255,128
Combo3 : 232,193,91
Combo4 : 249,128,17
Combo5 : 255,192,0

[HitObjects]
125,75,692,5,0,0:0:0:0:
125,75,1117,1,0,0:0:0:0:
125,75,1536,6,0,P|180:141|233:150,1,130
331,37,2391,2,0,P|323:122|354:166,1,130
373,311,3241,2,0,P|318:245|265:236,1,130
167,349,4096,2,0,P|173:285|149:252,1,97.5
156,258,4515,5,4,0:0:0:0:
84,287,4727,1,0,0:0:0:0:
29,343,4940,6,0,P|49:365|92:373,1,65,4|0,0:0|0:0,0:0:0:0:
160,373,5365,2,0,L|234:356,1,65
347,359,5789,1,4,0:0:0:0:
347,359,6002,1,4,0:0:0:0:
347,359,6214,1,4,0:0:0:0:
386,249,6426,6,0,L|346:209,1,32.5
333,200,6639,1,8,0:0:0:0:
231,259,6851,6,0,L|191:219,1,32.5
178,210,7064,1,8,0:0:0:0:
61,199,7276,1,8,0:0:0:0:
113,256,7488,2,2,B|84:393|162:262|219:391,1,195
278,325,8338,6,0,P|311:329|341:352,1,65
402,304,8763,2,0,P|435:300|465:277,1,65
450,174,9188,1,4,0:0:0:0:
450,174,9400,1,0,0:0:0:0:
450,174,9612,1,4,0:0:0:0:
339,212,9825,5,8,0:0:0:0:
300,210,9931,1,8,0:0:0:0:
263,197,10037,1,8,0:0:0:0:
172,122,10249,1,8,0:0:0:0:
279,72,10462,2,8,B|245:52|245:52|222:8,1,65
118,8,10887,5,4,0:0:0:0:
40,18,11099,2,4,L|5:48,5,32.5
8,77,11734,6,0,B|-22:139|76:173|76:173,1,130
63,250,12373,1,0,0:0:0:0:
136,223,12586,2,0,L|150:189,3,32.5
136,223,13011,2,0,P|168:256|227:264,1,97.5,2|0,0:0|0:0,0:0:0:0:
254,256,13435,6,0,L|319:216,1,65
360,280,13860,2,0,P|393:289|443:292,1,65,2|0,0:0|0:0,0:0:0:0:
457,180,14285,6,0,L|462:102,1,65
348,84,14710,2,0,B|339:51|339:51|336:1,1,65,2|0,0:0|0:0,0:0:0:0:
247,148,15134,6,0,L|155:135,1,65
143,133,15453,1,0,0:0:0:0:
104,129,15559,1,0,0:0:0:0:
128,14,15772,1,0,0:0:0:0:
36,86,15984,2,2,L|5:13,2,65
67,198,16621,6,0,L|35:230,2,32.5,8|0|8,0:0|0:0|0:0,0:0:0:0:
121,94,17046,2,0,L|143:71,2,32.5,8|0|8,0:0|0:0|0:0,0:0:0:0:
234,123,17471,1,0,0:0:0:0:
385,87,17683,1,0,0:0:0:0:
294,161,18002,5,2,0:0:0:0:
294,161,18108,2,2,L|278:233,1,65
304,70,18533,6,0,P|356:61|424:1,1,130
497,149,19382,1,4,0:0:0:0:
452,211,19595,1,4,0:0:0:0:
465,287,19807,1,4,0:0:0:0:
465,287,20232,5,4,0:0:0:0:
452,211,20444,1,4,0:0:0:0:
497,149,20657,1,4,0:0:0:0:
416,15,21082,2,0,P|367:57|304:70,1,130
304,70,21931,6,0,P|366:57|415:15,1,130
496,150,22780,1,4,0:0:0:0:
451,212,22993,1,4,0:0:0:0:
464,288,23205,1,4,0:0:0:0:
306,287,23630,6,0,P|272:284|244:268,1,65
205,201,24055,2,0,P|171:204|143:220,1,65
31,248,24480,6,2,L|58:213,2,32.5
68,359,24904,2,2,L|48:384,3,32.5
68,359,25329,6,0,B|175:373|232:272|173:241,1,195,4|0,0:0|0:0,0:0:0:0:
163,185,26179,1,0,0:0:0:0:
163,185,26391,1,0,0:0:0:0:
168,107,26603,2,0,B|92:87|92:87|29:118,1,130
33,226,27347,1,0,0:0:0:0:
41,188,27453,2,0,B|87:165|87:165|163:185,1,130
190,258,28090,1,0,0:0:0:0:
133,312,28303,1,0,0:0:0:0:
241,148,28727,6,2,P|118:137|64:146,1,162.5
250,239,29577,6,2,L|412:240,1,162.5
241,334,30426,6,2,B|118:323|118:323|64:332,1,162.5
26,182,31276,6,0,P|-3:133|26:55,1,130
92,73,31913,1,0,0:0:0:0:
163,40,32126,5,0,0:0:0:0:
240,33,32338,1,8,0:0:0:0:
313,58,32550,1,0,0:0:0:0:
345,129,32763,1,8,0:0:0:0:
311,199,32975,2,8,L|436:217,2,97.5,8|8|0,0:0|0:0|0:0,0:0:0:0:
256,144,33825,5,8,0:0:0:0:
201,199,34037,1,0,0:0:0:0:
256,255,34249,1,8,0:0:0:0:
311,199,34462,1,0,0:0:0:0:
256,144,34674,2,8,L|334:97,1,65
256,255,35099,2,8,L|348:287,1,65
405,199,35524,6,0,L|362:330,1,130,8|8,0:0|0:0,0:0:0:0:
431,363,36161,1,0,0:0:0:0:
365,322,36373,2,8,L|202:372,1,130
207,289,37011,1,0,0:0:0:0:
131,307,37223,6,8,P|96:350|35:359,2,97.5,8|0|8,0:0|0:0|0:0,0:0:0:0:
15,287,38072,2,0,L|2:179,1,97.5,4|2,0:0|0:0,0:0:0:0:
34,166,38497,1,0,0:0:0:0:
171,94,38922,6,0,B|186:46|259:38,1,97.5
278,18,39347,2,0,P|348:35|400:75,1,130
409,184,39984,1,0,0:0:0:0:
299,222,40196,6,2,B|293:165|203:240|208:166,1,130
105,222,40621,6,0,B|69:24|152:166|239:58|239:58|258:119|258:119|304:72|304:72|326:139|326:139,1,455
413,112,42320,5,0,0:0:0:0:
446,182,42533,2,0,L|426:251,1,65
453,318,42957,1,2,0:0:0:0:
344,309,43170,5,0,0:0:0:0:
344,309,43382,1,0,0:0:0:0:
344,309,43595,1,0,0:0:0:0:
277,268,43807,1,2,0:0:0:0:
139,332,44019,5,0,0:0:0:0:
139,332,44126,1,8,0:0:0:0:
139,332,44232,1,4,0:0:0:0:
207,369,44444,1,2,0:0:0:0:
397,28,45294,6,2,B|370:38|370:38|332:31|332:31|308:42,1,81.25
475,32,45718,6,0,P|498:121|461:155,1,130,4|0,0:0|0:0,0:0:0:0:
479,144,46249,1,0,0:0:0:0:
479,144,46356,1,0,0:0:0:0:
370,186,46568,1,4,0:0:0:0:
331,118,46780,2,0,L|378:97,2,32.5
175,106,47418,5,12,0:0:0:0:
72,49,47736,2,12,L|107:71,5,32.5
259,69,48480,1,0,0:0:0:0:
259,69,48692,1,8,0:0:0:0:
330,98,48904,1,0,0:0:0:0:
441,135,49117,6,4,B|386:273|386:273|323:162,1,260,4|12,0:0|0:0,0:0:0:0:
188,140,50179,1,0,0:0:0:0:
188,140,50391,1,8,0:0:0:0:
188,140,50603,1,0,0:0:0:0:
262,121,50815,6,0,B|435:70|435:70|368:0,1,260,0|2,0:0|0:0,0:0:0:0:
368,169,51878,1,0,0:0:0:0:
444,200,52090,1,2,0:0:0:0:
444,200,52515,6,0,P|388:263|327:277,1,130,8|0,0:0|0:0,0:0:0:0:
346,276,53152,1,0,0:0:0:0:
281,178,53365,2,0,P|288:108|321:35,1,130,8|0,0:0|0:0,0:0:0:0:
309,52,54002,1,0,0:0:0:0:
383,157,54214,2,0,P|473:204|501:236,1,130,8|0,0:0|0:0,0:0:0:0:
491,224,54851,1,0,0:0:0:0:
445,115,55064,2,0,P|492:25|524:-3,1,130,8|0,0:0|0:0,0:0:0:0:
399,39,55701,1,0,0:0:0:0:
282,33,55913,6,0,P|237:96|247:155,1,130,4|0,0:0|0:0,0:0:0:0:
185,198,56550,1,0,0:0:0:0:
241,311,56763,5,4,0:0:0:0:
241,311,56975,1,4,0:0:0:0:
241,311,57188,1,4,0:0:0:0:
353,342,57400,6,0,L|393:302,1,32.5
402,289,57613,1,8,0:0:0:0:
343,187,57825,6,0,L|383:147,1,32.5
392,134,58038,1,8,0:0:0:0:
472,48,58249,1,8,0:0:0:0:
355,37,58462,6,2,B|282:26|282:26|288:87|288:87|233:146,1,195
209,63,59311,6,0,P|176:59|146:36,1,65
85,84,59736,2,0,P|52:88|22:111,1,65
37,214,60161,1,4,0:0:0:0:
37,214,60373,1,0,0:0:0:0:
37,214,60585,1,4,0:0:0:0:
7,327,60798,5,8,0:0:0:0:
44,338,60905,1,8,0:0:0:0:
81,350,61011,1,8,0:0:0:0:
188,305,61223,2,8,L|186:249,2,32.5
279,378,61648,1,8,0:0:0:0:
327,273,61860,1,2,0:0:0:0:
411,191,62072,5,4,0:0:0:0:
478,150,62285,1,4,0:0:0:0:
412,117,62497,1,4,0:0:0:0:
412,117,62710,6,0,P|385:114|338:78,1,65
306,32,63134,2,0,L|223:28,1,65
124,42,63559,6,0,L|118:86,1,32.5,2|0,0:0|0:0,0:0:0:0:
121,113,63772,2,2,P|140:164|228:209,1,130
316,223,64409,6,0,P|332:193|412:183,1,97.5
425,208,64834,2,2,L|450:241,2,32.5
446,92,65258,6,0,L|363:53,1,65
270,56,65683,2,2,L|251:106,3,32.5
230,113,66108,6,0,P|184:102|150:72,1,65
137,71,66426,1,0,0:0:0:0:
116,37,66533,1,0,0:0:0:0:
49,133,66745,1,0,0:0:0:0:
85,244,66957,6,4,L|17:296,2,65
194,287,67595,6,0,B|187:331|187:331,2,32.5,0|0|8,0:0|0:0|0:0,0:0:0:0:
244,181,68019,2,0,B|237:137|237:137,2,32.5,0|0|8,0:0|0:0|0:0,0:0:0:0:
338,249,68444,1,0,0:0:0:0:
432,124,68657,6,0,P|377:74|329:57,1,97.5,8|2,0:0|0:0,0:0:0:0:
318,64,69081,1,2,0:0:0:0:
210,18,69294,1,8,0:0:0:0:
95,39,69506,6,0,B|48:81|48:81|28:153,1,130,2|0,0:0|0:0,0:0:0:0:
174,84,70356,1,4,0:0:0:0:
263,159,70568,1,4,0:0:0:0:
225,270,70780,1,4,0:0:0:0:
225,270,71205,5,4,0:0:0:0:
263,159,71417,1,4,0:0:0:0:
174,84,71629,1,4,0:0:0:0:
30,145,72055,2,0,B|48:81|48:81|95:39,1,130,2|0,0:0|0:0,0:0:0:0:
95,39,72904,6,0,B|48:81|48:81|30:145,1,130,2|0,0:0|0:0,0:0:0:0:
174,84,73754,1,4,0:0:0:0:
263,159,73966,1,4,0:0:0:0:
225,270,74178,1,4,0:0:0:0:
96,358,74603,6,0,P|117:287|86:233,1,130
93,239,75134,1,0,0:0:0:0:
93,239,75241,1,0,0:0:0:0:
256,255,75453,5,8,0:0:0:0:
320,192,75665,1,6,0:0:0:0:
193,192,75878,1,0,0:0:0:0:
256,128,76090,1,14,0:0:0:0:
