osu file format v14

[General]
AudioFilename: audio.mp3
AudioLeadIn: 0
PreviewTime: 4455
Countdown: 0
SampleSet: None
StackLeniency: 0.7
Mode: 3
LetterboxInBreaks: 0
SpecialStyle: 0
WidescreenStoryboard: 0

[Editor]
Bookmarks: 484,4455,12397,20339,28281,36223
DistanceSpacing: 2
BeatDivisor: 4
GridSize: 4
TimelineZoom: 1

[Metadata]
Title:Jimmy and Tommy
TitleUnicode:天下の大盗
Artist:Yasunori Shiono
ArtistUnicode:塩生康範
Creator:Weber
Version:NM
Source:エストポリス伝記II
Tags:Lufia 2 Rise Of The Sinistrals The Greatest Thieves In The World SNES video game super nintendo 16-bit estpolis Deif
BeatmapID:1205447
BeatmapSetID:561762

[Difficulty]
HPDrainRate:8
CircleSize:4
OverallDifficulty:8
ApproachRate:5
SliderMultiplier:1.4
SliderTickRate:1

[Events]
//Background and Video events
0,0,"Untitled.jpg",0,0
//Break Periods
//Storyboard Layer 0 (Background)
//Storyboard Layer 1 (Fail)
//Storyboard Layer 2 (Pass)
//Storyboard Layer 3 (Foreground)
//Storyboard Sound Samples

[TimingPoints]
484,496.380558428128,4,3,0,40,1,0
4455,-100,4,3,0,30,0,0
20339,-100,4,3,0,40,0,0
33245,-100,4,3,0,35,0,0
34237,-100,4,3,0,30,0,0
35230,-100,4,3,0,25,0,0
36223,-100,4,3,0,20,0,0

[HitObjects]
320,192,484,5,8,0:0:0:0:
192,192,484,1,8,0:0:0:0:
64,192,980,1,4,0:0:0:0:
192,192,980,1,4,0:0:0:0:
192,192,1476,1,8,0:0:0:0:
448,192,1476,1,8,0:0:0:0:
320,192,1724,1,4,0:0:0:0:
192,192,1973,1,4,0:0:0:0:
64,192,1973,1,4,0:0:0:0:
320,192,2221,1,4,0:0:0:0:
448,192,2469,1,2,0:2:0:0:
320,192,2593,1,2,0:2:0:0:
192,192,2717,1,2,0:2:0:0:
64,192,2841,1,2,0:2:0:0:
192,192,2965,1,2,0:2:0:0:
320,192,3089,1,2,0:2:0:0:
448,192,3214,1,2,0:2:0:0:
320,192,3338,1,2,0:2:0:0:
192,192,3462,1,4,0:0:0:0:
64,192,3462,1,4,0:0:0:0:
320,192,3710,1,8,0:0:0:0:
64,192,3958,1,8,0:0:0:0:
448,192,3958,1,8,0:0:0:0:
192,192,4206,1,4,0:0:0:0:
64,192,4455,1,8,0:0:0:0:
320,192,4455,1,8,0:0:0:0:
448,192,4951,1,2,0:0:0:0:
320,192,4951,1,2,0:0:0:0:
64,192,5447,1,4,0:0:0:0:
192,192,5695,1,8,0:0:0:0:
320,192,5944,1,2,0:0:0:0:
448,192,5944,1,2,0:0:0:0:
192,192,6192,1,8,0:0:0:0:
448,192,6440,1,4,0:0:0:0:
64,192,6440,1,4,0:0:0:0:
320,192,6936,1,2,0:0:0:0:
192,192,6936,1,2,0:0:0:0:
64,192,7433,1,8,0:0:0:0:
192,192,7929,1,2,0:0:0:0:
320,192,7929,1,2,0:0:0:0:
448,192,8426,1,4,0:0:0:0:
320,192,8922,1,2,0:0:0:0:
64,192,8922,1,2,0:0:0:0:
192,192,9418,1,4,0:0:0:0:
448,192,9667,1,8,0:0:0:0:
320,192,9915,1,4,0:0:0:0:
64,192,9915,1,4,0:0:0:0:
192,192,10163,1,8,0:0:0:0:
64,192,10411,1,2,0:2:0:0:
192,192,10535,1,2,0:2:0:0:
320,192,10659,1,2,0:2:0:0:
448,192,10783,1,2,0:2:0:0:
320,192,10907,1,2,0:2:0:0:
192,192,11032,1,2,0:2:0:0:
64,192,11156,1,2,0:2:0:0:
192,192,11280,1,2,0:2:0:0:
320,192,11404,1,2,0:2:0:0:
448,192,11528,1,2,0:2:0:0:
320,192,11652,1,2,0:2:0:0:
192,192,11776,1,2,0:2:0:0:
448,192,11900,128,4,12397:0:0:0:0:
64,192,11900,1,4,0:0:0:0:
192,192,12397,1,8,0:0:0:0:
320,192,12893,1,2,0:0:0:0:
192,192,12893,1,2,0:0:0:0:
448,192,13389,1,4,0:0:0:0:
64,192,13886,1,2,0:0:0:0:
320,192,13886,1,2,0:0:0:0:
192,192,14134,1,8,0:0:0:0:
448,192,14382,1,4,0:0:0:0:
320,192,14879,1,2,0:0:0:0:
192,192,14879,1,2,0:0:0:0:
64,192,15375,1,8,0:0:0:0:
192,192,15871,1,2,0:0:0:0:
448,192,15871,1,2,0:0:0:0:
320,192,16368,1,8,0:0:0:0:
64,192,16864,1,2,0:0:0:0:
448,192,16864,1,2,0:0:0:0:
192,192,17360,1,4,0:0:0:0:
320,192,17609,1,8,0:0:0:0:
64,192,17857,1,2,0:0:0:0:
448,192,17857,1,2,0:0:0:0:
192,192,18105,1,8,0:0:0:0:
448,192,18353,1,4,0:0:0:0:
320,192,18353,1,4,0:0:0:0:
192,192,18850,1,8,0:0:0:0:
64,192,19346,1,2,0:2:0:0:
192,192,19470,1,2,0:2:0:0:
448,192,19594,1,2,0:2:0:0:
320,192,19718,1,2,0:2:0:0:
64,192,19842,1,2,0:2:0:0:
192,192,19966,1,2,0:2:0:0:
448,192,20091,1,2,0:2:0:0:
320,192,20215,1,2,0:2:0:0:
192,192,20339,1,8,0:0:0:0:
64,192,20339,1,8,0:0:0:0:
448,192,20835,1,2,0:0:0:0:
192,192,20835,1,2,0:0:0:0:
64,192,21331,1,4,0:0:0:0:
320,192,21580,1,8,0:0:0:0:
192,192,21828,1,2,0:0:0:0:
448,192,21828,1,2,0:0:0:0:
320,192,22076,1,8,0:0:0:0:
448,192,22324,1,4,0:0:0:0:
64,192,22324,1,4,0:0:0:0:
320,192,22821,1,2,0:0:0:0:
192,192,22821,1,2,0:0:0:0:
64,192,23317,1,8,0:0:0:0:
192,192,23813,1,2,0:0:0:0:
320,192,23813,128,2,24310:0:0:0:0:
448,192,24310,1,4,0:0:0:0:
320,192,24806,1,2,0:0:0:0:
192,192,24806,1,2,0:0:0:0:
64,192,25303,1,4,0:0:0:0:
448,192,25551,1,8,0:0:0:0:
192,192,25799,1,4,0:0:0:0:
320,192,25799,1,4,0:0:0:0:
64,192,26047,1,8,0:0:0:0:
320,192,26295,1,2,0:2:0:0:
192,192,26419,1,2,0:2:0:0:
64,192,26543,1,2,0:2:0:0:
448,192,26668,1,2,0:2:0:0:
320,192,26792,1,2,0:2:0:0:
192,192,26916,1,2,0:2:0:0:
64,192,27040,1,2,0:2:0:0:
448,192,27164,1,2,0:2:0:0:
320,192,27288,1,2,0:2:0:0:
192,192,27412,1,2,0:2:0:0:
64,192,27536,1,2,0:2:0:0:
448,192,27660,1,2,0:2:0:0:
192,192,27784,128,4,28281:0:0:0:0:
320,192,27784,1,4,0:0:0:0:
64,192,28281,1,8,0:0:0:0:
192,192,28777,1,2,0:0:0:0:
448,192,28777,1,2,0:0:0:0:
320,192,29274,1,4,0:0:0:0:
192,192,29770,1,2,0:0:0:0:
64,192,29770,1,2,0:0:0:0:
320,192,30018,1,8,0:0:0:0:
448,192,30266,1,4,0:0:0:0:
320,192,30763,1,2,0:0:0:0:
192,192,30763,1,2,0:0:0:0:
64,192,31259,1,8,0:0:0:0:
192,192,31755,1,2,0:0:0:0:
448,192,31755,1,2,0:0:0:0:
320,192,32252,1,8,0:0:0:0:
64,192,32748,1,2,0:0:0:0:
448,192,32748,1,2,0:0:0:0:
192,192,33245,1,4,0:0:0:0:
320,192,33493,1,8,0:0:0:0:
448,192,33741,1,2,0:0:0:0:
64,192,33741,1,2,0:0:0:0:
320,192,33989,1,8,0:0:0:0:
448,192,34237,1,4,0:0:0:0:
192,192,34237,1,4,0:0:0:0:
64,192,34734,1,8,0:0:0:0:
320,192,35230,1,2,0:2:0:0:
448,192,35354,1,2,0:2:0:0:
192,192,35478,1,2,0:2:0:0:
64,192,35602,1,2,0:2:0:0:
320,192,35727,1,2,0:2:0:0:
448,192,35851,1,2,0:2:0:0:
192,192,35975,1,2,0:2:0:0:
64,192,36099,1,2,0:2:0:0:
320,192,36223,1,4,0:0:0:0:
448,192,36223,1,4,0:0:0:0:
