osu file format v14

[General]
AudioFilename: audio.mp3
AudioLeadIn: 0
PreviewTime: 54599
Countdown: 0
SampleSet: Soft
StackLeniency: 0.5
Mode: 0
LetterboxInBreaks: 0
WidescreenStoryboard: 1

[Editor]
Bookmarks: 1035,12614,23666,34894,46122,54368,65596,79806,81035
DistanceSpacing: 0.8
BeatDivisor: 4
GridSize: 32
TimelineZoom: 1.8

[Metadata]
Title:Princess Fight*
TitleUnicode:プリンセス・ファイト☆
Artist:Yasunori Nishiki
ArtistUnicode:西木康智
Creator:tilda
Version:Sanayui's Hard
Source:プリンセスコネクト!Re:Dive
Tags:Sightread Sanayui Reiszen Princess Connect! priconne pcr purikone Cygames video mobile gacha game rock instrumental ost original soundtrack vol. volume 1 Battle Arena quest theme
BeatmapID:3993607
BeatmapSetID:1871558

[Difficulty]
HPDrainRate:4
CircleSize:3.4
OverallDifficulty:6
ApproachRate:7.8
SliderMultiplier:1.3
SliderTickRate:1

[Events]
//Background and Video events
0,0,"94918062_p0_cropped.jpg",0,0
//Break Periods
//Storyboard Layer 0 (Background)
//Storyboard Layer 1 (Fail)
//Storyboard Layer 2 (Pass)
//Storyboard Layer 3 (Foreground)
//Storyboard Layer 4 (Overlay)
//Storyboard Sound Samples

[TimingPoints]
-193,350.877192982456,4,2,1,70,1,0
3843,-100,4,2,1,70,0,0
4896,-100,4,2,1,70,0,0
5247,-100,4,2,1,70,0,0
6124,-100,4,2,1,70,0,0
9457,-100,4,2,1,70,0,0
10861,-100,4,2,1,70,0,0
12615,-100,4,2,1,70,0,0
15071,-100,4,2,1,70,0,0
16475,-100,4,2,1,70,0,0
17352,-100,4,2,1,70,0,0
18404,-100,4,2,1,70,0,0
20685,-100,4,2,1,70,0,0
23141,-100,4,2,1,40,0,0
23666,-100,4,2,1,50,0,0
29280,-100,4,2,1,50,0,0
32613,-100,4,2,1,50,0,0
33315,-100,4,2,1,50,0,0
34192,-100,4,2,1,50,0,0
34894,-90.9090909090909,4,2,1,70,0,1
40508,-100,4,2,1,70,0,0
43315,-100,4,2,1,70,0,0
45420,-100,4,2,1,70,0,0
46122,-100,4,2,1,50,0,0
51209,-100,4,2,1,50,0,0
51736,-100,4,2,1,60,0,0
52788,-100,4,2,1,60,0,0
57174,-100,4,2,1,70,0,0
57700,-100,4,2,1,70,0,0
58577,-100,4,2,1,70,0,0
59454,-100,4,2,1,70,0,0
62788,-100,4,2,1,70,0,0
64191,-100,4,2,1,70,0,0
65945,-100,4,2,1,70,0,0
68402,-100,4,2,1,70,0,0
69805,-100,4,2,1,70,0,0
70682,-100,4,2,1,70,0,0
71735,-100,4,2,1,70,0,0
74016,-100,4,2,1,70,0,0
79806,-90.9090909090909,4,2,1,70,0,1
81035,-100,4,2,1,70,0,0

[Colours]
Combo1 : 120,65,182
Combo2 : 79,155,232
Combo3 : 183,111,255
Combo4 : 79,113,183

[HitObjects]
17,67,508,5,0,3:0:0:0:
83,119,684,2,0,L|75:168,2,32.5,8|8|0,0:0|0:0|3:0,0:0:0:0:
158,32,1035,6,0,L|299:47,1,130,4|0,3:2|3:2,0:0:0:0:
366,14,1561,2,0,P|370:71|363:91,1,65,10|2,0:0|0:0,0:0:0:0:
435,128,1912,2,0,P|405:153|367:162,1,65,0|2,3:2|0:0,0:0:0:0:
301,129,2263,1,8,0:0:0:0:
241,222,2438,6,0,L|266:355,1,130,2|0,3:2|3:0,0:0:0:0:
182,369,2964,2,0,L|95:363,1,65,10|0,0:0|3:0,0:0:0:0:
32,374,3315,1,2,0:0:0:0:
32,374,3491,2,0,P|43:323|65:298,1,65,0|8,3:2|0:0,0:0:0:0:
33,201,3842,6,0,P|90:200|150:246,1,130,6|0,3:2|3:0,0:0:0:0:
226,272,4368,2,0,P|276:311|340:312,1,130,10|2,0:0|3:2,0:0:0:0:
422,350,4894,1,0,3:2:0:0:
422,350,5070,1,8,0:0:0:0:
497,266,5245,6,0,L|476:124,1,130,6|0,3:2|3:0,0:0:0:0:
502,56,5771,2,0,P|454:53|426:65,1,65,10|0,0:0|3:0,0:0:0:0:
367,104,6122,2,0,P|354:75|358:38,2,65,0|2|8,0:0|3:2|0:0,0:0:0:0:
333,214,6649,6,0,L|190:196,1,130,2|0,3:2|3:2,0:0:0:0:
138,251,7175,2,0,L|62:254,1,65,10|0,0:0|3:2,0:0:0:0:
13,192,7526,2,0,L|10:116,1,65,0|2,3:2|0:2,0:0:0:0:
53,54,7877,1,8,0:0:0:0:
163,0,8052,6,0,P|173:46|146:122,1,130,2|0,3:2|3:0,0:0:0:0:
185,196,8578,2,0,L|269:204,1,65,10|0,0:0|3:0,0:0:0:0:
329,167,8929,1,2,0:0:0:0:
329,167,9105,2,0,L|413:175,1,65,10|8,0:0|0:0,0:0:0:0:
483,100,9456,6,0,L|504:240,1,130,6|2,3:2|3:2,0:0:0:0:
471,306,9982,1,8,0:0:0:0:
471,306,10157,2,0,P|422:308|406:318,1,65,6|0,3:2|0:0,0:0:0:0:
326,333,10508,2,0,L|334:378,2,32.5,8|8|0,0:0|0:0|3:0,0:0:0:0:
197,368,10859,6,0,P|162:330|85:315,1,130,6|2,3:2|3:2,0:0:0:0:
204,192,11561,2,0,P|239:230|316:245,1,130,10|10,0:0|0:0,0:0:0:0:
396,227,12087,1,8,0:0:0:0:
480,297,12263,6,0,L|498:156,1,130,6|0,3:2|3:2,0:0:0:0:
497,83,12789,2,0,L|481:17,1,65,10|0,0:0|0:0,0:0:0:0:
398,36,13140,2,0,L|413:99,1,65,0|2,3:2|3:2,0:0:0:0:
345,149,13491,1,8,0:0:0:0:
254,73,13666,6,0,P|224:52|132:55,1,130,2|0,3:2|3:2,0:0:0:0:
92,43,14105,1,0,3:2:0:0:
92,43,14192,2,0,P|47:74|32:92,1,65,10|0,0:0|3:0,0:0:0:0:
3,157,14543,1,2,0:0:0:0:
3,157,14719,2,0,L|11:231,1,65,0|8,3:2|0:0,0:0:0:0:
4,332,15070,6,0,P|43:308|139:315,1,130,6|0,3:2|3:2,0:0:0:0:
202,343,15596,2,0,P|253:368|337:366,1,130,10|0,0:0|3:2,0:0:0:0:
387,311,16122,1,2,3:2:0:0:
387,311,16298,1,8,0:0:0:0:
484,361,16473,6,0,L|470:226,1,130,6|0,3:2|3:0,0:0:0:0:
502,153,16999,2,0,P|446:149|431:158,1,65,10|0,0:0|3:0,0:0:0:0:
363,115,17350,2,0,L|379:44,2,65,2|2|8,0:0|3:2|0:0,0:0:0:0:
277,197,17877,6,0,L|299:336,1,130,0|0,3:2|3:2,0:0:0:0:
216,351,18403,2,0,L|142:340,1,65,10|2,0:0|0:0,0:0:0:0:
68,327,18754,2,0,L|80:253,1,65,0|2,3:2|3:2,0:0:0:0:
45,184,19105,1,8,0:0:0:0:
16,68,19280,6,0,P|65:60|136:105,1,130,2|0,3:2|3:0,0:0:0:0:
178,101,19719,1,0,3:0:0:0:
178,101,19806,2,0,P|211:128|242:134,1,65,10|0,0:0|3:0,0:0:0:0:
289,70,20157,1,2,0:0:0:0:
378,102,20333,1,10,0:0:0:0:
378,102,20421,1,8,0:0:0:0:
378,102,20508,1,10,0:0:0:0:
441,4,20684,6,0,P|479:31|504:120,1,130,6|2,3:2|3:2,0:0:0:0:
476,189,21210,1,10,0:0:0:0:
476,189,21385,2,0,P|430:210|414:239,1,65,2|2,0:0|3:2,0:0:0:0:
430,313,21736,1,8,0:0:0:0:
430,313,21824,1,8,0:0:0:0:
430,313,21912,1,0,3:2:0:0:
329,357,22087,6,0,P|300:321|208:314,1,130,6|2,0:0|3:2,0:0:0:0:
151,358,22614,1,2,0:0:0:0:
71,330,22789,1,10,0:0:0:0:
191,211,23140,2,0,L|199:167,4,32.5,8|0|0|0|8,3:0|3:0|3:0|3:0|3:0,0:0:0:0:
91,208,23666,6,0,L|106:133,1,65,6|0,3:2|0:0,0:0:0:0:
52,84,24017,1,10,0:0:0:0:
52,84,24192,2,0,P|116:61|180:110,1,130,2|0,3:2|3:2,0:0:0:0:
240,46,24719,1,8,0:0:0:0:
341,96,24894,6,0,L|305:238,1,130,2|2,3:2|3:2,0:0:0:0:
240,271,25421,2,0,L|250:341,1,65,10|0,0:0|3:0,0:0:0:0:
331,371,25771,1,2,3:2:0:0:
331,371,25947,1,2,3:2:0:0:
413,350,26122,2,0,P|456:348|483:336,1,65,10|0,0:0|3:0,0:0:0:0:
506,221,26473,6,0,L|485:146,1,65,2|0,3:2|3:2,0:0:0:0:
506,76,26824,1,10,0:0:0:0:
506,76,26999,2,0,P|446:77|399:132,1,130,2|2,3:2|3:2,0:0:0:0:
408,210,27526,1,8,0:0:0:0:
310,153,27701,6,0,L|328:292,1,130,2|2,3:2|3:2,0:0:0:0:
381,346,28228,2,0,P|341:366|298:364,1,65,8|0,0:0|3:2,0:0:0:0:
243,333,28578,2,0,L|234:281,2,32.5,2|2|2,3:2|3:2|3:2,0:0:0:0:
158,331,28929,2,0,P|118:338|84:358,1,65,10|0,0:2|3:2,0:0:0:0:
0,290,29280,6,0,L|19:211,1,65,2|0,3:2|0:0,0:0:0:0:
6,142,29631,1,8,0:0:0:0:
6,142,29806,2,0,P|68:156|107:219,1,130,2|2,3:2|3:2,0:0:0:0:
171,155,30333,1,10,0:0:0:0:
187,272,30508,6,0,P|220:244|317:245,1,130,2|2,3:2|3:2,0:0:0:0:
378,279,31035,1,8,0:0:0:0:
378,279,31210,2,0,P|421:293|444:288,1,65,2|0,3:2|0:0,0:0:0:0:
499,229,31561,1,0,3:0:0:0:
499,229,31736,2,0,L|485:158,1,65,8|0,0:0|3:0,0:0:0:0:
500,66,32087,6,0,P|458:66|411:91,1,65,2|0,3:2|3:2,0:0:0:0:
370,29,32438,1,10,0:0:0:0:
370,29,32614,2,0,P|353:80|397:149,1,130,2|0,3:2|3:2,0:0:0:0:
429,217,33140,1,8,0:0:0:0:
480,321,33315,6,0,L|336:305,1,130,2|0,3:2|3:2,0:0:0:0:
272,273,33842,2,0,L|261:355,1,65,8|0,0:0|3:0,0:0:0:0:
184,368,34192,1,10,0:0:0:0:
184,368,34368,1,4,3:2:0:0:
97,357,34543,1,8,0:0:0:0:
97,357,34631,1,8,0:0:0:0:
97,357,34719,1,10,0:0:0:0:
0,273,34894,6,0,L|14:194,1,71.5000021820069,6|10,3:2|0:0,0:0:0:0:
103,224,35245,1,2,3:2:0:0:
145,141,35421,2,0,P|96:129|64:141,1,71.5000021820069,10|0,0:0|3:2,0:0:0:0:
18,62,35771,1,10,0:0:0:0:
95,9,35947,2,0,L|186:18,1,71.5000021820069,2|10,3:2|0:0,0:0:0:0:
277,36,36298,5,0,3:2:0:0:
222,111,36473,1,8,0:0:0:0:
265,193,36649,2,0,L|426:172,1,143.000004364014,2|0,3:2|3:2,0:0:0:0:
472,108,37175,2,0,P|498:160|497:193,1,71.5000021820069,10|0,0:0|3:2,0:0:0:0:
460,257,37526,1,10,0:0:0:0:
460,257,37614,1,8,0:0:0:0:
460,257,37701,6,0,P|415:288|394:324,1,71.5000021820069,2|10,3:2|0:0,0:0:0:0:
347,373,38052,1,2,3:2:0:0:
268,323,38228,2,0,P|216:298|122:310,1,143.000004364014,8|8,0:0|0:0,0:0:0:0:
58,361,38754,1,2,3:2:0:0:
5,283,38929,1,10,0:0:0:0:
81,189,39105,6,0,L|171:202,1,71.5000021820069,0|8,3:2|0:0,0:0:0:0:
244,212,39456,2,0,L|257:122,1,71.5000021820069,0|8,3:2|0:0,0:0:0:0:
264,48,39806,2,0,L|174:35,1,71.5000021820069,0|8,3:2|0:0,0:0:0:0:
110,76,40157,1,0,3:0:0:0:
110,76,40333,1,8,0:0:0:0:
1,162,40508,6,0,L|9:244,1,65,6|8,3:2|0:0,0:0:0:0:
2,310,40859,2,0,L|81:299,1,65,0|8,3:2|0:0,0:0:0:0:
128,358,41210,1,2,3:2:0:0:
128,358,41385,2,0,P|169:316|246:332,1,130,8|8,0:0|0:0,0:0:0:0:
338,359,41912,6,0,P|389:382|457:349,1,130,2|0,3:2|3:2,0:0:0:0:
490,279,42438,1,8,0:0:0:0:
490,279,42614,2,0,P|494:229|426:211,1,130,2|0,3:2|3:2,0:0:0:0:
360,262,43140,1,8,0:0:0:0:
269,186,43315,6,0,L|276:110,1,65,2|8,3:2|0:0,0:0:0:0:
239,44,43666,2,0,P|285:37|309:45,1,65,0|8,3:2|0:0,0:0:0:0:
381,11,44017,1,2,3:2:0:0:
381,11,44192,2,0,P|437:32|468:104,1,130,8|8,0:0|0:0,0:0:0:0:
496,202,44719,6,0,L|480:337,1,130,2|0,3:2|3:2,0:0:0:0:
404,367,45245,1,8,0:0:0:0:
404,367,45421,2,0,P|378:335|351:324,1,65,2|10,3:2|0:0,0:0:0:0:
317,310,45684,1,8,0:0:0:0:
317,310,45771,2,0,P|274:310|251:321,1,65,0|0,3:0|3:0,0:0:0:0:
182,226,46122,6,0,P|184:178|208:93,1,130,6|0,3:2|0:0,0:0:0:0:
261,35,46649,1,0,3:2:0:0:
261,35,46824,1,8,0:0:0:0:
93,9,47175,2,0,L|47:14,2,32.5,10|8|0,0:0|0:0|3:2,0:0:0:0:
12,80,47526,6,0,P|5:143|31:209,1,130,6|0,3:2|0:0,0:0:0:0:
10,287,48052,2,0,P|48:284|113:220,1,130,0|8,3:0|0:0,0:0:0:0:
92,145,48578,1,2,3:2:0:0:
92,145,48754,1,0,3:2:0:0:
195,209,48929,6,0,L|409:223,1,195,6|0,3:2|3:0,0:0:0:0:
447,283,49631,2,0,P|472:235|447:161,1,130,8|0,0:0|0:0,0:0:0:0:
486,87,50157,2,0,P|436:81|419:90,1,65,2|0,3:2|0:0,0:0:0:0:
341,4,50508,6,0,L|273:13,1,65,0|0,3:0|0:0,0:0:0:0:
192,20,50859,1,0,3:2:0:0:
192,20,51035,2,0,L|202:96,2,65,10|0|2,0:0|3:2|0:0,0:0:0:0:
107,23,51561,1,0,3:0:0:0:
18,82,51736,6,0,L|35:215,1,130,6|8,3:2|0:0,0:0:0:0:
15,382,52438,1,2,3:2:0:0:
15,382,52614,1,0,3:0:0:0:
75,323,52789,2,0,P|120:325|144:341,1,65,8|0,0:0|3:0,0:0:0:0:
249,368,53140,6,0,L|241:282,1,65,6|0,3:2|3:0,0:0:0:0:
188,238,53491,1,8,0:0:0:0:
188,238,53666,1,0,3:2:0:0:
180,153,53842,2,0,P|222:161|246:178,1,65,2|8,3:2|0:0,0:0:0:0:
277,193,54105,1,8,0:0:0:0:
277,193,54192,2,0,P|308:211|351:215,1,65,8|6,3:0|3:2,0:0:0:0:
477,123,54719,5,0,3:2:0:0:
477,123,54894,2,0,L|464:34,1,65,10|2,0:0|0:0,0:0:0:0:
383,71,55245,2,0,L|392:135,1,65,0|2,3:2|3:2,0:0:0:0:
443,202,55596,1,8,0:0:0:0:
382,302,55771,6,0,P|337:268|268:286,1,130,2|0,3:2|3:0,0:0:0:0:
225,356,56298,2,0,L|157:365,1,65,10|0,0:0|3:0,0:0:0:0:
75,370,56649,1,2,0:0:0:0:
75,370,56824,2,0,P|66:328|71:298,1,65,2|8,3:2|0:0,0:0:0:0:
9,203,57175,6,0,L|34:68,1,130,6|0,3:2|3:2,0:0:0:0:
99,22,57701,2,0,B|166:41|166:41|187:19|226:15,1,130,10|0,0:0|3:2,0:0:0:0:
301,36,58228,2,0,P|321:64|323:102,1,65,2|8,0:0|0:0,0:0:0:0:
371,207,58578,6,0,L|236:189,1,130,6|0,3:2|3:0,0:0:0:0:
172,141,59105,2,0,P|158:186|158:211,1,65,10|0,0:0|3:0,0:0:0:0:
154,288,59456,2,0,L|66:268,2,65,2|2|8,0:0|3:2|0:0,0:0:0:0:
262,346,59982,6,0,P|294:312|375:326,1,130,0|0,3:2|3:2,0:0:0:0:
443,366,60508,2,0,P|458:324|453:301,1,65,10|2,0:0|0:0,0:0:0:0:
484,225,60859,2,0,L|472:149,1,65,0|2,3:2|3:2,0:0:0:0:
412,102,61210,1,8,0:0:0:0:
326,13,61385,6,0,P|304:53|300:147,1,130,2|0,3:2|3:0,0:0:0:0:
367,183,61912,2,0,L|373:257,1,65,10|0,0:0|3:0,0:0:0:0:
304,297,62263,1,2,0:0:0:0:
304,297,62438,2,0,L|313:369,1,65,10|0,0:0|3:0,0:0:0:0:
196,379,62789,6,0,P|153:343|68:343,1,130,6|2,3:2|3:2,0:0:0:0:
13,286,63315,1,8,0:0:0:0:
13,286,63491,2,0,P|20:232|12:213,1,65,6|0,3:2|0:0,0:0:0:0:
59,150,63842,2,0,L|100:162,2,32.5,10|8|0,0:0|0:0|3:2,0:0:0:0:
27,57,64192,6,0,L|156:86,1,130,6|2,3:2|3:2,0:0:0:0:
240,223,64894,2,0,L|372:244,1,130,10|10,0:0|0:2,0:0:0:0:
435,294,65421,1,2,3:2:0:0:
504,204,65596,6,0,L|490:56,1,130,6|0,3:2|3:2,0:0:0:0:
422,26,66122,2,0,L|344:14,1,65,10|2,0:0|0:0,0:0:0:0:
273,8,66473,2,0,L|262:74,1,65,0|2,3:2|3:2,0:0:0:0:
330,122,66824,1,8,0:0:0:0:
237,193,66999,6,0,L|256:327,1,130,2|0,3:2|3:2,0:0:0:0:
223,350,67438,1,0,3:0:0:0:
223,350,67526,2,0,L|149:348,1,65,10|0,0:0|3:2,0:0:0:0:
78,369,67877,1,2,0:0:0:0:
78,369,68052,2,0,L|4:367,1,65,2|8,3:2|0:0,0:0:0:0:
1,260,68403,6,0,P|-8:214|16:118,1,130,6|0,3:2|3:0,0:0:0:0:
92,138,68929,2,0,P|101:184|77:280,1,130,10|2,0:0|3:2,0:0:0:0:
150,327,69456,1,2,3:2:0:0:
150,327,69631,1,8,0:0:0:0:
234,237,69806,6,0,L|220:102,1,130,6|0,3:2|3:0,0:0:0:0:
289,57,70333,2,0,L|369:75,1,65,10|0,0:0|3:2,0:0:0:0:
436,62,70684,2,0,P|420:21|390:-3,2,65,2|2|8,0:0|3:2|0:0,0:0:0:0:
504,154,71210,6,0,L|489:294,1,130,0|0,3:2|3:2,0:0:0:0:
475,366,71736,2,0,L|398:355,1,65,10|2,0:2|0:0,0:0:0:0:
327,338,72087,2,0,L|339:264,1,65,2|2,3:2|3:2,0:0:0:0:
394,211,72438,1,8,0:0:0:0:
314,134,72614,6,0,P|273:117|189:146,1,130,2|0,3:2|3:0,0:0:0:0:
151,144,73052,1,0,3:0:0:0:
151,144,73140,2,0,L|167:238,1,65,10|0,0:0|3:0,0:0:0:0:
102,268,73491,1,2,0:0:0:0:
20,248,73666,2,0,L|27:207,2,32.5,2|2|10,3:2|0:0|0:0,0:0:0:0:
18,365,74017,6,0,L|164:341,1,130,6|2,3:2|3:2,0:0:0:0:
227,312,74543,1,8,0:0:0:0:
227,312,74719,2,0,L|315:317,1,65,6|0,3:2|3:2,0:0:0:0:
377,357,75070,1,8,0:0:0:0:
377,357,75157,1,8,0:0:0:0:
377,357,75245,1,10,0:0:0:0:
474,281,75421,6,0,P|450:227|463:141,1,130,6|2,3:2|3:2,0:0:0:0:
503,85,75947,1,0,0:0:0:0:
465,8,76122,1,10,0:0:0:0:
329,109,76473,1,10,0:0:0:0:
329,109,76649,1,0,0:0:0:0:
231,45,76824,6,0,L|246:194,1,130,6|10,3:2|0:0,0:0:0:0:
290,245,77350,1,0,3:2:0:0:
238,312,77526,2,0,L|161:301,1,65,6|0,3:2|3:2,0:0:0:0:
104,346,77877,1,10,0:0:0:0:
104,346,77964,1,8,0:0:0:0:
104,346,78052,1,8,0:0:0:0:
7,285,78228,6,0,P|4:226|30:157,1,130,6|2,3:2|3:2,0:0:0:0:
13,76,78754,1,0,3:2:0:0:
81,25,78929,1,6,3:2:0:0:
195,149,79280,2,0,L|191:200,2,32.5,10|8|8,0:0|0:0|0:0,0:0:0:0:
267,105,79631,1,2,3:2:0:0:
367,168,79806,5,6,3:2:0:0:
367,168,79894,1,0,3:0:0:0:
367,168,79982,2,0,L|360:261,1,71.5000021820069,8|2,0:0|3:2,0:0:0:0:
395,326,80333,1,6,3:2:0:0:
316,373,80508,1,10,3:2:0:0:
316,373,80596,1,8,0:0:0:0:
316,373,80684,1,2,3:2:0:0:
235,326,80859,5,14,0:0:0:0:
151,338,81035,1,14,0:0:0:0:
