osu file format v14

[General]
AudioFilename: audio.mp3
AudioLeadIn: 0
PreviewTime: 54599
Countdown: 0
SampleSet: Soft
StackLeniency: 0.5
Mode: 0
LetterboxInBreaks: 0
WidescreenStoryboard: 0

[Editor]
Bookmarks: 1035,12614,23666,34894,46122,54368,65596,79806,81035
DistanceSpacing: 0.8
BeatDivisor: 4
GridSize: 32
TimelineZoom: 2.999999

[Metadata]
Title:Princess Fight*
TitleUnicode:プリンセス・ファイト☆
Artist:Yasunori Nishiki
ArtistUnicode:西木康智
Creator:tilda
Version:Relentless
Source:プリンセスコネクト!Re:Dive
Tags:Sightread Sanayui Reiszen Princess Connect! priconne pcr purikone Cygames video mobile gacha game rock instrumental ost original soundtrack vol. volume 1 Battle Arena quest theme
BeatmapID:3850852
BeatmapSetID:1871558

[Difficulty]
HPDrainRate:6
CircleSize:4
OverallDifficulty:8.5
ApproachRate:9.2
SliderMultiplier:1.8
SliderTickRate:1

[Events]
//Background and Video events
0,0,"94918062_p0_cropped.jpg",0,0
//Break Periods
//Storyboard Layer 0 (Background)
//Storyboard Layer 1 (Fail)
//Storyboard Layer 2 (Pass)
//Storyboard Layer 3 (Foreground)
//Storyboard Layer 4 (Overlay)
//Storyboard Sound Samples

[TimingPoints]
-193,350.877192982456,4,2,1,70,1,0
1035,-83.3333333333333,4,2,1,70,0,0
3842,-71.4285714285714,4,2,1,70,0,0
5245,-62.5,4,2,1,70,0,0
5771,-83.3333333333333,4,2,1,70,0,0
8578,-62.5,4,2,1,70,0,0
9456,-50,4,2,1,70,0,0
9719,-50,4,2,1,5,0,0
9806,-125,4,2,1,70,0,0
10157,-50,4,2,1,70,0,0
10421,-50,4,2,1,5,0,0
10509,-62.5,4,2,1,70,0,0
10859,-50,4,2,1,70,0,0
11912,-55.5555555555556,4,2,1,70,0,0
12263,-50,4,2,1,70,0,0
12526,-50,4,2,1,5,0,0
12614,-71.4285714285714,4,2,1,70,0,0
15070,-62.5,4,2,1,70,0,0
16473,-55.5555555555556,4,2,1,70,0,0
16999,-71.4285714285714,4,2,1,70,0,0
20684,-50,4,2,1,70,0,0
20947,-50,4,2,1,5,0,0
21035,-50,4,2,1,70,0,0
22351,-50,4,2,1,5,0,0
22439,-50,4,2,1,70,0,0
23140,-50,4,2,1,40,0,0
23491,-100,4,2,1,40,0,0
25771,-83.3333333333333,4,2,1,40,0,0
26121,-200,4,2,1,50,0,0
26474,-100,4,2,1,50,0,0
30507,-83.3333333333333,4,2,1,50,0,0
31208,-71.4285714285714,4,2,1,50,0,0
31735,-100,4,2,1,50,0,0
33314,-125,4,2,1,50,0,0
34368,-83.3333333333333,4,2,1,50,0,0
34894,-66.6666666666667,4,2,1,70,0,1
40508,-83.3333333333333,4,2,1,70,0,1
42963,-100,4,2,1,70,0,1
43314,-71.4285714285714,4,2,1,70,0,1
46122,-125,4,2,1,50,0,0
47526,-166.666666666667,4,2,1,50,0,0
51735,-166.666666666667,4,2,1,60,0,0
52438,-125,4,2,1,60,0,0
54368,-83.3333333333333,4,2,1,70,0,0
57175,-71.4285714285714,4,2,1,70,0,0
58578,-62.5,4,2,1,70,0,0
60333,-83.3333333333333,4,2,1,70,0,0
62787,-50,4,2,1,70,0,0
63052,-50,4,2,1,5,0,0
63137,-125,4,2,1,70,0,0
63488,-50,4,2,1,70,0,0
63753,-50,4,2,1,5,0,0
63841,-62.5,4,2,1,70,0,0
64192,-50,4,2,1,70,0,0
65243,-55.5555555555556,4,2,1,70,0,0
65594,-50,4,2,1,70,0,0
65859,-50,4,2,1,5,0,0
65946,-71.4285714285714,4,2,1,70,0,0
68401,-62.5,4,2,1,70,0,0
69804,-55.5555555555556,4,2,1,70,0,0
70330,-71.4285714285714,4,2,1,70,0,0
74015,-50,4,2,1,70,0,0
74280,-50,4,2,1,5,0,0
74366,-50,4,2,1,70,0,0
75683,-50,4,2,1,5,0,0
75769,-50,4,2,1,70,0,0
77087,-50,4,2,1,5,0,0
77175,-50,4,2,1,70,0,0
78490,-50,4,2,1,5,0,0
78563,-50,4,2,1,70,0,0
79806,-50,4,2,1,70,0,1
81035,-500,4,2,1,70,0,0

[Colours]
Combo1 : 120,65,182
Combo2 : 79,155,232
Combo3 : 183,111,255
Combo4 : 79,113,183

[HitObjects]
183,371,508,5,0,3:0:0:0:
261,223,684,1,8,0:0:0:0:
254,206,771,1,8,0:0:0:0:
247,188,859,1,0,3:0:0:0:
16,261,1035,6,0,B|84:263|133:306|96:325|144:368|217:371,1,215.999993408203,4|0,3:2|3:2,0:0:0:0:
347,289,1561,1,10,0:0:0:0:
219,185,1736,1,2,0:0:0:0:
365,297,1912,1,0,3:2:0:0:
206,183,2087,5,2,0:0:0:0:
372,86,2263,1,8,0:0:0:0:
156,11,2438,2,0,P|227:29|377:100,1,215.999993408203,2|0,3:2|3:0,0:0:0:0:
507,273,2964,5,10,0:0:0:0:
357,213,3140,1,0,3:0:0:0:
434,384,3315,2,0,P|429:322|442:246,1,107.999996704102,2|0,0:0|3:2,0:0:0:0:
502,124,3666,1,8,0:0:0:0:
306,347,3842,6,0,P|282:260|292:79,1,251.999992309571,6|0,3:2|3:0,0:0:0:0:
460,61,4368,2,0,P|386:37|320:-3,1,125.999996154785,10|0,0:0|0:0,0:0:0:0:
364,191,4719,1,2,3:2:0:0:
253,131,4894,1,0,3:0:0:0:
472,67,5070,1,8,0:0:0:0:
105,271,5245,6,0,P|128:190|237:-5,1,288,6|0,3:2|3:0,0:0:0:0:
25,149,5771,2,0,P|16:95|-1:44,1,107.999996704102,10|0,0:0|3:0,0:0:0:0:
216,182,6122,5,0,0:0:0:0:
31,262,6298,1,2,3:2:0:0:
273,37,6473,5,8,0:0:0:0:
359,66,6649,1,2,3:2:0:0:
359,66,6999,5,0,3:2:0:0:
389,184,7175,1,10,0:0:0:0:
506,230,7350,1,0,3:2:0:0:
289,149,7526,5,0,3:2:0:0:
488,92,7701,1,2,0:2:0:0:
422,298,7877,1,8,0:0:0:0:
276,141,8052,2,0,B|217:142|177:193|218:214|170:266|120:269,1,215.999993408203,2|0,3:2|3:0,0:0:0:0:
34,37,8578,6,0,L|7:195,1,144,10|0,0:0|3:0,0:0:0:0:
87,352,8929,1,2,0:0:0:0:
305,266,9105,1,10,0:0:0:0:
313,230,9192,1,8,0:0:0:0:
321,195,9280,1,8,0:0:0:0:
83,231,9456,6,0,P|184:193|316:77,1,270,6|0,3:2|0:0,0:0:0:0:
466,224,9806,2,0,P|432:202|380:184,1,72,2|8,3:2|0:0,0:0:0:0:
125,25,10157,6,0,P|191:146|220:274,1,270,6|0,3:2|0:0,0:0:0:0:
340,363,10508,1,10,0:0:0:0:
391,327,10596,1,8,0:0:0:0:
451,309,10684,2,0,P|488:270|518:248,1,72,0|0,3:2|0:0,0:0:0:0:
335,151,10859,6,0,P|167:105|0:0,1,360,6|2,3:2|3:2,0:0:0:0:
501,184,11561,1,10,0:0:0:0:
501,194,11912,6,0,P|469:156|411:120,1,80.9999975280763,10|0,0:0|0:0,0:0:0:0:
345,0,12087,2,0,P|280:24|239:59,1,80.9999975280763,8|0,0:0|0:0,0:0:0:0:
427,363,12263,6,0,B|440:300|380:239|380:239|287:220|269:120,1,270,6|0,3:2|0:0,0:0:0:0:
221,101,12614,5,0,3:2:0:0:
124,200,12789,1,10,0:0:0:0:
190,313,12964,1,0,0:0:0:0:
88,101,13140,5,0,3:2:0:0:
259,203,13315,1,2,3:2:0:0:
84,316,13491,1,8,0:0:0:0:
274,199,13666,2,0,B|338:203|396:270|356:292|399:345|473:359,1,251.999992309571,2|0,3:2|3:2,0:0:0:0:
378,134,14192,5,10,0:0:0:0:
505,19,14368,1,0,3:0:0:0:
341,222,14543,1,2,0:0:0:0:
167,26,14719,1,2,3:2:0:0:
296,80,14894,1,8,0:0:0:0:
0,249,15070,6,0,P|70:214|297:178,1,288,6|0,3:2|3:2,0:0:0:0:
436,112,15596,2,0,P|407:159|384:251,1,144,10|0,0:0|0:0,0:0:0:0:
118,188,15947,1,0,3:2:0:0:
173,215,16035,1,0,3:0:0:0:
213,252,16122,2,0,P|233:320|266:384,1,144,2|8,3:2|0:0,0:0:0:0:
131,27,16473,6,0,P|292:44|448:88,1,323.999990112305,6|0,3:2|3:0,0:0:0:0:
7,219,16999,2,0,P|54:188|154:160,1,125.999996154785,10|0,0:0|3:0,0:0:0:0:
334,367,17350,5,2,0:0:0:0:
241,147,17526,1,2,3:2:0:0:
464,322,17701,5,8,0:0:0:0:
408,264,17877,1,0,3:2:0:0:
408,264,18228,5,0,3:2:0:0:
282,324,18403,1,10,0:0:0:0:
174,237,18578,1,2,0:0:0:0:
415,382,18754,5,0,3:2:0:0:
297,227,18929,1,2,3:2:0:0:
145,349,19105,1,8,0:0:0:0:
309,231,19280,2,0,B|330:171|298:97|267:137|227:60|253:-5,1,251.999992309571,2|0,3:2|3:0,0:0:0:0:
494,369,19806,6,0,P|499:315|525:202,1,125.999996154785,10|0,0:0|3:0,0:0:0:0:
313,200,20157,2,0,P|347:199|392:186,1,62.9999980773926,2|2,0:0|0:0,0:0:0:0:
208,23,20333,1,10,0:0:0:0:
207,82,20421,1,8,0:0:0:0:
197,141,20508,1,10,0:0:0:0:
179,198,20596,1,10,0:0:0:0:
153,251,20684,6,0,B|90:190|-3:225|-3:225|70:243|81:320,1,270,6|0,3:2|0:0,0:0:0:0:
105,143,21035,2,0,P|49:138|-12:149,1,90,2|0,3:2|0:0,0:0:0:0:
213,366,21210,1,10,0:0:0:0:
154,267,21385,6,0,P|201:249|257:214,1,90,2|0,0:0|0:0,0:0:0:0:
306,149,21561,1,0,3:0:0:0:
398,349,21736,1,8,0:0:0:0:
440,362,21824,1,8,0:0:0:0:
481,381,21912,1,0,3:2:0:0:
299,130,22087,6,0,B|226:116|148:174|206:202|137:248|50:230,1,270,6|0,0:0|0:0,0:0:0:0:
0,149,22438,1,2,3:2:0:0:
159,43,22614,1,2,0:0:0:0:
277,224,22789,1,10,0:0:0:0:
277,224,23140,5,8,3:0:0:0:
289,242,23228,1,0,3:0:0:0:
300,262,23315,1,0,3:0:0:0:
309,283,23403,1,0,3:0:0:0:
315,304,23491,2,0,P|312:331|283:374,1,45,8|8,3:0|3:0,0:0:0:0:
512,211,23666,5,6,3:2:0:0:
431,163,23842,1,0,0:0:0:0:
383,72,24017,1,10,0:0:0:0:
291,91,24192,2,0,P|233:70|130:1,1,180,2|0,3:2|3:2,0:0:0:0:
139,9,24719,5,8,0:0:0:0:
5,204,24894,2,0,P|85:162|197:150,1,180,2|2,3:2|3:2,0:0:0:0:
253,214,25421,1,10,0:0:0:0:
359,185,25596,1,0,3:0:0:0:
198,312,25771,6,0,L|174:239,1,53.9999983520508,2|0,3:2|3:2,3:2:0:0:
131,132,25947,1,2,3:2:0:0:
296,356,26122,2,0,L|306:299,1,45,10|0,0:0|3:0,0:0:0:0:
494,110,26473,5,2,3:2:0:0:
463,199,26649,1,0,0:2:0:0:
373,239,26824,1,10,0:0:0:0:
289,172,26999,2,0,P|288:117|180:83,1,180,2|2,3:2|3:2,0:0:0:0:
185,80,27526,5,8,0:0:0:0:
44,185,27701,2,0,P|70:99|71:9,1,180,2|2,3:2|3:2,0:0:0:0:
95,251,28228,5,8,0:0:0:0:
201,222,28403,1,0,3:2:0:0:
8,276,28578,5,2,3:2:0:0:
29,269,28666,1,2,3:2:0:0:
51,263,28754,1,2,3:2:0:0:
72,257,28842,1,2,3:2:0:0:
94,250,28929,2,0,L|192:223,1,90,10|0,0:2|3:2,0:0:0:0:
392,370,29280,6,0,P|347:351|297:336,1,90,2|0,3:2|0:0,0:0:0:0:
307,338,29631,1,8,0:0:0:0:
461,305,29806,6,0,P|480:246|435:111,1,180,2|2,3:2|3:2,0:0:0:0:
366,248,30333,1,10,0:0:0:0:
512,81,30508,6,0,P|430:29|295:59,1,215.999993408203,2|2,3:2|3:2,0:0:0:0:
202,191,31035,1,8,0:0:0:0:
11,123,31210,6,0,P|45:57|215:58,1,251.999992309571,2|0,3:2|3:0,0:0:0:0:
22,200,31736,2,0,P|36:242|45:304,1,90,8|0,0:0|3:0,0:0:0:0:
265,295,32087,5,2,3:2:0:0:
126,355,32263,1,0,3:2:0:0:
282,287,32438,1,10,0:0:0:0:
157,162,32614,2,0,B|157:120|121:83|121:83|119:24|166:-4,1,180,2|0,3:2|3:2,0:0:0:0:
155,2,33140,1,8,0:0:0:0:
210,223,33315,6,0,P|182:238|81:194,1,144,2|0,3:2|3:2,0:0:0:0:
254,131,33842,2,0,P|294:113|354:101,1,72,8|0,0:0|3:0,0:0:0:0:
36,288,34192,1,10,0:0:0:0:
20,213,34368,6,0,P|32:243|37:275,1,53.9999983520508,4|0,3:2|0:0,0:0:0:0:
260,364,34543,1,8,0:0:0:0:
298,316,34631,1,8,0:0:0:0:
352,291,34719,1,10,0:0:0:0:
413,296,34806,1,8,0:0:0:0:
470,318,34894,5,6,3:2:0:0:
431,65,35070,1,8,0:0:0:0:
491,339,35245,1,2,3:2:0:0:
218,250,35421,2,0,P|286:242|356:215,1,135.000005149842,10|0,0:0|3:2,0:0:0:0:
160,351,35771,5,10,0:0:0:0:
55,118,35947,1,0,3:2:0:0:
143,366,36122,2,0,P|62:356|-19:315,1,135.000005149842,10|0,0:0|3:2,0:0:0:0:
194,137,36473,1,8,0:0:0:0:
337,363,36649,6,0,P|348:300|378:217,1,135.000005149842,2|8,3:2|0:0,0:0:0:0:
172,25,36999,2,0,P|192:100|202:182,1,135.000005149842,0|10,3:2|0:0,0:0:0:0:
345,363,37350,1,0,3:2:0:0:
411,111,37526,1,10,0:0:0:0:
411,111,37614,1,8,0:0:0:0:
411,111,37701,5,2,3:2:0:0:
217,267,37877,1,10,0:0:0:0:
422,113,38052,1,2,3:2:0:0:
166,36,38228,2,0,P|92:56|19:91,1,135.000005149842,8|0,0:0|3:2,0:0:0:0:
202,281,38578,5,8,0:0:0:0:
303,64,38754,1,2,3:2:0:0:
200,292,38929,1,10,0:0:0:0:
14,75,39105,6,0,P|86:40|167:26,1,135.000005149842,0|8,3:2|0:0,0:0:0:0:
353,228,39456,2,0,P|283:211|227:181,1,135.000005149842,0|8,3:2|0:0,0:0:0:0:
70,279,39806,5,0,3:2:0:0:
12,91,39982,1,8,0:0:0:0:
175,325,40157,1,0,3:2:0:0:
243,100,40333,1,8,0:0:0:0:
477,355,40508,6,0,P|427:326|354:304,1,107.999996704102,6|8,3:2|0:0,0:0:0:0:
206,222,40859,1,0,3:2:0:0:
336,128,41035,1,8,0:0:0:0:
171,377,41210,6,0,P|250:361|303:330,1,107.999996704102,2|8,3:2|0:0,0:0:0:0:
334,270,41473,1,2,0:0:0:0:
346,255,41561,2,0,L|364:141,1,107.999996704102,0|8,3:2|0:0,0:0:0:0:
506,10,41912,5,2,3:2:0:0:
314,70,42087,1,8,0:0:0:0:
459,210,42263,2,0,L|438:333,1,107.999996704102,0|8,3:2|0:0,0:0:0:0:
324,85,42614,5,2,3:2:0:0:
184,180,42789,1,8,0:0:0:0:
117,23,42964,2,0,P|162:32|227:52,1,90,0|8,3:2|0:0,0:0:0:0:
39,240,43315,6,0,L|-6:104,1,125.999996154785,2|8,3:2|0:0,0:0:0:0:
193,254,43666,1,0,3:2:0:0:
26,375,43842,1,8,0:0:0:0:
260,73,44017,6,0,L|321:215,1,125.999996154785,2|8,3:2|0:0,0:0:0:0:
380,261,44280,1,2,0:0:0:0:
394,234,44368,2,0,P|453:206|522:189,1,125.999996154785,2|8,3:2|0:0,0:0:0:0:
238,66,44719,5,2,3:2:0:0:
156,319,44894,1,8,0:0:0:0:
377,148,45070,5,0,3:2:0:0:
104,239,45245,1,8,0:0:0:0:
376,367,45421,6,0,P|344:334|320:300,1,62.9999980773926,2|0,3:2|0:0,0:0:0:0:
89,150,45596,2,0,P|122:136|164:109,1,62.9999980773926,10|0,0:0|0:0,0:0:0:0:
401,37,45771,5,0,3:0:0:0:
341,57,45859,1,0,3:0:0:0:
303,108,45947,1,0,3:0:0:0:
295,170,46035,1,0,3:0:0:0:
313,202,46122,6,0,B|339:243|381:244|432:202|389:198|441:133|513:165,1,216,6|0,3:2|3:2,0:0:0:0:
494,159,46824,1,8,0:0:0:0:
306,377,47175,1,10,0:0:0:0:
216,355,47350,1,0,3:2:0:0:
147,291,47526,6,0,B|114:280|97:250|97:250|52:227|0:250,1,161.999995056153,6|0,3:2|3:0,0:0:0:0:
268,195,48403,1,8,0:0:0:0:
252,120,48578,1,2,3:2:0:0:
237,45,48754,1,0,3:2:0:0:
479,131,48929,6,0,B|440:123|410:90|410:90|379:55|338:50,1,161.999995056153,6|0,3:2|3:0,0:0:0:0:
341,50,49631,1,8,0:0:0:0:
191,184,49982,5,0,0:0:0:0:
117,156,50157,2,0,L|10:178,1,107.999996704102,2|0,3:2|3:0,0:0:0:0:
202,192,50684,2,0,L|277:215,1,53.9999983520508,0|0,0:0|3:2,0:0:0:0:
352,229,51035,5,10,0:0:0:0:
416,162,51210,1,0,3:2:0:0:
496,213,51385,2,0,L|515:271,1,53.9999983520508,2|0,0:0|3:0,0:0:0:0:
341,357,51736,5,6,3:2:0:0:
109,313,52087,1,8,0:0:0:0:
341,357,52438,5,2,3:2:0:0:
226,337,52614,1,0,3:0:0:0:
109,313,52789,2,0,L|24:332,1,72,8|0,0:0|3:0,0:0:0:0:
195,204,53140,5,6,3:2:0:0:
359,171,53315,1,0,3:0:0:0:
183,206,53491,5,8,0:0:0:0:
263,45,53666,1,0,3:2:0:0:
96,159,53842,1,2,3:2:0:0:
351,249,54017,1,8,0:0:0:0:
410,257,54105,1,8,0:0:0:0:
463,230,54192,1,8,3:0:0:0:
479,174,54280,1,8,3:0:0:0:
455,116,54368,5,6,3:2:0:0:
455,116,54719,5,0,3:2:0:0:
325,171,54894,1,10,0:0:0:0:
462,107,55070,1,2,0:0:0:0:
274,43,55245,5,0,3:2:0:0:
360,258,55421,1,2,3:2:0:0:
263,31,55596,1,8,0:0:0:0:
71,143,55771,2,0,B|133:129|187:169|152:195|198:238|265:220,1,215.999993408203,2|0,3:2|3:0,0:0:0:0:
0,370,56298,6,0,P|29:335|86:294,1,107.999996704102,10|0,0:0|3:0,0:0:0:0:
228,210,56649,1,2,0:0:0:0:
172,93,56824,1,2,3:2:0:0:
0,165,56999,1,8,0:0:0:0:
217,225,57175,6,0,B|303:243|332:300|298:313|332:372|423:377,1,251.999992309571,6|0,3:2|3:2,0:0:0:0:
510,195,57701,2,0,L|491:346,1,125.999996154785,10|0,0:0|0:0,0:0:0:0:
404,121,58052,1,0,3:2:0:0:
251,242,58228,2,0,L|281:369,1,125.999996154785,2|8,0:0|0:0,0:0:0:0:
407,167,58578,6,0,B|319:159|275:96|312:76|272:16|183:5,1,288,6|0,3:2|3:0,0:0:0:0:
30,181,59105,2,0,L|1:22,1,144,10|0,0:0|3:0,0:0:0:0:
205,182,59456,5,2,0:0:0:0:
393,245,59631,1,2,3:2:0:0:
146,358,59806,5,8,0:0:0:0:
56,312,59982,1,0,3:2:0:0:
56,312,60333,5,0,3:2:0:0:
182,260,60508,1,10,0:0:0:0:
41,318,60684,1,2,0:0:0:0:
270,187,60859,5,0,3:2:0:0:
166,366,61035,1,2,3:2:0:0:
111,156,61210,1,8,0:0:0:0:
398,259,61385,2,0,B|332:258|291:211|331:198|291:149|207:150,1,215.999993408203,2|0,3:2|3:0,0:0:0:0:
1,75,61912,2,0,P|59:58|115:33,1,107.999996704102,10|0,0:0|3:0,0:0:0:0:
52,197,62263,5,2,0:0:0:0:
257,35,62438,1,10,0:0:0:0:
299,41,62526,1,8,0:0:0:0:
342,48,62614,1,0,3:0:0:0:
385,54,62701,1,0,3:0:0:0:
427,61,62789,6,0,P|352:117|195:273,1,270,6|0,3:2|0:0,0:0:0:0:
312,372,63140,2,0,P|303:327|303:277,1,72,2|8,3:2|0:0,0:0:0:0:
464,179,63491,6,0,P|396:149|168:100,1,270,6|0,3:2|0:0,0:0:0:0:
91,189,63842,1,10,0:0:0:0:
56,234,63929,1,8,0:0:0:0:
50,291,64017,2,0,P|24:324|-8:390,1,72,0|0,3:0|0:0,0:0:0:0:
387,369,64192,6,0,P|335:188|310:4,1,360,6|2,3:2|3:2,0:0:0:0:
1,195,64894,1,10,0:0:0:0:
1,203,65245,6,0,P|38:186|96:175,1,80.9999975280763,10|0,0:2|0:0,0:0:0:0:
183,79,65421,2,0,P|216:102|256:153,1,80.9999975280763,2|0,3:2|0:0,0:0:0:0:
24,328,65596,6,0,B|112:328|172:388|172:388|233:364|249:284,1,270,6|0,3:2|0:0,0:0:0:0:
337,273,65947,5,0,3:2:0:0:
459,206,66122,1,10,0:0:0:0:
393,83,66298,1,2,0:0:0:0:
274,165,66473,5,0,3:2:0:0:
444,204,66649,1,2,3:2:0:0:
405,370,66824,1,8,0:0:0:0:
179,209,66999,2,0,B|235:212|306:160|265:139|322:89|396:101,1,251.999992309571,2|0,3:2|3:2,0:0:0:0:
0,114,67526,5,10,0:0:0:0:
116,283,67701,1,0,3:2:0:0:
254,57,67877,1,2,0:0:0:0:
126,156,68052,1,2,3:2:0:0:
287,218,68228,1,8,0:0:0:0:
177,380,68403,6,0,P|317:348|449:292,1,288,6|0,3:2|3:0,0:0:0:0:
357,188,68929,2,0,P|393:153|444:54,1,144,10|0,0:0|0:0,0:0:0:0:
264,0,69280,1,2,3:2:0:0:
264,0,69368,1,0,3:2:0:0:
264,0,69456,2,0,P|234:75|173:137,1,144,2|8,3:2|0:0,0:0:0:0:
36,333,69806,6,0,P|186:283|356:155,1,323.999990112305,6|0,3:2|3:0,0:0:0:0:
141,204,70333,2,0,P|82:181|29:147,1,125.999996154785,10|0,0:0|3:2,0:0:0:0:
208,30,70684,5,2,0:0:0:0:
303,276,70859,1,2,3:2:0:0:
456,19,71035,5,8,0:0:0:0:
426,93,71210,1,0,3:2:0:0:
426,93,71561,5,0,3:2:0:0:
471,210,71736,1,10,0:2:0:0:
377,313,71912,1,2,0:0:0:0:
487,206,72087,5,2,3:2:0:0:
346,124,72263,1,2,3:2:0:0:
220,244,72438,1,8,0:0:0:0:
68,28,72614,2,0,B|145:21|194:86|146:111|206:182|297:166,1,251.999992309571,2|0,3:2|3:0,0:0:0:0:
504,135,73140,6,0,P|485:64|483:-5,1,125.999996154785,10|0,0:0|3:0,0:0:0:0:
435,240,73491,2,0,P|388:247|346:259,1,62.9999980773926,2|0,0:0|0:0,0:0:0:0:
228,360,73666,1,2,3:2:0:0:
214,298,73754,1,0,3:0:0:0:
194,238,73842,1,10,0:0:0:0:
167,181,73929,1,10,0:0:0:0:
137,126,74017,6,0,B|106:144|61:120|47:63|108:3|192:1|258:99,1,270,6|0,3:2|0:0,0:0:0:0:
49,201,74368,2,0,P|18:165|-9:88,1,90,2|0,3:2|0:0,0:0:0:0:
288,121,74543,1,8,0:0:0:0:
168,205,74719,6,0,P|139:240|121:281,1,90,6|0,3:2|0:0,0:0:0:0:
308,29,74894,1,0,3:0:0:0:
512,171,75070,1,8,0:0:0:0:
475,209,75157,1,8,0:0:0:0:
425,231,75245,1,10,0:0:0:0:
284,367,75421,6,0,P|271:286|208:102,1,270,6|0,3:2|0:0,0:0:0:0:
146,64,75771,1,2,3:2:0:0:
359,205,75947,1,2,0:0:0:0:
149,349,76122,5,10,0:0:0:0:
436,176,76473,1,10,0:0:0:0:
45,19,76824,6,0,P|96:54|297:119,1,270,6|0,3:2|0:0,0:0:0:0:
167,221,77175,2,0,P|191:207|271:190,1,90,10|0,0:0|0:0,0:0:0:0:
90,302,77350,1,0,3:2:0:0:
363,373,77526,6,0,P|316:375|226:261,1,180,6|0,3:2|3:2,0:0:0:0:
9,136,77877,1,10,0:0:0:0:
34,183,77964,1,8,0:0:0:0:
46,236,78052,1,8,0:0:0:0:
343,362,78228,6,0,B|411:339|431:259|431:259|451:184|527:162,1,270,6|0,3:2|0:0,0:0:0:0:
409,128,78578,2,0,P|362:155|286:156,1,90,2|0,3:2|0:0,0:0:0:0:
179,6,78754,2,0,P|222:15|260:39,1,90,0|0,3:2|0:0,0:0:0:0:
512,274,78929,5,6,3:2:0:0:
512,274,79280,5,10,0:0:0:0:
506,288,79368,1,8,0:0:0:0:
500,304,79456,1,8,0:0:0:0:
414,164,79631,1,2,3:2:0:0:
293,364,79806,5,6,3:2:0:0:
475,102,79982,1,8,0:0:0:0:
489,59,80070,1,8,0:0:0:0:
501,16,80157,1,2,3:2:0:0:
398,339,80333,5,6,3:2:0:0:
95,152,80508,1,10,3:2:0:0:
51,160,80596,1,8,0:0:0:0:
7,170,80684,1,2,3:2:0:0:
342,31,80859,5,14,0:0:0:0:
193,353,81035,1,14,0:0:0:0:
