osu file format v14

[General]
AudioFilename: audio.mp3
AudioLeadIn: 0
PreviewTime: 18940
Countdown: 0
SampleSet: Soft
StackLeniency: 0.7
Mode: 0
LetterboxInBreaks: 0
WidescreenStoryboard: 1

[Editor]
Bookmarks: 479,9709,20094,28171,29325,38555,58748,60479
DistanceSpacing: 1
BeatDivisor: 2
GridSize: 4
TimelineZoom: 2.6

[Metadata]
Title:Primrose Theme (Octopath traveler)
TitleUnicode:Primrose Theme (Octopath traveler)
Artist:Yasunori Nishiki
ArtistUnicode:Yasunori Nishiki
Creator:CRIZZOMIN
Version:Easy
Source:
Tags:Project Octopath traveler Primrose Theme jump Sayaka Miki Decretum
BeatmapID:2433616
BeatmapSetID:821077

[Difficulty]
HPDrainRate:3.5
CircleSize:3
OverallDifficulty:3.5
ApproachRate:4.6
SliderMultiplier:0.900000005960464
SliderTickRate:1

[Events]
//Background and Video events
0,0,"Primrose.jpg",0,0
//Break Periods
//Storyboard Layer 0 (Background)
//Storyboard Layer 1 (Fail)
//Storyboard Layer 2 (Pass)
//Storyboard Layer 3 (Foreground)
//Storyboard Layer 4 (Overlay)
//Storyboard Sound Samples

[TimingPoints]
479,384.615384615385,3,2,0,60,1,0
38555,-100,3,2,0,60,0,1
60479,-100,3,2,0,60,0,0

[Colours]
Combo1 : 236,193,193
Combo2 : 122,35,5
Combo3 : 138,69,0
Combo4 : 245,199,103
Combo5 : 192,182,180

[HitObjects]
79,110,479,5,4,3:0:0:0:
160,71,864,2,0,P|212:63|280:78,1,90.0000005960464,2|2,0:0|0:0,0:0:0:0:
315,127,1632,2,0,P|359:131|403:123,1,90.0000005960464,0|2,0:0|0:0,0:0:0:0:
481,77,2402,1,0,0:0:0:0:
402,33,2786,6,0,P|357:28|313:36,1,90.0000005960464,4|2,3:0|0:0,0:0:0:0:
239,87,3555,1,2,0:0:0:0:
197,166,3940,6,0,P|162:194|121:213,1,90.0000005960464
34,234,4709,1,0,0:0:0:0:
87,306,5094,6,0,P|176:344|331:291,1,180.000001192093,4|2,3:0|0:0,0:0:0:0:
332,287,6248,6,0,P|377:201|338:42,1,180.000001192093
316,56,7402,6,0,B|269:31|218:67|172:43,2,135.00000089407,4|4|8,3:0|3:0|3:0,0:0:0:0:
404,176,9132,6,0,L|448:248,2,45.0000002980232,0|2|0,3:0|0:0|3:0,0:0:0:0:
372,144,9709,2,0,P|312:140|260:156,1,90.0000005960464
208,196,10479,6,0,B|176:228|176:228|88:232,1,90.0000005960464,2|0,0:0|3:0,0:0:0:0:
48,196,11248,1,0,0:0:0:0:
20,112,11632,1,0,0:0:0:0:
76,40,12017,1,0,3:0:0:0:
238,40,12594,6,0,B|262:40|262:40|290:52,1,45.0000002980232
353,101,13171,6,0,P|387:157|364:221,1,90.0000005960464,0|0,3:0|0:0,0:0:0:0:
367,269,13940,2,0,L|299:337,1,90.0000005960464,0|0,0:0|3:0,0:0:0:0:
220,288,14709,2,0,L|288:220,1,90.0000005960464,0|0,3:0|3:0,0:0:0:0:
296,136,15479,5,0,3:0:0:0:
232,72,15863,1,0,0:0:0:0:
149,108,16248,1,0,3:0:0:0:
85,44,16632,1,0,0:0:0:0:
12,156,17209,6,0,B|3:175|3:175|3:199,1,45.0000002980232
80,252,17786,6,0,P|114:308|91:372,1,90.0000005960464,0|0,3:0|0:0,0:0:0:0:
310,36,19517,6,0,L|268:68,3,45.0000002980232,0|0|0|2,0:0|0:0|0:0|0:0,0:0:0:0:
159,202,20863,6,0,P|162:246|188:282,1,90.0000005960464
271,316,21631,1,2,0:0:0:0:
357,290,22016,1,0,0:0:0:0:
404,212,22402,6,0,P|388:128|284:72,1,180.000001192093,2|0,0:0|0:0,0:0:0:0:
224,68,23555,2,0,P|228:112|257:146,1,90.0000005960464,2|0,0:0|0:0,0:0:0:0:
240,236,24325,5,0,0:0:0:0:
152,232,24709,2,0,P|94:200|82:133,1,90.0000005960464,2|0,0:0|0:0,0:0:0:0:
111,96,25479,2,0,L|184:42,1,90.0000005960464,0|2,0:0|0:0,0:0:0:0:
272,44,26248,2,0,L|345:98,1,90.0000005960464
412,156,27017,6,0,P|440:190|445:234,1,90.0000005960464,2|0,0:0|0:0,0:0:0:0:
392,308,27786,1,0,0:0:0:0:
316,356,28171,6,0,P|273:368|230:355,1,90.0000005960464,2|0,0:0|0:0,0:0:0:0:
200,272,28940,1,0,0:0:0:0:
116,308,29325,6,0,P|79:282|63:240,1,90.0000005960464,2|0,0:0|0:0,0:0:0:0:
96,152,30094,2,0,L|40:52,1,90.0000005960464,0|2,0:0|0:0,0:0:0:0:
136,40,30863,1,0,0:0:0:0:
220,4,31248,1,0,0:0:0:0:
264,80,31632,6,0,L|356:244,1,180.000001192093,2|0,0:0|0:0,0:0:0:0:
428,284,32786,6,0,P|372:323|305:311,1,90.0000005960464,2|0,0:0|0:0,0:0:0:0:
268,292,33555,6,0,P|224:302|192:333,2,90.0000005960464,0|2|0,0:0|0:0|0:0,0:0:0:0:
328,224,34709,6,0,P|371:213|403:182,2,90.0000005960464,0|2|0,0:0|0:0|0:0,0:0:0:0:
240,212,35863,1,0,0:0:0:0:
152,192,36248,6,0,P|48:208|8:271,1,180.000001192093,2|0,0:0|0:0,0:0:0:0:
44,348,37402,1,8,0:0:0:0:
204,316,37979,6,0,L|272:304,3,45.0000002980232,0|0|0|2,0:0|0:0|0:0|0:0,0:0:0:0:
420,256,39325,5,0,0:0:0:0:
436,168,39709,6,0,P|414:103|374:79,1,90.0000005960464,2|2,0:0|0:0,0:0:0:0:
323,138,40479,2,0,P|260:106|217:113,2,90.0000005960464,2|2|0,0:0|0:0|0:0,0:0:0:0:
360,216,41632,1,0,0:0:0:0:
316,296,42017,6,0,P|234:347|155:333,1,180.000001192093,2|0,0:0|0:0,0:0:0:0:
96,268,43171,6,0,L|52:188,1,90.0000005960464,2|0,0:0|0:0,0:0:0:0:
76,104,43940,2,0,P|117:88|161:96,1,90.0000005960464,0|2,0:0|0:0,0:0:0:0:
244,136,44709,1,2,0:0:0:0:
332,108,45094,1,2,0:0:0:0:
420,120,45479,6,0,P|449:153|456:197,1,90.0000005960464,2|0,0:0|0:0,0:0:0:0:
404,272,46248,1,0,0:0:0:0:
316,296,46632,2,0,L|184:296,1,90.0000005960464,2|0,0:0|0:0,0:0:0:0:
172,224,47402,1,0,0:0:0:0:
116,152,47786,6,0,P|84:237|159:317,1,180.000001192093,2|8,0:0|0:0,0:0:0:0:
204,256,48940,6,0,P|289:288|369:213,1,180.000001192093,2|8,0:0|0:0,0:0:0:0:
312,164,50094,6,0,P|344:79|269:-1,1,180.000001192093,2|8,0:0|0:0,0:0:0:0:
224,60,51248,6,0,P|139:28|59:103,1,180.000001192093,2|8,0:0|0:0,0:0:0:0:
104,156,52402,6,0,L|144:220,1,45.0000002980232,2|0,0:0|0:0,0:0:0:0:
172,200,52786,6,0,L|212:264,1,45.0000002980232
240,248,53171,6,0,P|268:282|310:296,1,90.0000005960464,0|2,0:0|0:0,0:0:0:0:
396,272,53940,6,0,P|424:238|431:194,1,90.0000005960464,2|2,0:0|0:0,0:0:0:0:
256,192,54709,12,0,56248,0:0:0:0:
316,108,56632,6,0,L|384:156,2,45.0000002980232,0|0|0,3:0|0:0|0:0,0:0:0:0:
172,72,57594,6,0,L|120:100,1,45.0000002980232,2|0,0:0|0:0,0:0:0:0:
100,188,58171,6,0,L|128:240,1,45.0000002980232,2|0,0:0|0:0,0:0:0:0:
219,271,58748,6,0,L|271:243,1,45.0000002980232,2|0,0:0|0:0,0:0:0:0:
300,153,59325,6,0,L|252:64,1,90.0000005960464,2|0,0:0|0:0,0:0:0:0:
164,40,60094,22,8,L|92:40,2,45.0000002980232
