osu file format v14

[General]
AudioFilename: audio.mp3
AudioLeadIn: 0
PreviewTime: 18940
Countdown: 0
SampleSet: Soft
StackLeniency: 0.7
Mode: 0
LetterboxInBreaks: 0
WidescreenStoryboard: 1

[Editor]
Bookmarks: 479,9709,20094,29325,38555,60479
DistanceSpacing: 2.6
BeatDivisor: 4
GridSize: 8
TimelineZoom: 2.22

[Metadata]
Title:Primrose Theme (Octopath traveler)
TitleUnicode:Primrose Theme (Octopath traveler)
Artist:Yasunori Nishiki
ArtistUnicode:Yasunori Nishiki
Creator:CRIZZOMIN
Version:Dancer
Source:
Tags:Project Octopath traveler Primrose Theme jump Sayaka Miki Decretum
BeatmapID:2464011
BeatmapSetID:821077

[Difficulty]
HPDrainRate:5.5
CircleSize:4
OverallDifficulty:6
ApproachRate:9
SliderMultiplier:2.5
SliderTickRate:1

[Events]
//Background and Video events
0,0,"Primrose.jpg",0,0
//Break Periods
//Storyboard Layer 0 (Background)
//Storyboard Layer 1 (Fail)
//Storyboard Layer 2 (Pass)
//Storyboard Layer 3 (Foreground)
//Storyboard Layer 4 (Overlay)
//Storyboard Sound Samples

[TimingPoints]
479,384.615384615385,3,2,0,60,1,0
38555,-100,3,2,0,60,0,1
60479,-100,3,2,0,60,0,0

[Colours]
Combo1 : 192,182,180
Combo2 : 122,35,5
Combo3 : 245,199,103
Combo4 : 236,193,193
Combo5 : 138,69,0

[HitObjects]
40,280,479,6,0,P|80:204|180:200,1,187.5,4|0,3:0|0:0,0:0:0:0:
216,222,864,5,2,0:0:0:0:
119,47,1056,1,0,0:0:0:0:
311,155,1248,2,0,P|370:151|419:95,1,125,2|0,0:0|0:0,0:0:0:0:
236,13,1633,5,0,0:0:0:0:
255,211,1825,1,0,0:0:0:0:
322,243,1921,1,0,0:0:0:0:
396,233,2017,1,2,0:0:0:0:
271,75,2210,1,0,0:0:0:0:
205,289,2402,1,0,0:0:0:0:
80,133,2594,1,0,0:0:0:0:
287,314,2787,6,0,L|376:308,1,62.5,4|0,3:0|0:0,0:0:0:0:
411,304,2979,1,0,0:0:0:0:
220,244,3171,5,2,0:0:0:0:
397,149,3364,1,0,0:0:0:0:
260,4,3556,2,0,P|320:0|372:44,1,125,2|0,0:0|0:0,0:0:0:0:
157,174,3941,6,0,P|150:142|156:112,1,62.5
188,59,4133,1,0,0:0:0:0:
393,117,4325,5,0,0:0:0:0:
221,219,4517,1,0,0:0:0:0:
456,258,4710,5,0,0:0:0:0:
284,360,4902,1,0,0:0:0:0:
507,377,5094,6,0,L|419:327,1,62.5,4|0,3:0|0:0,0:0:0:0:
387,308,5287,1,0,0:0:0:0:
169,252,5479,5,2,0:0:0:0:
358,131,5671,1,0,0:0:0:0:
239,308,5864,5,2,0:0:0:0:
303,79,6056,1,0,0:0:0:0:
320,302,6248,2,0,L|386:351,1,62.5
443,358,6441,1,0,0:0:0:0:
366,125,6633,5,2,0:0:0:0:
173,0,6825,1,0,0:0:0:0:
49,186,7018,5,0,0:0:0:0:
239,308,7210,1,0,0:0:0:0:
424,184,7402,6,0,P|436:152|424:100,1,62.5,4|0,3:0|0:0,0:0:0:0:
352,40,7594,2,0,P|296:14|236:28,1,125
252,216,7979,6,0,P|272:256|304:276,1,62.5,4|0,3:0|0:0,0:0:0:0:
400,288,8171,2,0,P|459:264|493:193,1,125
296,12,8555,6,0,P|263:17|220:53,1,62.5,8|0,3:0|0:0,0:0:0:0:
238,31,8940,5,0,0:0:0:0:
195,92,9036,1,0,0:0:0:0:
192,166,9132,1,0,0:0:0:0:
387,279,9325,5,0,3:0:0:0:
344,33,9517,1,0,0:0:0:0:
106,173,9710,6,0,P|84:195|73:224,1,62.5,0|0,3:0|0:0,0:0:0:0:
59,285,9902,1,0,0:0:0:0:
276,292,10094,5,2,0:0:0:0:
250,67,10287,1,0,0:0:0:0:
276,292,10479,6,0,P|232:336|172:344,1,125,2|0,0:0|0:0,0:0:0:0:
152,132,10864,2,0,P|260:172|272:304,1,250,0|2,3:0|0:0,0:0:0:0:
68,244,11441,1,0,0:0:0:0:
148,60,11633,6,0,P|224:64|268:84,1,125
428,224,12017,2,0,P|481:242|553:233,1,125,0|0,3:0|0:0,0:0:0:0:
404,64,12402,1,2,0:0:0:0:
302,235,12594,5,0,0:0:0:0:
243,283,12690,1,0,0:0:0:0:
169,291,12786,1,2,0:0:0:0:
215,95,12979,1,0,0:0:0:0:
454,164,13171,6,0,L|545:187,2,62.5,0|0|0,3:0|0:0|0:0,0:0:0:0:
287,316,13555,2,0,P|223:347|149:340,1,125,0|0,2:0|2:0,2:0:0:0:
183,132,13941,5,0,0:0:0:0:
412,191,14133,1,0,0:0:0:0:
232,332,14325,5,0,3:0:0:0:
284,76,14517,1,0,0:0:0:0:
372,312,14709,5,2,0:0:0:0:
77,251,14902,1,0,0:0:0:0:
328,144,15094,5,2,0:0:0:0:
136,324,15287,1,0,0:0:0:0:
278,75,15479,54,0,P|352:63|405:114,1,125,0|0,3:0|0:0,0:0:0:0:
141,203,15863,2,0,P|93:144|111:72,1,125,2|0,0:0|0:0,0:0:0:0:
316,265,16248,2,0,P|289:335|217:356,1,125
171,355,16537,1,0,0:0:0:0:
98,338,16632,2,0,P|43:286|52:212,1,125,0|0,3:0|0:0,0:0:0:0:
146,39,17017,1,0,0:0:0:0:
348,205,17209,21,0,0:0:0:0:
304,267,17305,1,0,0:0:0:0:
234,293,17401,1,0,0:0:0:0:
237,287,17787,6,0,P|238:192|138:139,1,187.5,0|0,3:0|0:0,0:0:0:0:
111,162,18171,1,0,0:0:0:0:
324,232,18364,1,0,0:0:0:0:
127,347,18556,2,0,L|254:277,1,125
435,180,18941,21,0,0:0:0:0:
218,84,19133,1,0,0:0:0:0:
84,244,19325,53,0,0:0:0:0:
322,135,19517,1,0,0:0:0:0:
470,303,19709,53,0,0:0:0:0:
207,186,19901,1,0,0:0:0:0:
351,44,20094,54,0,P|441:70|401:211,1,250,2|0,0:0|0:0,0:0:0:0:
253,332,20671,1,0,0:0:0:0:
114,138,20864,5,0,0:0:0:0:
377,128,21056,1,0,0:0:0:0:
198,263,21248,6,0,P|156:281|82:252,1,125,2|0,0:0|0:0,0:0:0:0:
115,185,21537,1,0,0:0:0:0:
171,135,21633,2,0,P|207:161|219:240,1,125
39,91,22017,2,0,P|66:36|124:16,1,125
264,196,22402,6,0,P|396:176|388:64,1,250,2|0,0:0|0:0,0:0:0:0:
168,139,22979,1,0,0:0:0:0:
157,214,23075,1,0,0:0:0:0:
187,282,23171,1,0,0:0:0:0:
227,88,23364,1,0,0:0:0:0:
349,333,23556,6,0,P|405:331|458:287,1,125,2|8,0:0|0:0,0:0:0:0:
270,148,23941,1,8,0:0:0:0:
488,204,24133,1,0,0:0:0:0:
268,240,24325,5,0,0:0:0:0:
484,116,24517,1,0,0:0:0:0:
245,126,24710,2,0,P|306:126|355:164,1,125,2|0,0:0|0:0,0:0:0:0:
226,317,25094,5,0,0:0:0:0:
208,66,25287,1,0,0:0:0:0:
425,161,25479,2,0,P|468:196|480:264,1,125
202,249,25863,6,0,B|187:234|165:212|140:262|69:216,1,125,2|0,0:0|0:0,0:0:0:0:
138,192,26152,1,0,0:0:0:0:
202,249,26248,2,0,P|230:297|218:365,1,125
86,135,26633,2,0,P|58:87|70:19,1,125
332,135,27017,6,0,P|379:162|403:226,1,125,2|0,0:0|0:0,0:0:0:0:
193,140,27402,1,0,0:0:0:0:
402,225,27594,1,0,0:0:0:0:
392,296,27690,1,0,0:0:0:0:
343,354,27786,1,0,0:0:0:0:
174,223,27979,1,0,0:0:0:0:
460,161,28171,6,0,P|492:108|486:47,1,125,2|8,0:0|0:0,0:0:0:0:
402,225,28556,1,8,0:0:0:0:
243,52,28748,1,0,0:0:0:0:
136,279,28941,5,0,0:0:0:0:
351,109,29133,1,0,0:0:0:0:
160,47,29325,2,0,P|69:46|-1:178,1,250,2|0,0:0|0:0,0:0:0:0:
224,96,29902,1,0,0:0:0:0:
0,257,30095,5,0,0:0:0:0:
223,368,30287,1,0,0:0:0:0:
93,130,30479,6,0,P|80:188|130:239,1,125,2|0,0:0|0:0,0:0:0:0:
186,272,30768,1,0,0:0:0:0:
262,280,30864,2,0,P|318:261|337:192,1,125
138,78,31248,2,0,P|78:63|31:100,1,125
234,266,31633,6,0,P|342:250|314:130,1,250,2|0,0:0|0:0,0:0:0:0:
139,31,32209,1,0,0:0:0:0:
154,105,32305,1,0,0:0:0:0:
206,157,32401,1,0,0:0:0:0:
0,53,32595,1,0,0:0:0:0:
35,259,32787,6,0,P|75:305|156:292,1,125,2|8,0:0|0:0,0:0:0:0:
82,110,33171,1,8,0:0:0:0:
234,300,33364,1,0,0:0:0:0:
218,58,33556,5,0,0:0:0:0:
106,235,33748,1,0,0:0:0:0:
160,288,33844,1,0,0:0:0:0:
234,300,33940,1,2,0:0:0:0:
160,99,34133,5,0,0:0:0:0:
65,329,34325,1,0,0:0:0:0:
327,248,34517,5,0,0:0:0:0:
75,107,34710,2,0,P|92:49|146:15,1,125
69,241,35094,6,0,P|87:315|140:353,1,125,2|0,0:0|0:0,0:0:0:0:
154,262,35383,1,0,0:0:0:0:
187,181,35479,2,0,P|229:225|239:286,1,125
175,104,35864,2,0,P|236:94|292:121,1,125
238,365,36248,22,0,P|178:374|122:347,1,125,2|0,0:0|0:0,0:0:0:0:
302,232,36633,1,0,0:0:0:0:
122,347,36825,53,0,0:0:0:0:
75,289,36921,1,0,0:0:0:0:
66,214,37017,1,0,0:0:0:0:
66,214,37402,37,8,0:0:0:0:
332,78,37594,2,0,B|376:77|411:118|456:115,1,125,4|0,0:0|0:0,0:0:0:0:
259,19,37979,53,0,0:0:0:0:
405,189,38171,1,0,0:0:0:0:
175,86,38364,1,0,0:0:0:0:
418,237,38556,54,0,P|380:348|259:358,1,250,2|0,0:0|0:0,0:0:0:0:
183,160,39133,1,0,0:0:0:0:
401,109,39325,2,0,P|476:113|513:155,1,125
383,365,39710,38,0,P|282:379|207:326,1,187.5,2|0,0:0|0:0,0:0:0:0:
43,295,40094,2,0,P|73:208|153:163,1,187.5,2|0,0:0|0:0,0:0:0:0:
289,64,40479,2,0,P|348:134|347:225,1,187.5,2|0,0:0|0:0,0:0:0:0:
153,164,40864,6,0,P|94:94|91:23,1,125,2|0,0:0|0:0,0:0:0:0:
249,169,41248,1,0,0:0:0:0:
63,193,41440,1,0,0:0:0:0:
77,120,41536,1,0,0:0:0:0:
128,66,41632,1,0,0:0:0:0:
169,287,41825,1,0,0:0:0:0:
201,39,42017,6,0,P|259:21|320:39,1,125,2|0,0:0|0:0,0:0:0:0:
137,172,42402,1,8,0:0:0:0:
361,96,42594,1,8,0:0:0:0:
193,263,42786,2,0,P|134:280|73:262,1,125,8|0,0:0|0:0,0:0:0:0:
320,313,43171,5,2,0:0:0:0:
165,147,43364,1,0,0:0:0:0:
271,372,43556,5,0,0:0:0:0:
224,101,43748,1,0,0:0:0:0:
468,253,43941,2,0,P|511:308|503:369,1,125
244,282,44325,6,0,P|169:255|178:190,1,125,2|0,0:0|0:0,0:0:0:0:
255,190,44614,1,0,0:0:0:0:
340,149,44710,2,0,P|355:226|294:252,1,125,2|0,0:0|0:0,0:0:0:0:
184,131,45094,2,0,P|220:83|280:92,1,125,2|0,0:0|0:0,0:0:0:0:
311,352,45479,6,0,P|423:356|471:224,1,250,2|0,0:0|0:0,0:0:0:0:
228,285,46056,1,0,0:0:0:0:
376,84,46248,5,0,0:0:0:0:
311,352,46441,1,0,0:0:0:0:
180,96,46633,2,0,P|123:54|36:79,1,125,2|8,0:0|0:0,0:0:0:0:
233,194,47017,5,8,0:0:0:0:
3,130,47210,1,0,0:0:0:0:
264,113,47402,37,0,0:0:0:0:
3,261,47594,1,0,0:0:0:0:
232,47,47786,38,0,P|302:49|334:88,2,125,2|0|8,0:0|0:0|0:0,0:0:0:0:
369,256,48364,1,8,0:0:0:0:
152,105,48556,37,8,0:0:0:0:
437,156,48748,1,0,0:0:0:0:
133,228,48940,38,0,P|64:213|39:169,2,125,2|0|8,0:0|0:0|0:0,0:0:0:0:
288,63,49517,1,8,0:0:0:0:
163,295,49710,37,8,0:0:0:0:
422,144,49902,1,0,0:0:0:0:
132,222,50094,6,0,P|87:263|90:324,2,125,2|0|8,0:0|0:0|0:0,0:0:0:0:
375,322,50671,1,8,0:0:0:0:
167,103,50864,37,8,0:0:0:0:
480,188,51056,1,0,0:0:0:0:
132,222,51248,38,0,P|75:197|57:140,2,125,2|0|8,0:0|0:0|0:0,0:0:0:0:
354,259,51825,1,8,0:0:0:0:
80,282,52017,37,8,0:0:0:0:
362,177,52210,1,0,0:0:0:0:
51,211,52402,53,2,0:0:0:0:
314,325,52594,1,0,0:0:0:0:
74,142,52787,5,0,0:0:0:0:
354,259,52979,1,0,0:0:0:0:
19,301,53171,6,0,P|61:339|135:335,1,125
251,100,53555,2,0,P|195:85|132:122,1,125
380,308,53940,2,0,P|437:288|468:235,1,125
281,38,54325,54,0,P|182:105|220:161,1,187.5,2|0,0:0|0:0,0:0:0:0:
206,269,54710,38,0,P|304:201|266:144,1,187.5,2|0,0:0|0:0,0:0:0:0:
251,100,55094,5,0,0:0:0:0:
380,308,55287,1,0,0:0:0:0:
178,176,55479,5,0,0:0:0:0:
447,227,55671,1,0,0:0:0:0:
161,271,55864,5,0,0:0:0:0:
429,132,56056,1,0,0:0:0:0:
216,342,56248,21,0,0:0:0:0:
368,68,56441,1,0,0:0:0:0:
113,171,56633,21,0,0:0:0:0:
301,7,56825,1,0,0:0:0:0:
293,243,57017,2,0,P|352:282|482:179,1,250,0|0,3:0|0:0,0:0:0:0:
268,52,57594,53,2,0:0:0:0:
200,88,57691,2,0,L|120:132,1,62.5
24,276,57979,1,0,0:0:0:0:
220,240,58171,37,2,0:0:0:0:
284,280,58268,2,0,L|360:332,1,62.5
484,180,58556,1,0,0:0:0:0:
284,204,58748,21,2,0:0:0:0:
220,240,58845,2,0,L|140:284,1,62.5
68,96,59133,1,0,0:0:0:0:
268,52,59325,37,2,0:0:0:0:
336,88,59422,2,0,L|416:132,1,62.5
280,300,59710,54,0,P|208:352|88:356,1,187.5
47,319,60094,53,8,0:0:0:0:
345,221,60287,1,8,0:0:0:0:
23,174,60479,1,8,0:0:0:0:
