osu file format v14

[General]
AudioFilename: audio.mp3
AudioLeadIn: 0
PreviewTime: 24996
Countdown: 0
SampleSet: Soft
StackLeniency: 0.7
Mode: 0
LetterboxInBreaks: 0
WidescreenStoryboard: 1

[Editor]
Bookmarks: 819,6894,12970,17527,19046,22084,23603,25122,29679,31198,34236,37274,43350,49426,55502,61578,67654,73752
DistanceSpacing: 1
BeatDivisor: 6
GridSize: 4
TimelineZoom: 2.999999

[Metadata]
Title:Aim for the Top
TitleUnicode:高みを目指して
Artist:Yasunori Nishiki
ArtistUnicode:西木康智
Creator:Reiszen
Version:tilda's Enchanted Arrow Special
Source:プリンセスコネクト!Re:Dive
Tags:Take tilda Affirmation Neoskylove Sightread [yoshino] Sanayui not your kitty Princess Connect! priconne プリコネ pcr purikone Cygames video mobile gacha game instrumental ost original soundtrack vol. volume 1 folk Takami o Mezashite
BeatmapID:4258937
BeatmapSetID:2040215

[Difficulty]
HPDrainRate:5.2
CircleSize:4
OverallDifficulty:8.2
ApproachRate:9.2
SliderMultiplier:2.35
SliderTickRate:1

[Events]
//Background and Video events
0,0,"heehaw.jpg",0,0
//Break Periods
//Storyboard Layer 0 (Background)
//Storyboard Layer 1 (Fail)
//Storyboard Layer 2 (Pass)
//Storyboard Layer 3 (Foreground)
//Storyboard Layer 4 (Overlay)
//Storyboard Sound Samples

[TimingPoints]
828,379.746835443038,4,2,1,70,1,0
828,-125,4,2,1,70,0,0
5384,-250,4,2,1,70,0,0
5764,-125,4,2,1,70,0,0
6144,-83.3333333333333,4,2,1,70,0,0
6524,-62.5,4,2,1,70,0,0
6903,-125,4,2,1,70,0,0
12979,-166.666666666667,4,2,1,60,0,0
17536,-100,4,2,1,65,0,0
19055,-166.666666666667,4,2,1,60,0,0
22093,-125,4,2,1,60,0,0
23612,-100,4,2,1,65,0,0
25131,-83.3333333333333,4,2,1,75,0,1
26271,-100,4,2,1,75,0,1
26650,-83.3333333333333,4,2,1,75,0,1
27790,-100,4,2,1,75,0,1
28169,-83.3333333333333,4,2,1,75,0,1
29309,-100,4,2,1,75,0,1
29688,-66.6666666666667,4,2,1,75,0,1
31207,-83.3333333333333,4,2,1,75,0,1
37283,-100,4,2,1,75,0,0
41081,-166.666666666667,4,2,1,75,0,0
41460,-100,4,2,1,75,0,0
46397,-76.9230769230769,4,2,1,75,0,0
47157,-100,4,2,1,75,0,0
47916,-200,4,2,1,75,0,0
48296,-100,4,2,1,75,0,0
48676,-66.6666666666667,4,2,1,75,0,0
49055,-50,4,2,1,75,0,0
49435,-100,4,2,1,75,0,0
53233,-166.666666666667,4,2,1,75,0,0
53612,-100,4,2,1,75,0,0
60068,-83.3333333333333,4,2,1,75,0,0
61587,-125,4,2,1,70,0,0
66144,-250,4,2,1,70,0,0
66524,-125,4,2,1,70,0,0
66903,-83.3333333333333,4,2,1,70,0,0
67283,-62.5,4,2,1,70,0,0
67663,-125,4,2,1,70,0,0
73739,-100,4,2,1,70,0,0
74498,-83.3333333333333,4,2,1,70,0,0

[Colours]
Combo1 : 235,187,139
Combo2 : 227,128,213
Combo3 : 121,145,236

[HitObjects]
482,281,828,6,0,L|464:217,1,62.6666666666667,14|0,3:2|0:0,0:0:0:0:
378,155,1081,1,0,0:0:0:0:
433,371,1207,2,0,L|466:233,1,125.333333333333
371,142,1587,6,0,P|404:133|436:121,2,62.6666666666667,8|0|4,0:0|0:0|0:3,0:0:0:0:
243,65,1967,1,0,3:0:0:0:
162,274,2220,1,0,3:0:0:0:
305,207,2346,6,0,P|265:217|233:255,1,62.6666666666667,14|0,3:2|0:0,0:0:0:0:
42,363,2600,2,0,P|89:353|118:335,1,62.6666666666667,14|0,3:2|0:0,0:0:0:0:
148,172,2853,1,8,0:2:0:0:
85,88,2979,1,8,0:2:0:0:
191,90,3106,6,0,P|216:119|241:170,1,62.6666666666667,8|8,0:3|0:3,0:0:0:0:
159,257,3359,1,4,0:3:0:0:
342,167,3486,2,0,B|420:153|394:205|491:189,1,125.333333333333,0|0,3:0|3:0,0:0:0:0:
512,128,3865,6,0,P|483:115|445:105,1,62.6666666666667,14|0,3:2|0:0,0:0:0:0:
371,178,4119,1,0,0:0:0:0:
468,95,4245,2,0,P|402:95|328:4,1,188,0|0,0:0|3:0,0:0:0:0:
212,91,4752,5,8,0:0:0:0:
285,151,4878,1,8,0:0:0:0:
202,200,5005,2,0,L|171:188,3,31.3333333333333,8|0|4|0,0:3|0:0|0:3|0:0,0:0:0:0:
269,240,5258,2,0,L|314:236,1,31.3333333333333,4|0,0:3|0:0,0:0:0:0:
147,309,5384,6,0,P|120:326|84:337,1,62.6666666666667,14|0,3:2|0:0,0:0:0:0:
174,294,5764,5,2,3:2:0:0:
84,237,5891,2,0,P|46:192|19:149,1,62.6666666666667
229,354,6144,5,2,3:2:0:0:
146,179,6271,2,0,P|181:143|243:119,1,93.9999971313478,8|8,0:0|0:0,0:0:0:0:
458,307,6524,6,0,P|366:259|199:204,1,250.666666666667,10|4,0:2|0:3,0:0:0:0:
159,151,6903,6,0,L|141:73,1,62.6666666666667,14|0,3:2|0:0,0:0:0:0:
57,29,7157,1,0,0:0:0:0:
120,193,7283,2,0,L|141:124,2,62.6666666666667,8|8|4,0:3|0:3|0:3,0:0:0:0:
182,339,7663,5,0,3:0:0:0:
117,294,7790,1,8,0:0:0:0:
192,261,7916,1,0,0:0:0:0:
95,371,8043,2,0,L|28:351,1,62.6666666666667,8|8,0:3|0:3,0:0:0:0:
263,229,8296,1,4,0:3:0:0:
338,272,8422,6,0,P|379:249|434:236,1,62.6666666666667,14|0,3:2|0:0,0:0:0:0:
493,294,8676,1,14,3:2:0:0:
391,132,8802,2,0,P|409:207|418:310,1,125.333333333333
214,376,9182,5,8,0:2:0:0:
165,288,9309,1,8,0:2:0:0:
201,195,9435,1,8,0:3:0:0:
278,130,9562,2,0,P|290:92|295:48,2,62.6666666666667,8|4|0,0:3|0:3|3:0,0:0:0:0:
336,352,9941,6,0,P|296:323|247:312,1,62.6666666666667,14|0,3:2|0:0,0:0:0:0:
199,376,10195,1,0,0:0:0:0:
92,284,10321,2,0,P|39:264|15:167,1,125.333333333333,8|8,0:3|0:3,0:0:0:0:
209,172,10701,6,0,P|185:152|155:143,1,62.6666666666667,4|0,0:3|0:0,0:0:0:0:
96,199,10954,1,4,0:3:0:0:
235,277,11081,1,4,3:2:0:0:
512,128,11334,1,4,3:0:0:0:
409,161,11460,6,0,P|389:191|380:226,2,62.6666666666667,14|0|0,3:2|0:0|0:0,0:0:0:0:
271,290,11840,1,8,0:0:0:0:
229,188,11967,1,8,0:0:0:0:
276,301,12093,1,8,0:0:0:0:
146,268,12220,6,0,P|112:255|67:248,1,62.6666666666667,2|0,3:2|0:0,0:0:0:0:
313,89,12473,1,2,3:2:0:0:
209,45,12600,2,0,P|236:127|243:196,1,125.333333333333,2|0,3:2|0:0,0:0:0:0:
366,246,12979,6,0,P|396:235|425:230,2,46.9999985656739,6|0|0,3:2|0:0|0:0,0:0:0:0:
244,286,13359,2,0,P|213:296|187:297,2,46.9999985656739,2|0|0,3:2|0:0|0:0,0:0:0:0:
320,181,13739,2,0,P|326:156|342:125,2,46.9999985656739,2|0|0,3:2|0:0|0:0,0:0:0:0:
352,344,14119,2,0,P|337:326|263:278,1,93.9999971313478,10|0,3:2|3:0,0:0:0:0:
139,221,14498,6,0,P|124:202|107:171,2,46.9999985656739,2|0|0,3:2|0:0|0:0,0:0:0:0:
215,326,14878,2,0,P|202:366|185:392,2,46.9999985656739,2|0|0,3:2|0:0|0:0,0:0:0:0:
330,236,15258,1,2,3:2:0:0:
282,176,15385,2,0,P|261:186|243:201,1,46.9999985656739,10|0,0:0|0:0,0:0:0:0:
112,298,15638,2,0,P|149:326|193:340,1,93.9999971313478,10|0,3:2|3:2,0:0:0:0:
307,249,16017,6,0,P|330:243|361:243,2,46.9999985656739,2|0|0,3:2|0:0|0:0,0:0:0:0:
511,302,16397,2,0,P|487:297|465:289,2,46.9999985656739,2|0|0,3:2|0:0|0:0,0:0:0:0:
365,341,16777,2,0,P|358:363|347:384,2,46.9999985656739,2|0|0,3:2|0:0|0:0,0:0:0:0:
390,216,17157,2,0,P|371:184|343:107,1,93.9999971313478,10|0,3:2|3:2,0:0:0:0:
221,212,17536,6,0,P|180:244|144:371,1,156.666666666667,14|2,0:0|3:2,0:0:0:0:
239,192,17916,2,0,P|179:204|102:314,1,156.666666666667,10|2,0:3|3:0,0:0:0:0:
266,177,18296,2,0,P|220:152|174:141,1,78.3333333333333,10|8,0:3|0:3,0:0:0:0:
111,123,18549,1,4,0:3:0:0:
298,179,18676,2,0,P|261:117|178:69,1,156.666666666667,14|8,3:2|3:2,0:0:0:0:
87,148,19055,6,0,P|74:124|68:100,2,46.9999985656739,6|0|0,3:2|0:0|0:0,0:0:0:0:
163,253,19435,2,0,P|195:269|225:299,2,46.9999985656739,2|0|0,3:2|0:0|0:0,0:0:0:0:
42,223,19815,2,0,P|19:236|1:244,2,46.9999985656739,2|0|0,3:2|0:0|0:0,0:0:0:0:
163,173,20195,2,0,P|192:166|269:135,1,93.9999971313478,10|0,3:2|0:0,0:0:0:0:
371,54,20574,6,0,P|368:25|372:0,2,46.9999985656739,2|0|0,3:2|0:0|0:0,0:0:0:0:
413,213,20954,2,0,P|417:257|417:279,2,46.9999985656739,2|0|0,3:2|0:0|0:0,0:0:0:0:
259,148,21334,1,2,3:2:0:0:
332,126,21460,2,0,P|354:133|375:144,1,46.9999985656739,10|0,0:0|0:0,0:0:0:0:
246,46,21714,2,0,P|222:50|200:57,2,46.9999985656739,2|0|0,3:2|0:0|0:0,0:0:0:0:
157,153,22093,6,0,P|184:203|194:284,1,125.333333333333,6|0,3:2|0:0,0:0:0:0:
123,351,22473,2,0,P|64:356|38:303,1,125.333333333333,2|0,3:2|0:0,0:0:0:0:
194,270,22853,2,0,P|241:240|322:225,1,125.333333333333,2|0,3:2|0:0,0:0:0:0:
396,162,23233,2,0,P|374:142|334:127,1,62.6666666666667,10|0,3:2|0:0,0:0:0:0:
260,102,23486,1,2,0:0:0:0:
142,65,23612,6,0,P|159:135|226:247,1,156.666666666667,14|8,0:0|0:3,0:0:0:0:
44,14,23992,2,0,P|12:112|10:202,1,156.666666666667,6|6,0:3|0:3,0:0:0:0:
234,275,24372,1,10,3:2:0:0:
100,152,24498,2,0,P|120:197|146:212,1,78.3333333333333,8|10,0:0|0:0,0:0:0:0:
333,82,24752,2,0,P|280:85|226:180,1,156.666666666667,10|6,0:3|0:3,0:0:0:0:
300,302,25131,6,0,P|332:304|405:267,1,93.9999971313478,6|0,3:2|0:0,0:0:0:0:
481,173,25384,1,0,0:0:0:0:
379,367,25511,2,0,P|359:273|311:165,1,187.999994262696,10|0,3:2|0:0,0:0:0:0:
105,32,25891,5,2,3:2:0:0:
131,139,26017,1,0,0:0:0:0:
31,103,26144,1,0,0:0:0:0:
203,70,26271,6,0,P|236:101|247:154,1,78.3333333333333,10|0,3:2|0:0,0:0:0:0:
180,213,26524,1,2,3:0:0:0:
355,168,26650,6,0,P|371:126|375:56,1,93.9999971313478,2|0,3:2|0:0,0:0:0:0:
259,2,26903,1,0,0:0:0:0:
440,158,27030,2,0,P|365:175|240:247,1,187.999994262696,10|0,3:2|0:0,0:0:0:0:
0,290,27410,5,2,3:2:0:0:
129,362,27536,1,10,0:0:0:0:
132,201,27663,1,0,0:0:0:0:
249,303,27790,6,0,P|286:306|330:318,1,78.3333333333333,10|0,3:2|0:0,0:0:0:0:
405,224,28043,1,2,3:2:0:0:
263,154,28169,6,0,P|224:188|223:251,1,93.9999971313478,2|0,3:2|0:0,0:0:0:0:
315,334,28423,1,0,0:0:0:0:
151,145,28549,2,0,P|196:179|341:245,1,187.999994262696,10|0,3:2|0:0,0:0:0:0:
506,85,28929,5,2,3:2:0:0:
415,102,29055,1,0,0:0:0:0:
335,149,29182,1,0,0:0:0:0:
276,43,29309,6,0,P|308:39|341:83,2,78.3333333333333,10|0|2,3:2|0:0|3:2,0:0:0:0:
227,227,29688,6,0,P|177:130|176:-11,1,235.000008964539,12|2,0:0|3:2,0:0:0:0:
217,242,30068,2,0,P|127:167|43:44,1,235.000008964539,8|2,0:0|3:2,0:0:0:0:
224,265,30448,2,0,P|149:284|79:274,1,117.500004482269,10|8,0:3|0:3,0:0:0:0:
2,227,30701,1,6,0:3:0:0:
259,293,30828,2,0,P|173:367|35:365,1,235.000008964539,14|8,3:2|3:2,0:0:0:0:
323,210,31207,6,0,P|365:173|438:172,1,93.9999971313478,6|0,3:2|0:0,0:0:0:0:
512,283,31460,1,0,0:0:0:0:
330,103,31587,2,0,P|359:159|407:307,1,187.999994262696,10|0,3:2|0:0,0:0:0:0:
145,339,31967,6,0,P|185:324|227:269,1,93.9999971313478,2|0,3:2|0:0,0:0:0:0:
101,241,32220,1,0,0:0:0:0:
256,382,32346,2,0,P|247:340|174:157,1,187.999994262696,10|2,3:2|3:2,0:0:0:0:
426,121,32726,6,0,P|416:175|359:207,1,93.9999971313478,2|0,3:2|0:0,0:0:0:0:
251,69,32979,1,0,0:0:0:0:
490,220,33106,2,0,P|426:192|301:170,1,187.999994262696,10|0,3:2|0:0,0:0:0:0:
47,265,33486,5,2,3:2:0:0:
203,212,33612,1,10,0:0:0:0:
128,343,33739,1,0,0:0:0:0:
0,225,33865,6,0,L|112:251,1,93.9999971313478,10|8,3:0|0:3,0:0:0:0:
324,369,34119,1,4,3:0:0:0:
193,293,34245,6,0,B|303:274|254:215|366:195,1,187.999994262696,14|0,3:2|0:0,0:0:0:0:
512,380,34625,2,0,B|413:377|459:285|351:285,1,187.999994262696,2|0,3:2|0:0,0:0:0:0:
193,79,35005,6,0,B|215:37|215:37|267:57|287:106|270:149,1,187.999994262696,2|0,3:2|0:0,0:0:0:0:
128,240,35384,2,0,B|78:231|51:188|51:188|41:237|1:263,1,187.999994262696,10|2,3:2|3:2,0:0:0:0:
185,369,35764,6,0,P|231:341|302:321,1,93.9999971313478,12|0,0:0|0:0,0:0:0:0:
371,303,36017,1,2,3:2:0:0:
236,126,36144,2,0,P|253:176|255:326,1,187.999994262696,8|2,0:3|3:2,0:0:0:0:
77,277,36524,5,10,0:0:0:0:
14,165,36650,1,8,0:0:0:0:
105,66,36777,1,10,0:0:0:0:
223,142,36903,5,10,0:3:0:0:
303,180,37030,1,8,0:3:0:0:
391,174,37157,1,4,0:3:0:0:
494,85,37283,6,0,P|458:18|365:37,1,156.666666666667,6|0,3:2|0:0,0:0:0:0:
295,118,37663,2,0,P|328:182|354:293,1,156.666666666667,0|0,3:0|0:0,0:0:0:0:
478,358,38043,6,0,P|467:336|350:262,1,156.666666666667,2|0,3:2|3:0,0:0:0:0:
220,367,38422,2,0,P|241:332|246:288,1,78.3333333333333,8|0,0:0|0:0,0:0:0:0:
246,295,38676,1,0,3:0:0:0:
309,111,38802,6,0,P|269:171|156:201,1,156.666666666667,2|0,3:2|0:0,0:0:0:0:
73,140,39182,2,0,P|48:70|1:-2,1,156.666666666667,0|0,3:0|0:0,0:0:0:0:
161,100,39562,5,2,3:2:0:0:
71,162,39688,2,0,P|32:214|31:261,1,78.3333333333333,8|0,0:0|0:0,0:0:0:0:
123,331,39941,2,0,P|180:288|278:245,1,156.666666666667,8|4,0:3|0:3,0:0:0:0:
331,190,40321,5,6,3:2:0:0:
404,223,40448,1,0,0:0:0:0:
467,176,40574,1,0,0:0:0:0:
388,92,40701,5,2,3:2:0:0:
373,111,40828,1,0,0:0:0:0:
350,104,40954,1,0,0:0:0:0:
501,252,41081,6,0,L|473:144,1,93.9999971313478,2|2,3:2|0:0,0:0:0:0:
403,357,41460,6,0,L|467:189,1,156.666666666667,2|2,3:2|0:0,0:0:0:0:
271,154,41840,6,0,L|292:230,1,78.3333333333333,6|0,3:2|0:0,0:0:0:0:
180,95,42093,1,10,0:0:0:0:
282,154,42220,2,0,L|303:230,2,78.3333333333333,10|0|6,0:3|0:0|0:3,0:0:0:0:
86,201,42600,5,10,0:0:0:0:
24,144,42726,1,10,0:0:0:0:
59,66,42853,1,10,0:0:0:0:
176,231,42979,5,10,0:3:0:0:
211,322,43106,1,10,0:3:0:0:
129,375,43233,1,6,0:3:0:0:
266,244,43359,6,0,P|282:163|309:74,1,156.666666666667,6|0,3:2|0:0,0:0:0:0:
411,21,43739,2,0,P|478:30|496:143,1,156.666666666667,0|0,3:0|0:0,0:0:0:0:
372,181,44119,6,0,L|181:136,1,156.666666666667,2|0,3:2|3:0,0:0:0:0:
101,202,44498,2,0,P|82:157|92:96,1,78.3333333333333,8|0,0:0|0:0,0:0:0:0:
81,128,44752,1,0,3:0:0:0:
242,10,44878,6,0,P|285:97|304:205,1,156.666666666667,2|0,3:2|0:0,0:0:0:0:
404,250,45258,2,0,P|362:331|291:396,1,156.666666666667,0|0,3:0|0:0,0:0:0:0:
420,167,45638,5,2,3:2:0:0:
255,214,45764,2,0,P|290:230|329:225,1,78.3333333333333,8|0,0:0|0:0,0:0:0:0:
494,302,46017,5,8,0:3:0:0:
235,380,46271,1,4,0:3:0:0:
189,289,46397,6,0,B|105:312|96:221|-8:239,1,203.666657343547,14|2,0:0|0:0,0:0:0:0:
0,238,47157,5,2,3:0:0:0:
10,216,47283,1,6,0:3:0:0:
19,193,47410,1,10,0:3:0:0:
177,100,47536,5,10,0:0:0:0:
135,32,47663,1,10,0:0:0:0:
56,46,47790,1,10,0:0:0:0:
132,175,47916,6,0,P|154:207|171:261,1,78.3333333333333,6|8,3:2|0:3,0:0:0:0:
115,171,48296,6,0,P|140:141|154:105,1,78.3333333333333,2|0,3:2|0:0,0:0:0:0:
251,311,48548,1,4,0:3:0:0:
98,169,48676,5,2,3:2:0:0:
311,232,48802,2,0,P|343:281|348:339,1,117.500004482269,8|8,0:0|0:0,0:0:0:0:
86,299,49055,6,0,P|226:232|401:175,1,313.333333333333,10|4,0:3|0:3,0:0:0:0:
506,157,49435,6,0,P|501:84|430:67,1,156.666666666667,6|0,3:2|0:0,0:0:0:0:
306,130,49815,2,0,P|232:85|136:61,1,156.666666666667,8|0,3:2|0:0,0:0:0:0:
47,132,50195,6,0,L|82:308,1,156.666666666667,2|0,3:2|3:0,0:0:0:0:
225,371,50574,2,0,P|247:328|218:279,1,78.3333333333333,8|0,0:0|0:0,0:0:0:0:
240,300,50828,1,0,3:0:0:0:
4,346,50954,6,0,P|28:259|82:172,1,156.666666666667,2|0,3:2|0:0,0:0:0:0:
239,137,51334,2,0,P|232:62|181:123,1,156.666666666667,8|0,3:2|0:0,0:0:0:0:
149,235,51714,5,2,3:2:0:0:
61,202,51840,2,0,P|10:158|18:110,1,78.3333333333333,8|0,0:0|0:0,0:0:0:0:
178,83,52093,2,0,P|256:118|333:179,1,156.666666666667,8|4,0:3|0:3,0:0:0:0:
371,267,52473,5,2,3:2:0:0:
332,337,52600,1,0,0:0:0:0:
256,361,52726,1,0,0:0:0:0:
393,264,52853,5,10,3:2:0:0:
418,245,52979,1,0,0:0:0:0:
448,237,53106,1,0,0:0:0:0:
292,187,53233,6,0,L|316:298,1,93.9999971313478,2|2,3:2|0:0,0:0:0:0:
266,104,53612,6,0,L|198:280,1,156.666666666667,10|2,3:2|0:0,0:0:0:0:
2,280,53992,6,0,L|79:265,1,78.3333333333333,6|0,3:2|0:0,0:0:0:0:
157,325,54245,1,10,0:0:0:0:
2,272,54372,2,0,L|79:257,2,78.3333333333333,2|0|6,3:2|0:0|0:3,0:0:0:0:
230,153,54752,5,2,3:0:0:0:
168,96,54878,1,6,0:3:0:0:
84,109,55005,1,10,0:3:0:0:
227,241,55131,5,10,0:3:0:0:
316,218,55258,1,2,0:0:0:0:
371,145,55384,1,2,0:0:0:0:
490,88,55511,6,0,B|482:30|405:18|405:18|380:69,1,156.666666666667,6|0,3:2|0:0,0:0:0:0:
281,137,55891,2,0,P|317:212|333:308,1,156.666666666667,8|0,3:2|0:0,0:0:0:0:
197,352,56271,6,0,P|234:307|327:273,1,156.666666666667,2|0,3:2|0:0,0:0:0:0:
468,205,56650,2,0,P|418:191|385:163,1,78.3333333333333,8|0,0:0|0:0,0:0:0:0:
397,175,56903,1,0,3:0:0:0:
240,287,57030,6,0,P|181:245|76:209,1,156.666666666667,2|0,3:2|0:0,0:0:0:0:
0,86,57410,2,0,P|10:4|60:62,1,156.666666666667,8|0,3:2|0:0,0:0:0:0:
169,142,57790,5,2,3:2:0:0:
265,190,57916,2,0,P|300:172|328:116,1,78.3333333333333,8|0,0:0|0:0,0:0:0:0:
195,0,58169,2,0,P|183:92|147:168,1,156.666666666667,8|0,0:0|3:0,0:0:0:0:
278,289,58549,6,0,P|303:255|214:209,1,156.666666666667,2|0,3:2|0:0,0:0:0:0:
33,232,58929,2,0,P|117:257|189:302,1,156.666666666667,8|0,3:2|0:0,0:0:0:0:
391,228,59309,2,0,P|376:187|346:143,1,78.3333333333333,4|0,0:3|0:0,0:0:0:0:
266,112,59562,1,4,0:3:0:0:
121,335,59688,5,8,0:0:0:0:
274,384,59814,1,8,0:0:0:0:
220,218,59941,1,8,0:0:0:0:
106,359,60068,6,0,P|45:354|18:237,1,187.999994262696,2|8,3:2|0:0,0:0:0:0:
216,42,60448,2,0,P|146:123|215:210,1,187.999994262696,2|4,3:2|0:3,0:0:0:0:
327,303,60828,5,10,3:2:0:0:
260,180,60954,1,10,0:0:0:0:
426,280,61081,1,10,0:0:0:0:
217,373,61207,2,0,L|236:260,1,93.9999971313478,10|0,3:2|0:0,0:0:0:0:
361,129,61460,1,4,0:3:0:0:
507,294,61587,6,0,P|470:315|429:315,1,62.6666666666667,12|0,3:2|0:0,0:0:0:0:
354,271,61840,1,0,0:0:0:0:
503,384,61967,2,0,P|473:319|458:249,1,125.333333333333
387,136,62346,6,0,P|378:110|355:78,2,62.6666666666667,8|0|4,0:0|0:0|0:3,0:0:0:0:
260,227,62726,1,0,3:0:0:0:
45,148,62979,1,0,3:0:0:0:
119,227,63106,6,0,P|157:248|193:256,1,62.6666666666667,12|0,3:2|0:0,0:0:0:0:
43,15,63359,2,0,P|20:42|3:91,1,62.6666666666667,12|0,3:2|0:0,0:0:0:0:
203,176,63612,1,8,0:2:0:0:
299,137,63739,1,8,0:2:0:0:
334,235,63865,6,0,P|288:229|259:213,1,62.6666666666667,8|8,0:3|0:3,0:0:0:0:
184,114,64119,1,4,0:3:0:0:
33,238,64245,2,0,B|107:260|65:296|144:320,1,125.333333333333,0|0,3:0|3:0,0:0:0:0:
273,376,64625,6,0,P|269:333|250:295,1,62.6666666666667,12|0,3:2|0:0,0:0:0:0:
339,240,64878,1,0,0:0:0:0:
239,342,65005,2,0,P|201:276|233:142,1,188,0|0,0:0|3:0,0:0:0:0:
321,15,65511,5,8,0:0:0:0:
402,63,65638,1,8,0:0:0:0:
308,128,65764,2,0,L|318:173,3,31.3333333333333,8|0|4|0,0:3|0:0|0:3|0:0,0:0:0:0:
383,200,66017,2,0,L|407:145,1,31.3333333333333,4|0,0:3|0:0,0:0:0:0:
261,293,66144,6,0,P|290:300|324:338,1,62.6666666666667,12|0,3:2|0:0,0:0:0:0:
247,280,66524,5,0,3:0:0:0:
185,212,66650,2,0,P|227:173|280:160,1,62.6666666666667
156,314,66903,5,0,3:0:0:0:
67,178,67030,2,0,P|102:122|186:64,1,93.9999971313478,8|8,0:0|0:0,0:0:0:0:
389,37,67283,6,0,P|302:117|162:179,1,250.666666666667,8|4,0:3|0:3,0:0:0:0:
0,226,67663,6,0,P|43:270|59:302,1,62.6666666666667,12|0,3:2|0:0,0:0:0:0:
88,358,67916,1,0,0:0:0:0:
71,195,68043,2,0,P|60:240|28:269,2,62.6666666666667,8|8|4,0:3|0:3|0:3,0:0:0:0:
191,301,68422,5,0,3:0:0:0:
264,272,68549,1,8,0:0:0:0:
200,223,68676,1,0,0:0:0:0:
254,346,68802,2,0,L|339:370,1,62.6666666666667,8|8,0:3|0:3,0:0:0:0:
495,277,69055,1,4,0:3:0:0:
419,233,69182,6,0,P|411:197|415:153,1,62.6666666666667,12|0,3:2|0:0,0:0:0:0:
477,85,69435,1,12,3:2:0:0:
314,136,69562,2,0,P|355:89|441:39,1,125.333333333333
268,237,69941,5,8,0:2:0:0:
208,156,70068,1,8,0:2:0:0:
115,117,70195,1,8,0:3:0:0:
15,114,70321,2,0,L|33:40,2,62.6666666666667,8|4|0,0:3|0:3|3:0,0:0:0:0:
161,19,70701,6,0,L|141:98,1,62.6666666666667,12|0,3:2|0:0,0:0:0:0:
222,162,70954,1,0,0:0:0:0:
135,265,71081,2,0,P|188:322|256:314,1,125.333333333333,8|8,0:3|0:3,0:0:0:0:
329,199,71460,6,0,P|280:231|268:258,1,62.6666666666667,4|0,0:3|0:0,0:0:0:0:
337,327,71714,1,4,0:3:0:0:
487,239,71840,1,0,3:0:0:0:
297,32,72093,1,4,3:0:0:0:
381,84,72220,6,0,P|395:53|396:18,2,62.6666666666667,12|0|0,3:2|0:0|0:0,0:0:0:0:
185,209,72600,1,8,0:0:0:0:
282,161,72726,1,8,0:0:0:0:
175,215,72853,1,8,0:0:0:0:
206,115,72979,6,0,P|195:77|159:26,1,62.6666666666667,8|8,0:3|3:3,0:0:0:0:
370,288,73233,1,4,3:3:0:0:
269,322,73359,2,0,P|280:266|316:186,1,125.333333333333,0|4,3:0|0:3,0:0:0:0:
139,177,73739,6,0,P|116:207|107:263,1,78.3333333333333,6|0,3:2|0:0,0:0:0:0:
6,249,73992,2,0,P|12:286|53:335,1,78.3333333333333,2|0,3:2|0:0,0:0:0:0:
133,165,74245,1,2,3:2:0:0:
82,107,74372,1,2,3:2:0:0:
189,25,74498,6,0,P|233:51|284:108,1,93.9999971313478,2|8,3:2|0:3,0:0:0:0:
407,199,74752,2,0,P|386:241|356:277,1,93.9999971313478,2|8,3:2|0:0,0:0:0:0:
218,149,75005,1,10,0:2:0:0:
396,51,75131,1,8,0:0:0:0:
192,243,75258,5,10,0:0:0:0:
