osu file format v14

[General]
AudioFilename: audio.mp3
AudioLeadIn: 0
PreviewTime: 24996
Countdown: 0
SampleSet: Soft
StackLeniency: 0.5
Mode: 0
LetterboxInBreaks: 0
WidescreenStoryboard: 1

[Editor]
DistanceSpacing: 1.5
BeatDivisor: 3
GridSize: 4
TimelineZoom: 1.6

[Metadata]
Title:Aim for the Top
TitleUnicode:高みを目指して
Artist:Yasunori Nishiki
ArtistUnicode:西木康智
Creator:Reiszen
Version:Sanayui's Hard
Source:プリンセスコネクト!Re:Dive
Tags:Take tilda Affirmation Neoskylove Sightread [yoshino] Sanayui not your kitty Princess Connect! priconne プリコネ pcr purikone Cygames video mobile gacha game instrumental ost original soundtrack vol. volume 1 folk Takami o Mezashite
BeatmapID:4260537
BeatmapSetID:2040215

[Difficulty]
HPDrainRate:4
CircleSize:3.5
OverallDifficulty:5.5
ApproachRate:8.2
SliderMultiplier:1.6
SliderTickRate:1

[Events]
//Background and Video events
0,0,"kyaru.jpg",0,0
//Break Periods
//Storyboard Layer 0 (Background)
//Storyboard Layer 1 (Fail)
//Storyboard Layer 2 (Pass)
//Storyboard Layer 3 (Foreground)
//Storyboard Layer 4 (Overlay)
//Storyboard Sound Samples

[TimingPoints]
828,379.746835443038,4,2,1,70,1,0
12979,-105.263157894737,4,2,1,60,0,0
17536,-105.263157894737,4,2,1,65,0,0
19055,-105.263157894737,4,2,1,60,0,0
23612,-105.263157894737,4,2,1,65,0,0
25131,-90.9090909090909,4,2,1,75,0,1
37283,-100,4,2,1,75,0,0
61587,-100,4,2,1,70,0,0
75638,-100,4,2,1,5,0,0

[Colours]
Combo1 : 255,232,140
Combo2 : 208,157,255

[HitObjects]
72,39,828,5,14,3:2:0:0:
72,39,1587,2,0,L|1:24,2,53.3333333333333,8|0|4,0:0|0:0|0:3,0:0:0:0:
150,22,1967,1,0,3:0:0:0:
15,107,2220,1,0,3:0:0:0:
93,121,2346,5,14,3:2:0:0:
0,251,2600,2,0,L|108:232,1,106.666666666667,14|8,3:2|0:2,0:0:0:0:
179,273,2979,1,8,0:2:0:0:
179,273,3106,2,0,P|186:228|184:210,2,53.3333333333333,8|8|4,0:3|0:3|0:3,0:0:0:0:
223,339,3486,2,0,P|274:368|341:365,1,106.666666666667,0|0,3:0|3:0,0:0:0:0:
399,355,3865,5,14,3:2:0:0:
399,355,4625,2,0,L|470:370,2,53.3333333333333,0|8|8,3:0|0:0|0:0,0:0:0:0:
355,287,5005,2,0,P|344:227|381:174,1,106.666666666667,8|4,0:3|0:3,0:0:0:0:
433,150,5384,6,0,P|454:102|441:51,1,106.666666666667,14|0,3:2|0:0,0:0:0:0:
363,32,5764,2,0,L|241:51,1,106.666666666667,2|0,3:2|0:0,0:0:0:0:
200,105,6144,2,0,L|216:210,1,106.666666666667,2|8,3:2|0:0,0:0:0:0:
270,269,6524,2,0,P|241:328|170:353,1,106.666666666667,10|4,0:2|0:3,0:0:0:0:
127,354,6903,5,14,3:2:0:0:
13,142,7283,2,0,L|-6:210,1,53.3333333333333,8|8,0:3|0:3,0:0:0:0:
76,212,7536,2,0,L|109:95,2,106.666666666667,4|8|8,0:3|0:0|0:3,0:0:0:0:
43,54,8296,1,4,0:3:0:0:
109,10,8422,6,0,P|168:28|204:101,1,106.666666666667,14|14,3:2|3:2,0:0:0:0:
268,29,8802,1,0,0:0:0:0:
169,248,9182,2,0,L|158:185,2,53.3333333333333,8|8|8,0:2|0:2|0:3,0:0:0:0:
155,327,9562,2,0,P|211:366|246:364,1,106.666666666667,8|0,0:3|3:0,0:0:0:0:
319,331,9941,5,14,3:2:0:0:
479,152,10321,2,0,L|505:272,1,106.666666666667,8|8,0:3|0:3,0:0:0:0:
424,276,10701,2,0,L|401:171,1,106.666666666667,4|4,0:3|0:3,0:0:0:0:
423,94,11081,1,4,3:2:0:0:
283,16,11334,1,4,3:0:0:0:
209,46,11460,6,0,P|174:29|161:12,2,53.3333333333333,14|0|0,3:2|0:0|0:0,0:0:0:0:
256,111,11840,2,0,L|248:180,1,53.3333333333333,8|8,0:0|0:0,0:0:0:0:
205,231,12093,1,8,0:0:0:0:
205,231,12220,2,0,L|228:346,1,106.666666666667,2|2,3:2|3:2,0:0:0:0:
149,360,12600,2,0,P|70:368|34:336,1,106.666666666667,2|0,3:2|0:0,0:0:0:0:
18,286,12979,6,0,L|54:125,1,151.999995941162,6|2,3:2|3:2,0:0:0:0:
207,137,13612,1,0,0:0:0:0:
207,137,13739,2,0,L|187:25,1,101.333330627441,2|0,3:2|0:0,0:0:0:0:
264,23,14119,2,0,L|281:122,1,101.333330627441,10|0,3:2|3:0,0:0:0:0:
354,144,14498,6,0,P|408:177|497:163,1,151.999995941162,2|2,3:2|3:2,0:0:0:0:
396,283,15131,1,0,0:0:0:0:
396,283,15258,2,0,L|463:270,2,50.6666653137207,2|10|0,3:2|0:0|0:0,0:0:0:0:
411,357,15638,2,0,L|478:344,2,50.6666653137207,10|0|0,3:2|0:0|3:2,0:0:0:0:
336,370,16017,6,0,P|282:343|270:246,1,151.999995941162,2|2,3:2|3:2,0:0:0:0:
365,144,16650,1,0,0:0:0:0:
365,144,16777,2,0,L|481:160,1,101.333330627441,2|0,3:2|0:0,0:0:0:0:
475,82,17157,2,0,L|374:68,1,101.333330627441,10|0,3:2|3:2,0:0:0:0:
316,19,17536,6,0,P|270:57|212:39,1,101.333330627441,14|2,0:0|3:2,0:0:0:0:
168,96,17916,1,10,0:3:0:0:
291,193,18169,1,2,3:0:0:0:
291,193,18296,2,0,L|308:285,2,50.6666653137207,10|8|4,0:3|0:3|0:3,0:0:0:0:
214,195,18676,2,0,L|235:312,1,101.333330627441,14|8,3:2|3:2,0:0:0:0:
190,358,19055,6,0,B|168:375|168:375|40:358,1,151.999995941162,6|2,3:2|3:2,0:0:0:0:
13,214,19688,1,0,0:0:0:0:
13,214,19815,2,0,L|31:110,1,101.333330627441,2|0,3:2|0:0,0:0:0:0:
105,127,20195,2,0,L|87:226,1,101.333330627441,10|0,3:2|0:0,0:0:0:0:
145,275,20574,6,0,P|210:269|263:192,1,151.999995941162,2|2,3:2|3:2,0:0:0:0:
381,306,21207,1,0,0:0:0:0:
381,306,21334,2,0,L|392:364,2,50.6666653137207,2|10|0,3:2|0:0|0:0,0:0:0:0:
455,291,21714,2,0,L|466:349,2,50.6666653137207,2|0|0,3:2|0:0|0:0,0:0:0:0:
495,226,22093,6,0,P|485:174|379:168,1,151.999995941162,6|2,3:2|3:2,0:0:0:0:
268,82,22726,1,0,0:0:0:0:
268,82,22853,2,0,P|215:115|216:169,1,101.333330627441,2|0,3:2|0:0,0:0:0:0:
178,219,23233,2,0,P|211:272|265:271,1,101.333330627441,10|2,3:2|0:0,0:0:0:0:
285,341,23612,6,0,L|414:354,1,101.333330627441,14|8,0:0|0:3,0:0:0:0:
461,356,23992,1,6,0:3:0:0:
352,258,24245,1,6,0:3:0:0:
352,258,24372,2,0,L|340:189,2,50.6666653137207,10|8|10,3:2|0:0|0:0,0:0:0:0:
426,272,24752,2,0,P|476:238|480:187,1,101.333330627441,10|6,0:3|0:3,0:0:0:0:
426,133,25131,5,6,3:2:0:0:
268,207,25384,1,0,0:0:0:0:
268,207,25511,2,0,L|135:188,1,117.333336914063,10|0,3:2|0:0,0:0:0:0:
74,232,25891,2,0,P|15:210|3:144,1,117.333336914063,2|0,3:2|0:0,0:0:0:0:
9,72,26271,2,0,L|26:10,1,58.6666684570313,10|0,3:2|0:0,0:0:0:0:
112,8,26524,1,2,3:0:0:0:
159,81,26650,5,2,3:2:0:0:
2,162,26903,1,0,0:0:0:0:
2,162,27030,2,0,L|18:251,1,58.6666684570313,10|0,3:2|0:0,0:0:0:0:
15,311,27283,1,0,0:0:0:0:
15,311,27410,2,0,P|61:301|79:283,1,58.6666684570313,2|10,3:2|0:0,0:0:0:0:
129,366,27663,1,0,0:0:0:0:
129,366,27790,2,0,L|202:374,1,58.6666684570313,10|0,3:2|0:0,0:0:0:0:
275,381,28043,1,2,3:2:0:0:
294,295,28169,5,2,3:2:0:0:
452,382,28422,1,0,0:0:0:0:
452,382,28549,2,0,P|501:349|504:275,1,117.333336914063,10|0,3:2|0:0,0:0:0:0:
502,206,28929,2,0,L|473:84,1,117.333336914063,2|0,3:2|0:0,0:0:0:0:
474,3,29309,2,0,P|423:19|409:38,1,58.6666684570313,10|0,3:2|0:0,0:0:0:0:
385,103,29562,1,2,3:2:0:0:
301,79,29688,6,0,P|238:73|186:19,1,117.333336914063,12|2,0:0|3:2,0:0:0:0:
116,74,30068,1,8,0:0:0:0:
241,196,30321,1,2,3:2:0:0:
241,196,30448,2,0,P|281:187|304:168,1,58.6666684570313,10|8,0:3|0:3,0:0:0:0:
373,228,30701,1,6,0:3:0:0:
373,228,30828,2,0,L|342:353,1,117.333336914063,14|8,3:2|3:2,0:0:0:0:
259,360,31207,5,6,3:2:0:0:
87,361,31460,1,0,0:0:0:0:
87,361,31587,2,0,P|30:317|39:268,1,117.333336914063,10|0,3:2|0:0,0:0:0:0:
21,190,31967,2,0,L|144:175,1,117.333336914063,2|0,3:2|0:0,0:0:0:0:
213,218,32346,2,0,L|286:209,1,58.6666684570313,10|0,3:2|0:0,0:0:0:0:
350,170,32600,1,2,3:2:0:0:
434,192,32726,5,2,3:2:0:0:
496,30,32979,1,0,0:0:0:0:
496,30,33106,2,0,L|437:37,1,58.6666684570313,10|0,3:2|0:0,0:0:0:0:
366,87,33359,1,0,0:0:0:0:
366,87,33486,2,0,L|307:94,1,58.6666684570313,2|10,3:2|0:0,0:0:0:0:
246,38,33739,1,0,0:0:0:0:
246,38,33866,2,0,L|187:45,1,58.6666684570313,10|8,3:0|0:3,0:0:0:0:
114,94,34119,1,4,3:0:0:0:
26,85,34245,5,14,3:2:0:0:
78,257,34498,1,0,0:0:0:0:
78,257,34625,2,0,L|203:276,1,117.333336914063,2|0,3:2|0:0,0:0:0:0:
280,289,35005,2,0,P|316:236|311:173,1,117.333336914063,2|0,3:2|0:0,0:0:0:0:
241,137,35384,1,10,3:2:0:0:
376,23,35638,1,2,3:2:0:0:
459,50,35764,6,0,B|492:69|492:69|472:161,1,117.333336914063,12|2,0:0|3:2,0:0:0:0:
412,208,36144,2,0,L|424:278,1,58.6666684570313,8|0,0:3|0:0,0:0:0:0:
480,338,36397,1,2,3:2:0:0:
480,338,36524,2,0,P|445:355|419:358,1,58.6666684570313,10|8,0:0|0:0,0:0:0:0:
341,369,36777,1,10,0:0:0:0:
341,369,36903,2,0,L|270:358,1,58.6666684570313,10|8,0:3|0:3,0:0:0:0:
195,345,37157,1,4,0:3:0:0:
112,369,37283,6,0,P|41:367|6:281,1,160,6|0,3:2|3:0,0:0:0:0:
237,238,38043,2,0,B|313:249|313:249|332:223,1,106.666666666667,2|0,3:2|3:0,0:0:0:0:
409,213,38422,2,0,P|381:161|327:142,1,106.666666666667,8|0,0:0|3:0,0:0:0:0:
259,152,38802,6,0,P|220:100|293:66,1,160,2|0,3:2|3:0,0:0:0:0:
443,18,39435,1,0,0:0:0:0:
443,18,39562,2,0,L|425:92,1,53.3333333333333,2|8,3:2|0:0,0:0:0:0:
477,139,39815,1,0,0:0:0:0:
477,139,39941,2,0,L|445:260,1,106.666666666667,8|4,0:3|0:3,0:0:0:0:
462,321,40321,5,6,3:2:0:0:
309,367,40574,1,0,0:0:0:0:
309,367,40701,2,0,P|264:356|231:332,2,53.3333333333333,2|0|0,3:2|0:0|0:0,0:0:0:0:
354,300,41081,2,0,L|325:193,1,106.666666666667,2|2,3:2|0:0,0:0:0:0:
260,151,41460,1,2,3:2:0:0:
349,17,41714,1,2,0:0:0:0:
276,50,41840,6,0,P|214:77|176:71,1,106.666666666667,6|10,3:2|0:0,0:0:0:0:
115,20,42220,1,10,0:3:0:0:
19,149,42473,1,6,0:3:0:0:
19,149,42600,2,0,L|35:209,1,53.3333333333333,10|10,0:0|0:0,0:0:0:0:
21,283,42853,1,10,0:0:0:0:
21,283,42980,2,0,L|37:343,1,53.3333333333333,10|10,0:3|0:3,0:0:0:0:
108,366,43233,1,6,0:3:0:0:
179,330,43359,6,0,P|237:368|344:365,1,160,6|0,3:2|3:0,0:0:0:0:
176,182,44119,2,0,P|139:231|86:247,1,106.666666666667,2|0,3:2|3:0,0:0:0:0:
48,183,44498,2,0,P|85:134|138:118,1,106.666666666667,8|0,0:0|3:0,0:0:0:0:
170,52,44878,6,0,B|280:69|280:69|310:22,1,160,2|0,3:2|3:0,0:0:0:0:
371,174,45511,1,0,0:0:0:0:
371,174,45638,2,0,L|356:109,1,53.3333333333333,2|8,3:2|0:0,0:0:0:0:
287,158,45891,1,0,0:0:0:0:
287,158,46017,2,0,P|229:200|175:193,1,106.666666666667,8|4,0:3|0:3,0:0:0:0:
127,159,46397,5,14,0:0:0:0:
9,266,46650,1,2,0:0:0:0:
9,266,46777,1,8,0:3:0:0:
139,357,47030,1,4,0:3:0:0:
139,357,47157,2,0,L|122:297,2,53.3333333333333,2|6|10,3:0|0:3|0:3,0:0:0:0:
217,345,47536,2,0,P|256:365|281:365,1,53.3333333333333,10|10,0:0|0:0,0:0:0:0:
340,337,47790,1,10,0:0:0:0:
415,363,47916,6,0,P|484:342|501:297,1,106.666666666667,6|8,3:2|0:3,0:0:0:0:
476,238,48296,1,2,3:2:0:0:
333,176,48549,1,4,0:3:0:0:
333,176,48676,2,0,L|342:113,2,53.3333333333333,2|8|8,3:2|0:0|0:0,0:0:0:0:
411,190,49055,2,0,L|420:127,1,53.3333333333333,10|8,0:3|0:3,0:0:0:0:
483,89,49309,1,4,0:3:0:0:
446,18,49435,6,0,P|379:39|286:8,1,160,6|8,3:2|3:2,0:0:0:0:
54,31,50195,2,0,B|21:49|21:49|38:137,1,106.666666666667,2|0,3:2|3:0,0:0:0:0:
33,196,50574,2,0,P|96:215|155:198,1,106.666666666667,8|0,0:0|3:0,0:0:0:0:
206,171,50954,6,0,P|266:144|377:157,1,160,2|8,3:2|3:2,0:0:0:0:
481,260,51587,1,0,0:0:0:0:
481,260,51714,2,0,L|473:321,1,53.3333333333333,2|8,3:2|0:0,0:0:0:0:
402,344,51967,1,0,0:0:0:0:
402,344,52093,2,0,P|346:370|291:365,1,106.666666666667,8|4,0:3|0:3,0:0:0:0:
228,335,52473,5,2,3:2:0:0:
359,242,52726,1,0,0:0:0:0:
359,242,52853,2,0,L|349:182,2,53.3333333333333,10|0|0,3:2|0:0|0:0,0:0:0:0:
280,260,53233,2,0,L|263:146,1,106.666666666667,2|2,3:2|0:0,0:0:0:0:
311,90,53612,1,10,3:2:0:0:
174,7,53865,1,2,0:0:0:0:
106,49,53992,6,0,P|30:62|5:89,1,106.666666666667,6|10,3:2|0:0,0:0:0:0:
12,160,54372,1,2,3:2:0:0:
140,254,54625,1,6,0:3:0:0:
140,254,54752,2,0,L|204:262,1,53.3333333333333,2|6,3:0|0:3,0:0:0:0:
274,245,55005,1,10,0:3:0:0:
274,245,55132,2,0,L|338:253,1,53.3333333333333,10|2,0:3|0:0,0:0:0:0:
387,302,55384,1,2,0:0:0:0:
466,290,55511,6,0,P|503:244|488:144,1,160,6|8,3:2|3:2,0:0:0:0:
297,6,56271,2,0,P|300:61|350:92,1,106.666666666667,2|0,3:2|0:0,0:0:0:0:
311,164,56650,2,0,L|178:146,1,106.666666666667,8|0,0:0|3:0,0:0:0:0:
125,145,57030,6,0,B|80:141|50:167|50:167|11:145|7:92,1,160,2|8,3:2|3:2,0:0:0:0:
112,231,57663,1,0,0:0:0:0:
112,231,57790,2,0,L|89:308,1,53.3333333333333,2|8,3:2|0:0,0:0:0:0:
32,329,58043,1,0,0:0:0:0:
32,329,58169,2,0,P|85:361|136:352,1,106.666666666667,8|0,0:0|3:0,0:0:0:0:
206,341,58549,6,0,L|377:375,1,160,2|8,3:2|3:2,0:0:0:0:
479,261,59182,1,0,0:0:0:0:
479,261,59309,2,0,L|355:271,1,106.666666666667,4|4,0:3|0:3,0:0:0:0:
297,242,59688,2,0,P|288:204|290:178,1,53.3333333333333,8|8,0:0|0:0,0:0:0:0:
348,137,59941,1,8,0:0:0:0:
426,155,60068,6,0,P|471:113|472:61,1,106.666666666667,2|8,3:2|0:0,0:0:0:0:
416,15,60448,1,2,3:2:0:0:
263,63,60701,1,4,0:3:0:0:
263,63,60828,2,0,L|202:47,1,53.3333333333333,10|10,3:2|0:0,0:0:0:0:
137,32,61081,1,10,0:0:0:0:
137,32,61207,1,10,3:2:0:0:
245,149,61460,1,4,0:3:0:0:
166,166,61587,5,12,3:2:0:0:
166,166,62346,2,0,L|147:246,2,53.3333333333333,8|0|4,0:0|0:0|0:3,0:0:0:0:
117,101,62726,1,0,3:0:0:0:
1,212,62979,1,0,3:0:0:0:
18,289,63105,5,12,3:2:0:0:
158,366,63359,2,0,P|218:335|236:296,1,106.666666666667,12|8,3:2|0:2,0:0:0:0:
288,243,63738,1,8,0:2:0:0:
288,243,63865,2,0,L|274:170,2,53.3333333333333,8|8|4,0:3|0:3|0:3,0:0:0:0:
337,306,64245,2,0,P|375:356|426:368,1,106.666666666667,0|0,3:0|3:0,0:0:0:0:
487,333,64625,5,12,3:2:0:0:
487,333,65384,2,0,L|499:274,2,53.3333333333333,0|8|8,3:0|0:0|0:0,0:0:0:0:
408,318,65764,2,0,L|430:206,1,106.666666666667,8|4,0:3|0:3,0:0:0:0:
478,150,66144,6,0,L|458:21,1,106.666666666667,12|0,3:2|0:0,0:0:0:0:
390,7,66524,2,0,L|284:23,1,106.666666666667,0|0,3:0|0:0,0:0:0:0:
207,2,66903,2,0,P|179:65|203:106,1,106.666666666667,0|8,3:0|0:0,0:0:0:0:
244,156,67283,2,0,P|303:149|348:208,1,106.666666666667,8|4,0:3|0:3,0:0:0:0:
317,253,67662,5,12,3:2:0:0:
108,373,68043,2,0,L|183:355,1,53.3333333333333,8|8,0:3|0:3,0:0:0:0:
155,280,68296,2,0,L|20:317,2,106.666666666667,4|8|8,0:3|0:0|0:3,0:0:0:0:
299,347,69055,1,4,0:3:0:0:
376,368,69182,6,0,P|439:348|458:307,1,106.666666666667,12|12,3:2|3:2,0:0:0:0:
441,236,69561,1,0,0:0:0:0:
214,157,69941,2,0,L|223:218,2,53.3333333333333,8|8|8,0:2|0:2|0:3,0:0:0:0:
251,85,70321,2,0,P|185:79|144:115,1,106.666666666667,8|0,0:3|3:0,0:0:0:0:
101,160,70700,5,12,3:2:0:0:
233,361,71081,2,0,L|360:376,1,106.666666666667,8|8,0:3|0:3,0:0:0:0:
346,294,71460,2,0,L|240:281,1,106.666666666667,4|4,0:3|0:3,0:0:0:0:
166,314,71840,1,0,3:0:0:0:
277,198,72093,1,4,3:0:0:0:
217,144,72220,6,0,L|158:154,2,53.3333333333333,12|0|0,3:2|0:0|0:0,0:0:0:0:
249,70,72600,2,0,L|321:85,1,53.3333333333333,8|8,0:0|0:0,0:0:0:0:
377,51,72852,1,8,0:0:0:0:
377,51,72979,2,0,P|444:64|482:104,1,106.666666666667,8|4,0:3|3:3,0:0:0:0:
491,166,73359,2,0,L|457:283,1,106.666666666667,0|4,3:0|0:3,0:0:0:0:
461,348,73739,5,6,3:2:0:0:
303,375,73992,2,0,P|251:327|244:281,1,106.666666666667,2|2,3:2|3:2,0:0:0:0:
201,231,74372,1,2,3:2:0:0:
201,231,74498,2,0,L|123:220,1,53.3333333333333,2|8,3:2|0:3,0:0:0:0:
70,246,74752,2,0,L|-8:235,1,53.3333333333333,2|8,3:2|0:0,0:0:0:0:
7,158,75005,2,0,L|18:80,1,53.3333333333333,10|8,0:2|0:0,0:0:0:0:
66,43,75258,6,0,P|129:39|142:133,1,160,10|0,0:0|0:0,0:0:0:0:
