osu file format v14

[General]
AudioFilename: audio.mp3
AudioLeadIn: 0
PreviewTime: 16153
Countdown: 1
SampleSet: Soft
StackLeniency: 0.9
Mode: 0
LetterboxInBreaks: 0
WidescreenStoryboard: 1

[Editor]
Bookmarks: 5028,9028,11028,13028,17028,21028,25028,29028
DistanceSpacing: 1.6
BeatDivisor: 4
GridSize: 16
TimelineZoom: 1.6

[Metadata]
Title:Play A Mini-Game!
TitleUnicode:Play A Mini-Game!
Artist:Yasunori Mitsuda
ArtistUnicode:光田康典
Creator:Chompy
Version:Yahoo!
Source:マリオパーティ
Tags:Mario Party Nintendo 64 mini game
BeatmapID:2055590
BeatmapSetID:981727

[Difficulty]
HPDrainRate:5
CircleSize:4
OverallDifficulty:6
ApproachRate:7.5
SliderMultiplier:1
SliderTickRate:1

[Events]
//Background and Video events
0,0,"minigame Cloud.png",0,0
//Break Periods
//Storyboard Layer 0 (Background)
//Storyboard Layer 1 (Fail)
//Storyboard Layer 2 (Pass)
//Storyboard Layer 3 (Foreground)
//Storyboard Sound Samples

[TimingPoints]
1028,500,4,2,0,69,1,0
37903,-100,4,3,0,5,0,0

[Colours]
Combo1 : 252,159,67
Combo2 : 255,0,0
Combo3 : 0,108,28
Combo4 : 0,83,166

[HitObjects]
229,91,278,5,0,0:0:0:0:
157,123,528,1,0,0:0:0:0:
110,187,778,1,0,0:0:0:0:
168,244,1028,6,0,B|210:181|210:181|334:136,1,200
447,133,2403,2,0,L|447:173,1,25
368,173,2778,1,0,0:0:0:0:
289,187,3028,2,0,P|324:253|358:258,1,100
423,263,3778,2,0,P|411:310|369:334,1,100
288,323,4528,5,0,0:0:0:0:
314,353,4653,1,0,0:0:0:0:
352,364,4778,1,0,0:0:0:0:
431,359,5028,6,0,B|419:304|419:304|303:216,1,200
174,123,6528,1,0,0:0:0:0:
172,282,7028,2,0,B|171:337|171:337|63:365,1,150
9,216,8278,5,0,0:0:0:0:
73,169,8528,1,0,0:0:0:0:
151,152,8778,1,0,0:0:0:0:
146,231,9028,6,0,B|208:210|208:210|267:88,1,200
146,82,10403,2,0,L|146:120,1,25
224,120,10778,1,0,0:0:0:0:
303,129,11028,2,0,P|268:195|234:200,1,100
170,216,11778,2,0,P|182:263|224:287,1,100
290,332,12528,5,0,0:0:0:0:
259,357,12653,1,0,0:0:0:0:
219,365,12778,1,0,0:0:0:0:
139,357,13028,6,0,B|151:302|151:302|288:248,1,200
435,195,14528,1,0,0:0:0:0:
468,38,15028,6,0,L|476:80,1,25
401,99,15403,6,0,L|407:138,1,25
483,138,15778,6,0,L|489:178,1,25
418,267,16278,21,0,0:0:0:0:
341,290,16528,1,0,0:0:0:0:
265,262,16778,1,0,0:0:0:0:
211,321,17028,6,0,B|178:260|178:260|242:143,1,200
122,127,18403,2,0,L|122:165,1,25
200,165,18778,1,0,0:0:0:0:
279,172,19028,2,0,P|244:238|210:243,1,100
146,258,19778,2,0,P|158:305|204:325,1,100
262,377,20528,5,0,2:0:0:0:
301,370,20653,1,0,2:0:0:0:
328,341,20778,1,0,2:0:0:0:
411,338,21028,6,0,B|411:290|411:290|262:216,1,200
125,165,22528,1,0,0:0:0:0:
276,114,23028,2,0,B|328:96|328:96|391:188,1,150
253,270,24278,5,0,0:0:0:0:
332,281,24528,1,0,0:0:0:0:
403,243,24778,1,0,0:0:0:0:
461,297,25028,6,0,B|489:233|489:233|417:121,1,200
298,114,26403,2,0,L|298:146,1,25
377,146,26778,1,0,0:0:0:0:
456,148,27028,2,0,P|421:214|387:219,1,100
322,231,27778,2,0,P|334:278|376:302,1,100
424,360,28528,5,0,0:0:0:0:
462,347,28653,1,0,0:0:0:0:
483,313,28778,1,0,0:0:0:0:
413,273,29028,6,0,B|401:218|401:218|275:143,1,200
135,70,30528,1,0,0:0:0:0:
68,215,31028,6,0,L|60:257,1,25
134,275,31403,6,0,L|128:314,1,25
51,315,31778,6,0,L|45:355,1,25
167,333,32278,21,0,0:0:0:0:
246,325,32528,1,0,0:0:0:0:
303,269,32778,1,0,0:0:0:0:
320,190,33028,1,0,0:0:0:0:
256,192,33194,12,0,37861,0:0:0:0:
