osu file format v14

[General]
AudioFilename: audio.mp3
AudioLeadIn: 0
PreviewTime: 59859
Countdown: 0
SampleSet: Soft
StackLeniency: 0.7
Mode: 0
LetterboxInBreaks: 0
WidescreenStoryboard: 1

[Editor]
Bookmarks: 20895,35013,55743,85296
DistanceSpacing: 1
BeatDivisor: 4
GridSize: 32
TimelineZoom: 2

[Metadata]
Title:YO-KAI Disco
TitleUnicode:YO-KAI Disco
Artist:Yasui Yousuke
ArtistUnicode:安井 洋介
Creator:Samoyed
Version:Extra!
Source:まもるクンは呪われてしまった!
Tags:video game videogame electronic instrumental hell's entrance world 冥界入口ワールド yosuke youkai yokai supersweep mamorukun curse! has been cursed mamoru-kun wa nowarete shimatta ost original soundtrack p_o ataraksia mapper passionate
BeatmapID:2730977
BeatmapSetID:1262999

[Difficulty]
HPDrainRate:6
CircleSize:4.8
OverallDifficulty:8
ApproachRate:9.3
SliderMultiplier:2
SliderTickRate:1

[Events]
//Background and Video events
0,0,"BG.jpg",0,0
//Break Periods
//Storyboard Layer 0 (Background)
//Storyboard Layer 1 (Fail)
//Storyboard Layer 2 (Pass)
//Storyboard Layer 3 (Foreground)
//Storyboard Layer 4 (Overlay)
//Storyboard Sound Samples

[TimingPoints]
200,412.371134020619,4,2,22,65,1,0
3487,392.156862745098,4,2,22,65,1,0
8977,-66.6666666666667,4,2,22,65,0,0
9761,-100,4,2,22,65,0,0
21526,-66.6666666666667,4,2,22,65,0,0
22310,-100,4,2,22,65,0,0
30153,-95.2380952380952,4,2,22,65,0,0
30545,-90.9090909090909,4,2,22,65,0,0
30937,-86.9565217391304,4,2,22,65,0,0
31722,-83.3333333333333,4,2,22,65,0,0
33094,-100,4,2,22,65,0,0
34859,-111.111111111111,4,2,22,65,0,0
44663,-100,4,2,22,65,0,0
45055,-95.2380952380952,4,2,22,65,0,0
45447,-90.9090909090909,4,2,22,65,0,0
45839,-86.9565217391304,4,2,22,65,0,0
47408,-111.111111111111,4,2,22,65,0,0
53683,-105.263157894737,4,2,22,65,0,0
56820,-100,4,2,22,65,0,0
58388,-90.9090909090909,4,2,22,65,0,0
59957,-86.9565217391304,4,2,22,75,0,1
72408,-86.9565217391304,4,2,22,75,0,0
72506,-86.9565217391304,4,2,22,75,0,1
85055,-100,4,2,22,75,0,0
85839,-100,4,2,22,55,0,0
86624,-100,4,2,22,50,0,0
87408,-100,4,2,22,45,0,0
88192,-100,4,2,22,40,0,0
88977,-100,4,2,22,35,0,0
89761,-100,4,2,22,30,0,0
90545,-100,4,2,22,25,0,0
91330,-100,4,2,22,20,0,0

[Colours]
Combo1 : 22,254,155
Combo2 : 255,108,108
Combo3 : 255,243,100
Combo4 : 94,226,255
Combo5 : 254,156,239

[HitObjects]
223,56,3487,6,0,L|427:40,1,200,6|10,1:2|2:2,0:0:0:0:
375,215,4075,1,2,0:0:0:0:
375,215,4173,1,0,0:0:0:0:
375,215,4271,2,0,L|312:208,1,50,0|0,1:2|0:0,0:0:0:0:
262,252,4467,2,0,P|287:293|281:358,1,100,2|8,0:0|2:2,0:0:0:0:
64,269,4859,2,0,L|71:215,1,50,2|0,0:0|0:0,0:0:0:0:
32,158,5055,6,0,P|87:164|130:136,1,100,0|2,1:2|0:0,0:0:0:0:
289,38,5447,1,10,2:2:0:0:
437,156,5643,1,2,0:0:0:0:
431,205,5741,1,0,0:0:0:0:
426,254,5839,2,0,B|344:247|344:247|306:269|306:269|231:261,1,200,2|10,1:2|2:2,0:0:0:0:
29,44,6428,1,0,0:0:0:0:
34,92,6526,1,0,0:0:0:0:
18,137,6624,6,0,P|64:111|187:176,1,200,2|10,1:2|2:2,0:0:0:0:
85,343,7212,1,2,0:0:0:0:
85,343,7310,1,0,0:0:0:0:
85,343,7408,2,0,L|72:282,1,50,0|0,1:2|0:0,0:0:0:0:
154,306,7604,2,0,P|206:314|255:289,1,100,2|8,0:0|2:2,0:0:0:0:
436,106,7996,2,0,L|448:158,1,50,2|0,0:0|0:0,0:0:0:0:
488,218,8192,6,0,P|442:198|393:207,1,100,0|2,1:2|0:0,0:0:0:0:
220,349,8585,2,0,L|211:287,1,50,10|0,2:2|0:0,0:0:0:0:
165,229,8781,1,2,0:0:0:0:
165,229,8879,1,0,0:0:0:0:
165,229,8977,6,0,B|188:183|156:145|156:145|171:113|171:113|143:65|177:7,1,225.000008583069,6|0,1:2|0:0,0:0:0:0:
327,51,9369,2,0,L|239:64,1,75.0000028610231,14|0,2:2|0:0,0:0:0:0:
424,35,9565,1,2,0:0:0:0:
413,105,9663,1,0,0:0:0:0:
463,167,9761,6,0,P|411:140|288:202,1,200,6|10,1:2|2:2,0:0:0:0:
120,383,10349,1,2,0:0:0:0:
129,333,10447,1,0,0:0:0:0:
135,283,10545,2,0,L|119:178,1,100,0|2,1:2|0:0,0:0:0:0:
351,20,10937,2,0,L|335:118,1,100,8|2,2:2|0:0,0:0:0:0:
299,194,11232,1,0,0:0:0:0:
299,194,11330,6,0,P|344:167|407:179,1,100,0|2,1:2|0:0,0:0:0:0:
293,369,11722,2,0,P|243:371|202:345,1,100,10|2,2:2|0:0,0:0:0:0:
156,278,12016,1,0,0:0:0:0:
156,278,12114,2,0,L|127:70,1,200,2|10,1:2|2:2,0:0:0:0:
471,87,12702,5,2,0:0:0:0:
419,140,12800,1,0,0:0:0:0:
477,187,12898,2,0,B|366:214|386:154|269:184,1,200,2|10,1:2|2:2,0:0:0:0:
448,378,13487,1,2,0:0:0:0:
398,369,13585,1,0,0:0:0:0:
348,360,13683,2,0,P|356:339|340:260,1,100,0|2,1:2|0:0,0:0:0:0:
110,128,14075,2,0,L|101:236,1,100,8|2,2:2|0:0,0:0:0:0:
59,307,14369,1,0,0:0:0:0:
59,307,14467,6,0,P|94:318|159:298,1,100,0|2,1:2|0:0,0:0:0:0:
440,287,14859,2,0,L|427:335,1,50,10|0,2:2|0:0,0:0:0:0:
297,267,15055,2,0,L|284:218,1,50,2|0,0:0|0:0,0:0:0:0:
443,131,15251,2,0,P|384:151|274:70,1,200,2|10,1:2|2:2,0:0:0:0:
63,220,15839,5,2,0:0:0:0:
50,292,15937,1,0,0:0:0:0:
97,352,16036,2,0,L|299:338,1,200,6|10,1:2|2:2,0:0:0:0:
430,79,16624,1,2,0:0:0:0:
413,146,16722,1,0,0:0:0:0:
443,209,16820,2,0,P|396:183|344:191,1,100,0|2,1:2|0:0,0:0:0:0:
117,60,17212,2,0,L|130:163,1,100,8|2,2:2|0:0,0:0:0:0:
95,225,17506,1,0,0:0:0:0:
95,225,17604,2,0,P|139:213|198:244,1,100,0|2,1:2|0:0,0:0:0:0:
245,301,17866,5,0,0:0:0:0:
245,301,17931,1,0,0:0:0:0:
245,301,17996,2,0,L|297:292,1,50,10|0,2:2|0:0,0:0:0:0:
425,170,18192,2,0,L|375:161,1,50
425,383,18388,2,0,L|443:175,1,200,2|10,1:2|2:2,0:0:0:0:
140,69,18977,1,2,0:0:0:0:
214,76,19075,1,0,0:0:0:0:
275,37,19173,6,0,P|249:93|273:157,1,100,6|0,1:2|0:0,0:0:0:0:
373,255,19565,2,0,L|381:205,1,50,10|0,2:2|0:0,0:0:0:0:
200,237,19761,2,0,L|208:287,1,50,2|0,0:0|0:0,0:0:0:0:
256,344,19957,2,0,P|204:335|152:364,1,100,4|2,1:2|0:0,0:0:0:0:
16,156,20349,2,0,P|64:165|109:146,1,100,8|6,0:0|1:2,0:0:0:0:
478,114,20741,5,0,0:0:0:0:
433,134,20839,1,0,0:0:0:0:
384,128,20937,1,2,0:0:0:0:
345,97,21035,1,0,0:0:0:0:
328,51,21134,5,10,0:2:0:0:
284,27,21232,1,0,0:0:0:0:
235,28,21330,1,0,0:0:0:0:
192,52,21428,1,0,0:0:0:0:
164,115,21526,6,0,L|144:41,1,75.0000028610231,6|0,1:2|0:0,0:0:0:0:
76,106,21722,1,0,0:0:0:0:
76,106,21820,1,0,0:0:0:0:
108,196,21918,6,0,L|89:269,1,75.0000028610231,14|0,2:2|0:0,0:0:0:0:
177,260,22114,5,2,0:0:0:0:
248,283,22212,1,0,0:0:0:0:
304,236,22310,2,0,B|409:268|396:204|514:237,1,200,6|10,1:2|2:2,0:0:0:0:
307,25,22898,1,2,0:0:0:0:
319,73,22996,1,0,0:0:0:0:
330,121,23094,2,0,L|218:111,1,100,0|2,1:2|0:0,0:0:0:0:
86,299,23487,2,0,L|198:289,1,100,8|2,2:2|0:0,0:0:0:0:
256,317,23781,1,0,0:0:0:0:
256,317,23879,6,0,P|236:265|247:218,1,100,0|2,1:2|0:0,0:0:0:0:
429,62,24271,2,0,L|442:161,1,100,10|2,2:2|0:0,0:0:0:0:
491,231,24565,1,0,0:0:0:0:
491,231,24663,2,0,P|409:195|328:258,1,200,2|10,1:2|2:2,0:0:0:0:
57,50,25251,5,2,0:0:0:0:
90,112,25349,1,0,0:0:0:0:
39,165,25447,2,0,L|243:152,1,200,2|10,1:2|2:2,0:0:0:0:
453,344,26036,1,2,0:0:0:0:
403,338,26134,1,0,0:0:0:0:
353,332,26232,2,0,P|375:280|372:237,1,100,0|2,1:2|0:0,0:0:0:0:
91,58,26624,2,0,P|70:102|84:151,1,100,8|2,2:2|0:0,0:0:0:0:
65,231,26918,1,0,0:0:0:0:
65,231,27016,6,0,L|180:222,1,100,0|2,1:2|0:0,0:0:0:0:
446,166,27408,2,0,L|463:212,1,50,10|0,2:2|0:0,0:0:0:0:
298,305,27604,2,0,L|315:259,1,50,2|0,0:0|0:0,0:0:0:0:
471,344,27800,2,0,B|360:370|380:309|261:334,1,200,2|10,1:2|2:2,0:0:0:0:
48,72,28388,5,2,0:0:0:0:
67,142,28486,1,0,0:0:0:0:
46,215,28585,2,0,P|114:185|201:266,1,200,6|10,1:2|2:2,0:0:0:0:
353,14,29173,1,2,0:0:0:0:
320,78,29271,1,0,0:0:0:0:
349,143,29369,2,0,L|407:137,1,50,0|0,1:2|0:0,0:0:0:0:
324,278,29565,2,0,L|266:272,1,50,2|0,0:0|0:0,0:0:0:0:
462,338,29761,2,0,L|449:231,1,100,8|2,2:2|0:0,0:0:0:0:
484,172,30055,1,0,0:0:0:0:
484,172,30153,6,0,P|430:187|373:161,1,104.999996795654,6|0,1:2|0:0,0:0:0:0:
110,35,30545,2,0,P|149:82|148:140,1,110.000003356934,10|0,0:0|0:0,0:0:0:0:
109,194,30839,1,0,0:0:0:0:
61,259,30937,2,0,P|116:239|175:260,1,115.000002193451,6|0,1:2|0:0,0:0:0:0:
349,365,31330,1,8,2:2:0:0:
443,49,31526,1,2,0:0:0:0:
417,118,31624,1,2,0:0:0:0:
480,168,31722,6,0,B|389:162|389:162|346:189|346:189|234:181,1,239.999992675781,6|10,1:2|2:2,0:0:0:0:
441,273,32310,1,2,0:0:0:0:
441,273,32408,1,0,0:0:0:0:
441,273,32506,1,6,1:2:0:0:
301,64,32702,1,10,0:0:0:0:
265,290,32898,1,10,2:2:0:0:
312,41,33094,6,0,B|197:67|228:9|98:39,1,200,6|0,1:2|0:0,0:0:0:0:
37,217,33683,1,8,2:2:0:0:
294,315,33879,1,0,1:2:0:0:
294,315,33977,1,0,1:2:0:0:
248,295,34075,1,4,1:2:0:0:
199,298,34173,1,0,1:2:0:0:
159,327,34271,1,0,1:2:0:0:
217,138,34467,1,4,1:2:0:0:
461,288,34663,1,2,1:2:0:0:
479,222,34761,1,2,1:2:0:0:
471,156,34859,6,0,L|381:167,1,89.9999972534181,6|0,1:2|0:0,0:0:0:0:
210,54,35251,1,8,2:2:0:0:
147,240,35447,1,2,0:0:0:0:
147,240,35545,1,0,0:0:0:0:
147,240,35643,2,0,P|185:221|244:233,1,89.9999972534181,2|0,1:2|0:0,0:0:0:0:
455,292,36036,1,8,2:2:0:0:
251,376,36232,1,2,0:0:0:0:
251,376,36330,1,0,0:0:0:0:
251,376,36428,5,2,1:2:0:0:
338,187,36624,1,2,0:0:0:0:
148,120,36820,2,0,L|161:220,1,89.9999972534181,10|0,2:2|0:0,0:0:0:0:
164,256,37114,1,0,0:0:0:0:
169,300,37212,1,0,1:2:0:0:
358,170,37408,1,0,0:0:0:0:
166,110,37604,1,10,0:0:0:0:
307,350,37800,1,0,0:0:0:0:
351,346,37898,1,0,0:0:0:0:
395,343,37996,6,0,L|411:234,1,89.9999972534181,2|0,1:2|0:0,0:0:0:0:
324,84,38388,1,8,2:2:0:0:
141,144,38585,2,0,L|156:199,1,44.999998626709,2|0,0:0|0:0,0:0:0:0:
211,239,38781,2,0,P|166:237|121:274,1,89.9999972534181,2|0,1:2|0:0,0:0:0:0:
370,346,39173,2,0,L|381:252,1,89.9999972534181,10|0,2:2|0:0,0:0:0:0:
386,212,39467,1,0,0:0:0:0:
392,167,39565,1,2,1:2:0:0:
185,349,39761,5,2,0:0:0:0:
185,349,39826,1,0,0:0:0:0:
185,349,39892,1,0,0:0:0:0:
185,349,39957,2,0,L|177:302,1,44.999998626709,10|0,2:2|0:0,0:0:0:0:
84,221,40153,5,2,0:0:0:0:
84,221,40251,1,2,0:0:0:0:
84,221,40349,1,2,1:2:0:0:
220,98,40545,1,2,0:0:0:0:
352,234,40741,1,10,2:2:0:0:
470,34,40937,1,2,0:0:0:0:
400,14,41036,1,0,0:0:0:0:
329,26,41134,6,0,L|339:128,1,89.9999972534181,6|0,1:2|0:0,0:0:0:0:
255,292,41526,1,8,2:2:0:0:
82,143,41722,1,2,0:0:0:0:
82,143,41820,1,0,0:0:0:0:
82,143,41918,2,0,P|128:137|175:161,1,89.9999972534181,2|0,1:2|0:0,0:0:0:0:
88,310,42310,1,8,2:2:0:0:
325,230,42506,1,2,0:0:0:0:
369,233,42604,1,0,0:0:0:0:
414,237,42702,5,2,1:2:0:0:
207,79,42898,1,2,0:0:0:0:
38,272,43094,2,0,L|128:264,1,89.9999972534181,10|0,2:2|0:0,0:0:0:0:
172,258,43388,1,0,0:0:0:0:
217,253,43487,1,0,1:2:0:0:
104,125,43683,1,0,0:0:0:0:
267,351,43879,5,10,2:2:0:0:
237,159,44075,1,2,0:0:0:0:
281,162,44173,1,0,0:0:0:0:
325,164,44271,2,0,P|340:119|329:70,1,89.9999972534181,2|0,1:2|0:0,0:0:0:0:
36,254,44663,6,0,L|46:362,1,100,10|0,2:2|0:0,0:0:0:0:
177,259,44957,1,0,0:0:0:0:
177,259,45055,6,0,L|186:152,1,104.999996795654,2|0,1:2|0:0,0:0:0:0:
434,177,45447,6,0,P|373:179|331:210,1,110.000003356934,10|0,2:2|0:0,0:0:0:0:
375,368,45741,1,0,0:0:0:0:
375,368,45839,6,0,P|429:368|479:335,1,115.000002193451,2|0,1:2|0:0,0:0:0:0:
304,177,46232,1,8,2:2:0:0:
93,227,46428,2,0,L|80:283,1,57.5000010967255
37,339,46624,5,2,1:2:0:0:
92,326,46722,1,0,1:2:0:0:
142,352,46820,1,0,1:2:0:0:
58,146,47016,1,10,2:2:0:0:
317,106,47212,1,0,1:2:0:0:
246,96,47310,1,0,1:2:0:0:
176,87,47408,6,0,L|187:199,1,89.9999972534181,6|0,1:2|0:0,0:0:0:0:
358,293,47800,1,8,2:2:0:0:
471,117,47996,1,2,0:0:0:0:
471,117,48094,1,0,0:0:0:0:
471,117,48192,2,0,P|424:115|385:138,1,89.9999972534181,2|0,1:2|0:0,0:0:0:0:
461,321,48585,1,8,2:2:0:0:
282,260,48781,1,2,0:0:0:0:
237,249,48879,1,0,0:0:0:0:
192,263,48977,5,2,1:2:0:0:
33,99,49173,1,2,0:0:0:0:
39,143,49271,1,2,0:0:0:0:
46,188,49369,1,10,2:2:0:0:
249,92,49565,2,0,L|302:100,2,44.999998626709,0|0|0,0:0|0:0|1:2,0:0:0:0:
54,212,49957,1,0,0:0:0:0:
218,342,50153,2,0,L|228:290,1,44.999998626709,10|0,2:2|0:0,0:0:0:0:
324,224,50349,2,0,L|333:269,1,44.999998626709
424,350,50545,6,0,P|443:307|436:257,1,89.9999972534181,2|0,1:2|0:0,0:0:0:0:
158,191,50937,2,0,L|171:291,1,89.9999972534181,8|2,2:2|0:0,0:0:0:0:
183,354,51232,1,0,0:0:0:0:
183,354,51330,1,2,1:2:0:0:
374,178,51624,1,2,0:0:0:0:
374,178,51722,1,8,2:2:0:0:
103,64,51918,1,2,0:0:0:0:
99,108,52016,1,0,0:0:0:0:
96,153,52114,6,0,L|191:142,1,89.9999972534181,6|2,1:2|0:0,0:0:0:0:
273,266,52375,1,0,0:0:0:0:
273,266,52441,1,0,0:0:0:0:
273,266,52506,2,0,L|183:255,1,89.9999972534181,10|0,2:2|0:0,0:0:0:0:
127,307,52800,1,0,0:0:0:0:
135,350,52898,1,4,1:2:0:0:
412,296,53094,1,0,0:0:0:0:
404,251,53192,1,0,0:0:0:0:
396,207,53290,1,8,2:2:0:0:
272,368,53486,1,2,0:0:0:0:
54,80,53683,6,0,L|160:90,1,94.9999974632264,6|2,1:2|0:0,0:0:0:0:
242,207,54075,1,10,2:2:0:0:
81,254,54271,1,2,0:0:0:0:
89,300,54369,1,0,0:0:0:0:
98,347,54467,1,0,1:2:0:0:
339,302,54663,2,0,L|236:293,1,94.9999974632264,2|8,0:0|2:2,0:0:0:0:
352,33,55055,1,2,0:0:0:0:
344,79,55153,1,0,0:0:0:0:
335,126,55251,6,0,L|438:117,1,94.9999974632264,2|2,1:2|0:0,0:0:0:0:
375,355,55643,1,10,2:2:0:0:
177,170,55839,1,2,0:0:0:0:
130,166,55937,1,0,0:0:0:0:
89,189,56035,1,0,1:2:0:0:
176,369,56232,1,0,0:0:0:0:
326,142,56428,1,8,2:2:0:0:
25,14,56624,1,2,0:0:0:0:
40,58,56722,1,2,0:0:0:0:
35,105,56820,6,0,L|140:86,1,100,6|0,1:2|0:0,0:0:0:0:
329,292,57212,2,0,L|224:273,1,100,8|2,2:2|0:0,0:0:0:0:
143,356,57506,1,2,0:0:0:0:
143,356,57604,2,0,P|145:296|79:230,1,150,6|2,1:2|0:0,0:0:0:0:
59,322,57996,1,8,2:2:0:0:
315,261,58192,1,2,0:0:0:0:
225,51,58388,5,6,1:2:0:0:
475,81,58585,1,0,0:0:0:0:
307,301,58781,1,8,0:2:0:0:
210,35,58977,1,0,0:0:0:0:
210,35,59075,1,0,0:0:0:0:
135,72,59173,6,0,L|144:137,1,55.0000016784668,4|0,1:2|0:0,0:0:0:0:
378,175,59369,2,0,L|385:120,1,55.0000016784668,0|0,1:2|0:0,0:0:0:0:
192,237,59565,1,12,1:2:0:0:
254,229,59663,1,0,1:2:0:0:
315,261,59761,1,0,1:2:0:0:
349,325,59859,1,0,1:2:0:0:
280,369,59957,6,0,B|186:375|186:375|160:347|160:347|51:355,1,230.000004386902,6|10,1:2|2:2,0:0:0:0:
96,162,60447,1,0,0:0:0:0:
75,193,60545,2,0,L|88:251,1,57.5000010967255,2|0,0:0|0:0,0:0:0:0:
218,200,60741,2,0,L|234:82,1,115.000002193451,2|0,1:2|0:0,0:0:0:0:
496,13,61134,2,0,P|444:10|391:48,1,115.000002193451,10|2,2:2|0:0,0:0:0:0:
484,148,61395,1,0,0:0:0:0:
491,189,61460,1,0,0:0:0:0:
483,227,61526,6,0,L|362:209,1,115.000002193451,2|0,1:2|0:0,0:0:0:0:
139,384,61918,2,0,L|260:366,1,115.000002193451,10|0,2:2|0:0,0:0:0:0:
74,197,62212,1,0,0:0:0:0:
91,165,62310,2,0,P|110:226|87:285,1,115.000002193451,2|0,1:2|0:0,0:0:0:0:
366,19,62702,2,0,L|360:79,1,57.5000010967255,8|0,2:2|0:0,0:0:0:0:
386,155,62898,1,2,0:0:0:0:
330,111,62996,1,2,0:0:0:0:
260,113,63094,6,0,B|129:143|175:54|23:92,1,230.000004386902,2|10,1:2|2:2,0:0:0:0:
91,282,63585,1,0,0:0:0:0:
106,248,63683,2,0,P|92:215|91:189,1,57.5000010967255,2|0,0:0|0:0,0:0:0:0:
247,220,63879,2,0,L|228:339,1,115.000002193451,2|0,1:2|0:0,0:0:0:0:
429,24,64271,2,0,L|437:89,1,57.5000010967255,10|0,2:2|0:0,0:0:0:0:
446,148,64467,1,2,0:0:0:0:
113,96,64663,6,0,P|168:61|234:66,1,115.000002193451,2|0,1:2|0:0,0:0:0:0:
115,352,65055,2,0,P|58:348|11:316,1,115.000002193451,10|0,2:2|0:0,0:0:0:0:
255,194,65349,1,0,0:0:0:0:
232,224,65447,2,0,L|250:341,1,115.000002193451,2|0,1:2|0:0,0:0:0:0:
484,74,65839,1,8,1:2:0:0:
424,120,65937,1,0,1:2:0:0:
348,129,66035,1,2,1:2:0:0:
278,99,66133,1,2,1:2:0:0:
233,38,66232,6,0,P|319:131|284:247,1,230.000004386902,6|10,1:2|2:2,0:0:0:0:
106,143,66722,1,0,0:0:0:0:
133,168,66820,2,0,L|189:158,1,57.5000010967255,2|0,0:0|0:0,0:0:0:0:
146,312,67016,2,0,P|84:288|27:302,1,115.000002193451,2|0,1:2|0:0,0:0:0:0:
410,361,67408,2,0,L|433:245,1,115.000002193451,10|2,2:2|0:0,0:0:0:0:
464,76,67670,1,0,0:0:0:0:
470,116,67735,1,0,0:0:0:0:
474,155,67800,6,0,P|414:147|364:176,1,115.000002193451,2|0,1:2|0:0,0:0:0:0:
114,24,68192,2,0,L|136:140,1,115.000002193451,10|0,2:2|0:0,0:0:0:0:
76,323,68487,1,0,0:0:0:0:
51,296,68585,2,0,P|106:287|157:313,1,115.000002193451,2|0,1:2|0:0,0:0:0:0:
388,21,68977,2,0,L|378:77,1,57.5000010967255,8|0,2:2|0:0,0:0:0:0:
386,147,69173,1,2,0:0:0:0:
330,103,69271,1,2,0:0:0:0:
260,105,69369,6,0,P|222:217|270:292,1,172.500003290176,6|0,1:2|0:0,0:0:0:0:
434,206,69761,2,0,L|300:190,1,115.000002193451,10|2,2:2|2:2,2:2:0:0:
397,384,70055,1,0,0:0:0:0:
376,352,70153,2,0,L|490:338,1,115.000002193451,6|2,1:2|0:0,0:0:0:0:
107,252,70545,2,0,P|115:324|88:370,1,115.000002193451,10|2,2:2|0:0,0:0:0:0:
46,95,70839,1,0,0:0:0:0:
32,130,70937,6,0,L|161:121,1,115.000002193451,6|0,1:2|0:0,0:0:0:0:
459,351,71330,2,0,L|344:342,1,115.000002193451,14|0,1:2|0:0,0:0:0:0:
384,81,71624,1,0,0:0:0:0:
405,50,71722,2,0,P|437:98|430:167,1,115.000002193451,6|0,1:2|0:0,0:0:0:0:
22,304,72114,1,8,1:2:0:0:
81,268,72212,1,0,1:2:0:0:
138,327,72310,1,0,1:2:0:0:
209,301,72408,1,0,1:2:0:0:
245,360,72506,6,0,L|221:128,1,230.000004386902,6|10,1:2|2:2,0:0:0:0:
401,19,72996,1,0,0:0:0:0:
424,46,73094,2,0,P|389:45|359:55,1,57.5000010967255,2|0,0:0|0:0,0:0:0:0:
408,172,73290,2,0,L|398:292,1,115.000002193451,2|0,1:2|0:0,0:0:0:0:
57,119,73683,2,0,P|113:120|160:88,1,115.000002193451,10|2,2:2|0:0,0:0:0:0:
71,210,73944,1,0,0:0:0:0:
78,244,74009,1,0,0:0:0:0:
86,278,74075,6,0,L|207:263,1,115.000002193451,2|0,1:2|0:0,0:0:0:0:
435,370,74467,2,0,P|413:308|433:247,1,115.000002193451,10|0,2:2|0:0,0:0:0:0:
255,68,74761,1,0,0:0:0:0:
275,99,74859,2,0,L|396:114,1,115.000002193451,2|0,1:2|0:0,0:0:0:0:
97,372,75251,2,0,L|85:313,1,57.5000010967255,8|0,2:2|0:0,0:0:0:0:
37,250,75447,1,2,0:0:0:0:
102,271,75545,1,2,0:0:0:0:
167,240,75643,6,0,B|258:247|258:247|288:219|288:219|410:228,1,230.000004386902,2|10,1:2|2:2,0:0:0:0:
349,31,76134,1,0,2:2:0:0:
369,62,76232,2,0,L|357:126,1,57.5000010967255,2|0,0:0|0:0,0:0:0:0:
214,163,76428,2,0,L|198:48,1,115.000002193451,2|0,1:2|0:0,0:0:0:0:
25,367,76820,2,0,L|33:302,1,57.5000010967255,10|0,2:2|0:0,0:0:0:0:
42,243,77016,1,2,0:0:0:0:
377,326,77212,6,0,P|311:323|265:355,1,115.000002193451,2|0,1:2|0:0,0:0:0:0:
396,64,77604,2,0,L|411:184,1,115.000002193451,10|0,2:2|0:0,0:0:0:0:
164,222,77898,1,0,0:0:0:0:
188,250,77996,2,0,L|202:135,1,115.000002193451,2|0,1:2|0:0,0:0:0:0:
505,282,78388,1,8,1:2:0:0:
435,244,78486,1,0,1:2:0:0:
359,248,78584,1,2,1:2:0:0:
295,290,78682,1,2,1:2:0:0:
258,357,78781,6,0,B|130:383|155:307|10:339,1,230.000004386902,6|10,1:2|2:2,0:0:0:0:
108,119,79271,1,0,0:0:0:0:
93,152,79369,2,0,L|104:217,1,57.5000010967255,2|0,0:0|0:0,0:0:0:0:
184,59,79565,2,0,P|138:29|66:36,1,115.000002193451,2|0,1:2|0:0,0:0:0:0:
265,344,79957,2,0,L|239:229,1,115.000002193451,10|2,2:2|0:0,0:0:0:0:
455,170,80219,1,0,0:0:0:0:
451,206,80284,1,0,0:0:0:0:
447,245,80349,6,0,P|389:233|334:258,1,115.000002193451,2|0,1:2|0:0,0:0:0:0:
129,81,80741,2,0,L|103:193,1,115.000002193451,10|0,2:2|0:0,0:0:0:0:
183,358,81036,1,0,0:0:0:0:
199,326,81134,2,0,P|142:310|90:331,1,115.000002193451,2|0,1:2|0:0,0:0:0:0:
428,173,81526,2,0,L|417:112,1,57.5000010967255,8|0,2:2|0:0,0:0:0:0:
453,45,81722,1,2,0:0:0:0:
389,71,81820,1,2,0:0:0:0:
332,31,81918,6,0,B|246:26|246:26|212:59|212:59|99:52,1,230.000004386902,6|10,1:2|2:2,0:0:0:0:
199,235,82408,1,0,0:0:0:0:
172,209,82506,2,0,L|158:148,1,57.5000010967255,2|0,0:0|0:0,0:0:0:0:
356,226,82702,2,0,L|340:348,1,115.000002193451,6|2,1:2|0:0,0:0:0:0:
20,301,83094,2,0,P|80:292|132:323,1,115.000002193451,10|2,2:2|0:0,0:0:0:0:
196,133,83388,1,0,0:0:0:0:
179,167,83487,2,0,L|158:53,1,115.000002193451,6|0,1:2|0:0,0:0:0:0:
486,79,83879,6,0,P|451:77|428:67,1,57.5000010967255,8|0,2:2|0:0,0:0:0:0:
306,14,84075,1,0,0:0:0:0:
321,48,84140,1,0,0:0:0:0:
322,86,84205,1,0,0:0:0:0:
307,121,84271,2,0,L|313:183,1,57.5000010967255,0|0,1:2|0:0,0:0:0:0:
482,310,84467,2,0,L|487:252,1,57.5000010967255,0|0,1:0|0:0,0:0:0:0:
182,271,84663,1,8,1:2:0:0:
257,254,84761,1,0,1:2:0:0:
327,289,84859,1,0,1:2:0:0:
361,359,84957,1,0,1:2:0:0:
249,367,85055,5,6,1:2:0:0:
256,192,85153,12,0,91330,0:0:0:0:
