osu file format v14

[General]
AudioFilename: audio.mp3
AudioLeadIn: 0
PreviewTime: 59857
Countdown: 0
SampleSet: Normal
StackLeniency: 0.7
Mode: 1
LetterboxInBreaks: 0
WidescreenStoryboard: 1

[Editor]
DistanceSpacing: 0.9
BeatDivisor: 2
GridSize: 32
TimelineZoom: 1.6

[Metadata]
Title:YO-KAI Disco
TitleUnicode:YO-KAI Disco
Artist:Yasui Yousuke
ArtistUnicode:安井洋介
Creator:-Aku
Version:Futsuu!
Source:まもるクンは呪われてしまった!
Tags:yokai bad_mapper Hivie electronic video game mamorukun curse! ost original instrumental soundtrack youkai tea break
BeatmapID:2630269
BeatmapSetID:1265617

[Difficulty]
HPDrainRate:7
CircleSize:2
OverallDifficulty:3.5
ApproachRate:7
SliderMultiplier:1.4
SliderTickRate:1

[Events]
//Background and Video events
0,0,"BG.jpg",0,-15
//Break Periods
//Storyboard Layer 0 (Background)
//Storyboard Layer 1 (Fail)
//Storyboard Layer 2 (Pass)
//Storyboard Layer 3 (Foreground)
//Storyboard Layer 4 (Overlay)
//Storyboard Sound Samples

[TimingPoints]
200,413.793103448276,4,1,0,60,1,0
3485,392.156862745098,4,1,0,60,1,0
59955,-100,4,1,0,70,0,1
85053,-100,4,1,0,70,0,0
85249,-100,4,1,0,40,0,0
85837,-100,4,1,0,35,0,0
86622,-100,4,1,0,30,0,0
87406,-100,4,1,0,25,0,0
88190,-100,4,1,0,20,0,0
88975,-100,4,1,0,15,0,0
89759,-100,4,1,0,10,0,0
90543,-100,4,1,0,5,0,0

[HitObjects]
256,192,200,5,12,0:0:0:0:
256,192,1027,1,12,0:0:0:0:
256,192,1855,1,12,0:0:0:0:
256,192,2889,1,0,0:0:0:0:
256,192,3096,1,8,0:0:0:0:
256,192,3485,1,12,0:0:0:0:
256,192,3877,1,8,0:0:0:0:
256,192,4465,1,0,0:0:0:0:
256,192,4857,1,8,0:0:0:0:
256,192,5249,1,0,0:0:0:0:
256,192,5445,1,0,0:0:0:0:
256,192,5837,1,8,0:0:0:0:
256,192,6230,1,0,0:0:0:0:
256,192,6622,1,8,0:0:0:0:
256,192,7014,1,8,0:0:0:0:
256,192,7602,1,0,0:0:0:0:
256,192,7994,1,8,0:0:0:0:
256,192,8386,1,0,0:0:0:0:
256,192,8583,1,0,0:0:0:0:
256,192,8975,1,8,0:0:0:0:
256,192,9367,1,8,0:0:0:0:
256,192,9759,1,4,0:0:0:0:
256,192,10347,1,8,0:0:0:0:
256,192,10543,1,8,0:0:0:0:
256,192,10935,1,8,0:0:0:0:
256,192,11328,1,0,0:0:0:0:
256,192,12700,1,8,0:0:0:0:
256,192,12896,1,8,0:0:0:0:
256,192,13485,1,0,0:0:0:0:
256,192,13681,1,8,0:0:0:0:
256,192,13877,1,0,0:0:0:0:
256,192,14073,1,8,0:0:0:0:
256,192,14465,1,0,0:0:0:0:
256,192,15837,1,0,0:0:0:0:
256,192,16034,1,12,0:0:0:0:
256,192,16622,1,8,0:0:0:0:
256,192,16818,1,8,0:0:0:0:
256,192,17014,1,0,0:0:0:0:
256,192,17210,1,0,0:0:0:0:
256,192,17602,1,8,0:0:0:0:
256,192,17994,1,0,0:0:0:0:
256,192,18190,1,8,0:0:0:0:
256,192,18386,1,8,0:0:0:0:
256,192,18975,1,0,0:0:0:0:
256,192,19171,1,12,0:0:0:0:
256,192,19563,1,8,0:0:0:0:
256,192,19955,1,4,0:0:0:0:
256,192,20347,1,8,0:0:0:0:
256,192,20543,1,4,0:0:0:0:
256,192,21132,1,8,0:0:0:0:
256,192,21328,1,0,0:0:0:0:
256,192,21524,1,8,0:0:0:0:
256,192,21916,1,8,0:0:0:0:
256,192,22308,1,4,0:0:0:0:
256,192,22896,1,0,0:0:0:0:
256,192,23092,1,8,0:0:0:0:
256,192,23288,1,8,0:0:0:0:
256,192,23485,1,0,0:0:0:0:
256,192,23877,1,0,0:0:0:0:
256,192,25249,1,0,0:0:0:0:
256,192,25445,1,8,0:0:0:0:
256,192,26034,1,0,0:0:0:0:
256,192,26230,1,8,0:0:0:0:
256,192,26426,1,0,0:0:0:0:
256,192,26622,1,8,0:0:0:0:
256,192,27014,1,0,0:0:0:0:
256,192,28386,1,0,0:0:0:0:
256,192,28583,1,12,0:0:0:0:
256,192,29171,1,8,0:0:0:0:
256,192,29367,1,8,0:0:0:0:
256,192,29563,1,0,0:0:0:0:
256,192,29759,1,8,0:0:0:0:
256,192,30151,1,4,0:0:0:0:
256,192,30543,1,8,0:0:0:0:
256,192,30935,1,4,0:0:0:0:
256,192,31524,1,0,0:0:0:0:
256,192,31720,1,12,0:0:0:0:
256,192,32112,1,0,0:0:0:0:
256,192,32308,1,8,0:0:0:0:
256,192,32504,1,12,0:0:0:0:
256,192,33092,1,4,0:0:0:0:
256,192,33681,1,8,0:0:0:0:
256,192,34073,1,12,0:0:0:0:
256,192,34465,1,0,0:0:0:0:
256,192,34857,1,12,0:0:0:0:
256,192,35445,1,0,0:0:0:0:
256,192,35641,1,8,0:0:0:0:
256,192,36230,1,8,0:0:0:0:
256,192,36426,1,0,0:0:0:0:
256,192,36622,1,8,0:0:0:0:
256,192,36818,1,0,0:0:0:0:
256,192,37602,1,8,0:0:0:0:
256,192,37994,1,0,0:0:0:0:
256,192,38583,1,0,0:0:0:0:
256,192,38779,1,8,0:0:0:0:
256,192,39171,1,0,0:0:0:0:
256,192,39563,1,8,0:0:0:0:
256,192,39955,1,0,0:0:0:0:
256,192,40347,1,8,0:0:0:0:
256,192,40543,1,0,0:0:0:0:
256,192,40739,1,0,0:0:0:0:
256,192,41132,1,12,0:0:0:0:
256,192,41720,1,0,0:0:0:0:
256,192,41916,1,8,0:0:0:0:
256,192,42504,1,8,0:0:0:0:
256,192,42700,1,0,0:0:0:0:
256,192,42896,1,8,0:0:0:0:
256,192,43092,1,0,0:0:0:0:
256,192,43877,1,8,0:0:0:0:
256,192,44073,1,0,0:0:0:0:
256,192,44269,1,8,0:0:0:0:
256,192,44661,1,0,0:0:0:0:
256,192,45053,1,8,0:0:0:0:
256,192,45445,1,8,0:0:0:0:
256,192,45837,1,8,0:0:0:0:
256,192,46622,1,0,0:0:0:0:
256,192,46818,1,0,0:0:0:0:
256,192,47014,1,8,0:0:0:0:
256,192,47406,1,12,0:0:0:0:
256,192,47994,1,0,0:0:0:0:
256,192,48190,1,8,0:0:0:0:
256,192,48779,1,8,0:0:0:0:
256,192,48975,1,0,0:0:0:0:
256,192,49171,1,0,0:0:0:0:
256,192,49367,1,0,0:0:0:0:
256,192,50151,1,8,0:0:0:0:
256,192,50347,1,0,0:0:0:0:
256,192,50543,1,8,0:0:0:0:
256,192,51132,1,0,0:0:0:0:
256,192,51328,1,8,0:0:0:0:
256,192,51622,1,0,0:0:0:0:
256,192,51916,1,0,0:0:0:0:
256,192,52112,1,12,0:0:0:0:
256,192,52504,1,8,0:0:0:0:
256,192,52896,1,8,0:0:0:0:
256,192,53092,1,8,0:0:0:0:
256,192,53288,1,0,0:0:0:0:
256,192,53681,1,12,0:0:0:0:
256,192,54073,1,8,0:0:0:0:
256,192,54269,1,0,0:0:0:0:
256,192,54661,1,8,0:0:0:0:
256,192,55249,1,0,0:0:0:0:
256,192,55445,1,0,0:0:0:0:
256,192,55641,1,8,0:0:0:0:
256,192,55837,1,0,0:0:0:0:
256,192,56426,1,0,0:0:0:0:
256,192,56622,1,8,0:0:0:0:
256,192,56818,1,12,0:0:0:0:
256,192,57406,1,0,0:0:0:0:
256,192,57602,1,12,0:0:0:0:
256,192,57896,1,0,0:0:0:0:
256,192,58190,1,8,0:0:0:0:
256,192,58386,1,4,0:0:0:0:
256,192,58779,1,8,0:0:0:0:
256,192,59171,1,8,0:0:0:0:
256,192,59367,1,0,0:0:0:0:
256,192,59563,1,8,0:0:0:0:
256,192,59955,1,12,0:0:0:0:
256,192,60347,1,0,0:0:0:0:
256,192,60543,1,8,0:0:0:0:
256,192,60739,1,8,0:0:0:0:
256,192,61132,1,8,0:0:0:0:
256,192,61328,1,0,0:0:0:0:
256,192,61524,1,0,0:0:0:0:
256,192,61916,1,8,0:0:0:0:
256,192,62308,1,8,0:0:0:0:
256,192,63092,1,0,0:0:0:0:
256,192,63484,1,8,0:0:0:0:
256,192,63681,1,8,0:0:0:0:
256,192,63877,1,0,0:0:0:0:
256,192,64269,1,0,0:0:0:0:
256,192,64465,1,8,0:0:0:0:
256,192,64661,1,8,0:0:0:0:
256,192,65053,1,0,0:0:0:0:
256,192,65445,1,8,0:0:0:0:
256,192,66230,1,12,0:0:0:0:
256,192,66622,1,0,0:0:0:0:
256,192,66818,1,8,0:0:0:0:
256,192,67014,1,8,0:0:0:0:
256,192,67406,1,8,0:0:0:0:
256,192,67602,1,0,0:0:0:0:
256,192,67798,1,0,0:0:0:0:
256,192,68190,1,8,0:0:0:0:
256,192,68583,1,8,0:0:0:0:
256,192,69367,1,12,0:0:0:0:
256,192,69759,1,0,0:0:0:0:
256,192,69955,1,8,0:0:0:0:
256,192,70151,1,8,0:0:0:0:
256,192,70347,1,0,0:0:0:0:
256,192,70543,1,8,0:0:0:0:
256,192,70935,1,4,0:0:0:0:
256,192,71328,1,12,0:0:0:0:
256,192,71720,1,4,0:0:0:0:
256,192,72504,1,12,0:0:0:0:
256,192,72896,1,0,0:0:0:0:
256,192,73092,1,8,0:0:0:0:
256,192,73288,1,8,0:0:0:0:
256,192,73681,1,8,0:0:0:0:
256,192,73877,1,0,0:0:0:0:
256,192,74073,1,0,0:0:0:0:
256,192,74465,1,8,0:0:0:0:
256,192,74857,1,8,0:0:0:0:
256,192,75641,1,8,0:0:0:0:
256,192,76034,1,8,0:0:0:0:
256,192,76230,1,8,0:0:0:0:
256,192,76426,1,0,0:0:0:0:
256,192,76818,1,0,0:0:0:0:
256,192,77014,1,8,0:0:0:0:
256,192,77210,1,8,0:0:0:0:
256,192,77602,1,0,0:0:0:0:
256,192,77994,1,8,0:0:0:0:
256,192,78779,1,12,0:0:0:0:
256,192,79171,1,0,0:0:0:0:
256,192,79367,1,8,0:0:0:0:
256,192,79563,1,8,0:0:0:0:
256,192,79955,1,8,0:0:0:0:
256,192,80151,1,0,0:0:0:0:
256,192,80347,1,0,0:0:0:0:
256,192,80739,1,8,0:0:0:0:
256,192,81132,1,8,0:0:0:0:
256,192,81916,1,12,0:0:0:0:
256,192,82308,1,8,0:0:0:0:
256,192,82504,1,0,0:0:0:0:
256,192,82700,1,12,0:0:0:0:
256,192,83092,1,0,0:0:0:0:
256,192,83288,1,8,0:0:0:0:
256,192,83485,1,4,0:0:0:0:
256,192,84269,1,8,0:0:0:0:
256,192,84465,1,8,0:0:0:0:
256,192,84661,1,0,0:0:0:0:
256,192,84857,1,0,0:0:0:0:
256,192,85053,1,12,0:0:0:0:
256,192,85249,12,0,91328,0:0:0:0:
