osu file format v14

[General]
AudioFilename: 2-19 Scarlet Warrioress.mp3
AudioLeadIn: 0
PreviewTime: 68539
Countdown: 1
SampleSet: Normal
StackLeniency: 0.4
Mode: 0
LetterboxInBreaks: 1
WidescreenStoryboard: 1

[Editor]
Bookmarks: 44339
DistanceSpacing: 1.1
BeatDivisor: 2
GridSize: 32
TimelineZoom: 2.1

[Metadata]
Title:Scarlet Warrioress
TitleUnicode:Scarlet Warrioress
Artist:Yasuharu Takanashi
ArtistUnicode:Yasuharu Takanashi
Creator:MrCrowley
Version:EXTRA
Source:
Tags:
BeatmapID:2043293
BeatmapSetID:976337

[Difficulty]
HPDrainRate:5
CircleSize:4
OverallDifficulty:9
ApproachRate:9.3
SliderMultiplier:1.4
SliderTickRate:1

[Events]
//Background and Video events
0,0,"856722-anime-erza-knightwalker-fairy-tail-manga-scarlet-erza.jpg",0,0
//Break Periods
//Storyboard Layer 0 (Background)
//Storyboard Layer 1 (Fail)
//Storyboard Layer 2 (Pass)
//Storyboard Layer 3 (Foreground)
//Storyboard Layer 4 (Overlay)
//Storyboard Sound Samples

[TimingPoints]
239,200,4,1,0,70,1,0
439,-100,4,1,0,70,0,1
1839,-111.111111111111,4,1,0,70,0,1
2239,-100,4,1,0,70,0,1
10039,-111.111111111111,4,1,0,70,0,1
11639,-142.857142857143,4,1,0,70,0,1
13439,-100,4,1,0,70,0,1
27639,-100,4,1,0,70,0,0
54839,-100,4,1,0,70,0,1
67639,-100,4,1,0,70,0,0
91639,-100,4,1,0,70,0,1
94239,-100,4,1,0,70,0,0
117239,-100,4,1,0,70,0,1
124439,-100,4,1,0,70,0,0

[Colours]
Combo1 : 217,176,38
Combo2 : 164,11,26

[HitObjects]
176,304,439,5,0,0:0:0:0:
256,304,539,1,0,0:0:0:0:
336,304,639,1,0,0:0:0:0:
256,304,739,1,0,0:0:0:0:
176,304,839,2,0,B|168:250|168:250|59:250|61:111|132:101,1,280
298,240,1439,5,0,0:0:0:0:
176,32,1639,1,0,0:0:0:0:
162,171,1839,2,0,B|354:168|354:168|410:129,1,251.999992309571
247,91,2439,1,0,0:0:0:0:
425,221,2639,2,0,B|481:267|481:267|562:166|513:31|428:50,1,280,0|0,2:0|2:0,2:0:0:0:
432,39,3139,1,0,0:0:0:0:
432,39,3239,1,0,0:0:0:0:
215,112,3639,5,0,0:0:0:0:
215,32,3739,1,0,0:0:0:0:
295,32,3839,1,0,0:0:0:0:
295,112,3939,1,0,0:0:0:0:
96,32,4039,2,0,B|96:125|96:125|22:151|95:186|95:186|95:285,1,280
432,39,4639,1,0,0:0:0:0:
432,272,4839,1,0,0:0:0:0:
432,39,5039,1,0,0:0:0:0:
96,32,5439,5,0,0:0:0:0:
95,272,5639,1,0,0:0:0:0:
416,32,5839,2,0,B|416:125|416:125|490:151|417:186|417:186|417:272,1,280
417,272,6339,1,0,0:0:0:0:
351,276,6439,1,0,0:0:0:0:
285,276,6539,1,0,0:0:0:0:
219,276,6639,1,0,0:0:0:0:
153,276,6739,1,0,0:0:0:0:
86,276,6839,1,0,0:0:0:0:
93,73,7039,5,0,0:0:0:0:
148,128,7139,1,0,0:0:0:0:
199,190,7239,1,0,0:0:0:0:
256,64,7439,5,0,0:0:0:0:
419,73,7639,5,0,0:0:0:0:
360,126,7739,1,0,0:0:0:0:
318,191,7839,1,0,0:0:0:0:
93,311,8039,5,0,0:0:0:0:
150,254,8139,1,0,0:0:0:0:
199,190,8239,1,0,0:0:0:0:
256,320,8439,5,0,0:0:0:0:
416,304,8639,5,0,0:0:0:0:
364,256,8739,1,0,0:0:0:0:
318,191,8839,1,0,0:0:0:0:
256,320,9039,5,0,0:0:0:0:
256,141,9239,5,0,0:0:0:0:
199,190,9339,1,0,0:0:0:0:
152,128,9439,1,0,0:0:0:0:
210,76,9539,1,0,0:0:0:0:
291,74,9639,1,0,0:0:0:0:
360,128,9739,1,0,0:0:0:0:
318,191,9839,1,0,0:0:0:0:
256,141,9939,1,0,0:0:0:0:
389,250,10039,2,0,B|448:404|512:372|416:244|288:340|256:244|256:244|224:340|96:244|32:372|128:404|160:212,1,629.999980773926
139,55,11239,5,0,0:0:0:0:
256,247,11439,1,0,0:0:0:0:
318,191,11639,2,0,P|253:68|194:194,1,342.999989532471
185,201,12439,2,0,P|256:58|323:204,1,391.99998803711
55,183,13439,5,0,0:0:0:0:
84,112,13539,1,0,0:0:0:0:
113,42,13639,1,0,0:0:0:0:
254,149,13839,5,0,0:0:0:0:
399,42,14039,5,0,0:0:0:0:
428,112,14139,1,0,0:0:0:0:
457,183,14239,1,0,0:0:0:0:
136,229,14439,5,0,0:0:0:0:
168,298,14539,1,0,0:0:0:0:
124,361,14639,1,0,0:0:0:0:
124,361,14839,5,0,0:0:0:0:
388,361,15039,5,0,0:0:0:0:
344,298,15139,1,0,0:0:0:0:
376,229,15239,1,0,0:0:0:0:
376,229,15439,5,0,0:0:0:0:
192,48,15639,5,0,0:0:0:0:
128,96,15739,1,0,0:0:0:0:
192,144,15839,1,0,0:0:0:0:
128,192,15939,1,0,0:0:0:0:
192,240,16039,1,0,0:0:0:0:
128,288,16139,1,0,0:0:0:0:
192,336,16239,1,0,0:0:0:0:
262,336,16339,1,0,0:0:0:0:
332,336,16439,2,0,B|486:315|468:194|408:152|330:154|330:154|289:149|285:151|387:22|520:102,1,560
221,255,17439,2,0,P|186:255|154:244,2,70
362,243,17839,1,0,0:0:0:0:
18,88,18039,6,0,B|125:22|227:151|222:149|182:154|182:154|104:152|44:194|26:315|180:336,1,560
294,254,19039,2,0,P|329:254|362:243,2,70
156,240,19439,1,0,0:0:0:0:
354,90,19639,5,0,0:0:0:0:
144,90,19839,1,0,0:0:0:0:
144,160,19939,1,0,0:0:0:0:
144,230,20039,1,0,0:0:0:0:
249,90,20239,5,0,0:0:0:0:
39,90,20439,1,0,0:0:0:0:
39,160,20539,1,0,0:0:0:0:
39,230,20639,1,0,0:0:0:0:
224,329,20839,5,0,0:0:0:0:
224,259,20939,1,0,0:0:0:0:
224,189,21039,1,0,0:0:0:0:
434,189,21239,1,0,0:0:0:0:
282,45,21439,5,0,0:0:0:0:
352,45,21539,1,0,0:0:0:0:
422,45,21639,1,0,0:0:0:0:
422,255,21839,1,0,0:0:0:0:
170,353,22039,5,0,0:0:0:0:
209,283,22139,1,0,0:0:0:0:
171,215,22239,1,0,0:0:0:0:
356,353,22439,5,0,0:0:0:0:
323,280,22539,1,0,0:0:0:0:
354,206,22639,1,0,0:0:0:0:
255,77,22839,6,0,L|117:95,1,140
256,77,23139,2,0,L|395:95,1,140
255,217,23438,2,0,L|255:77,1,140
443,0,23839,5,0,0:0:0:0:
394,94,23939,1,0,0:0:0:0:
69,0,24139,5,0,0:0:0:0:
118,94,24239,1,0,0:0:0:0:
395,289,24439,6,0,L|257:307,1,140
117,289,24739,2,0,L|256:307,1,140
257,167,25038,2,0,L|257:307,1,140
69,384,25439,5,0,0:0:0:0:
118,290,25539,1,0,0:0:0:0:
443,384,25739,5,0,0:0:0:0:
394,290,25839,1,0,0:0:0:0:
183,154,26039,6,0,B|152:164|152:164|141:176|141:176|132:164|132:164|92:129|64:134,1,140
328,154,26339,2,0,B|360:164|360:164|371:176|371:176|379:164|379:164|420:129|447:134,1,140
289,83,26638,2,0,P|251:139|289:223,1,140
352,320,27039,5,0,0:0:0:0:
448,256,27139,1,0,0:0:0:0:
160,320,27339,5,0,0:0:0:0:
64,256,27439,1,0,0:0:0:0:
109,85,27639,2,0,P|256:247|409:90,1,490
179,89,28439,6,0,L|110:85,1,70
339,94,28639,2,0,L|409:89,1,70
95,13,28839,2,0,L|26:18,1,70
417,13,29039,2,0,L|486:18,1,70
257,210,29239,2,0,L|117:217,1,140
257,210,29539,2,0,L|396:217,1,140
257,65,29839,2,0,L|257:227,1,140
207,324,30239,5,0,0:0:0:0:
412,238,30339,1,0,0:0:0:0:
305,324,30539,5,0,0:0:0:0:
100,238,30639,1,0,0:0:0:0:
341,160,30839,6,0,B|365:137|365:137|381:133|381:133|375:120|375:120|365:105|365:67|365:67|383:46,1,140
171,160,31139,2,0,B|147:137|147:137|131:133|131:133|137:120|137:120|147:105|147:67|147:67|129:46,1,140
448,90,31439,2,0,P|458:157|410:205,1,140
102,205,31839,1,0,0:0:0:0:
61,88,31939,1,0,0:0:0:0:
410,205,32139,5,0,0:0:0:0:
451,88,32239,1,0,0:0:0:0:
178,115,32439,6,0,B|213:116|213:116|255:90|293:115|293:115|348:116,1,140,0|0,2:0|2:0,2:0:0:0:
309,273,32739,2,0,B|290:274|290:274|252:299|210:272|210:272|175:274,1,140,0|0,2:0|2:0,2:0:0:0:
191,196,33039,2,0,B|246:197|246:197|251:207|251:207|252:184|252:184|259:197|259:197|327:198,1,140
444,203,33439,5,0,0:0:0:0:
444,203,33539,1,0,0:0:0:0:
68,203,33739,5,0,0:0:0:0:
68,203,33839,1,0,0:0:0:0:
384,154,34039,2,0,B|288:218|256:-6|256:-6|224:218|96:154,1,490
133,88,34839,6,0,L|64:82,1,70
372,83,35039,2,0,L|442:78,1,70
153,238,35239,2,0,P|111:256|76:251,1,70
359,238,35439,2,0,P|401:256|436:251,1,70
257,183,35639,2,0,L|257:253,1,70
188,309,35839,5,0,0:0:0:0:
153,238,35939,1,0,0:0:0:0:
181,162,36039,1,0,0:0:0:0:
359,238,36239,5,0,0:0:0:0:
102,180,36439,5,0,0:0:0:0:
70,252,36539,1,0,0:0:0:0:
112,318,36639,1,0,0:0:0:0:
410,180,36839,5,0,0:0:0:0:
442,252,36939,1,0,0:0:0:0:
400,318,37039,1,0,0:0:0:0:
153,238,37239,5,0,0:0:0:0:
388,57,37439,5,0,0:0:0:0:
448,111,37539,1,0,0:0:0:0:
410,180,37639,1,0,0:0:0:0:
410,180,37839,5,0,0:0:0:0:
334,180,38039,5,0,0:0:0:0:
267,241,38139,1,0,0:0:0:0:
353,260,38239,1,0,0:0:0:0:
421,217,38339,1,0,0:0:0:0:
417,147,38439,1,0,0:0:0:0:
379,84,38539,1,0,0:0:0:0:
310,63,38639,1,0,0:0:0:0:
233,50,38739,1,0,0:0:0:0:
166,88,38839,1,0,0:0:0:0:
166,88,39039,5,0,0:0:0:0:
133,152,39139,1,0,0:0:0:0:
142,228,39239,1,0,0:0:0:0:
271,177,39439,5,0,0:0:0:0:
69,228,39639,5,0,0:0:0:0:
142,228,39739,1,0,0:0:0:0:
218,229,39839,1,0,0:0:0:0:
470,127,40039,5,0,0:0:0:0:
415,182,40139,1,0,0:0:0:0:
351,226,40239,1,0,0:0:0:0:
254,328,40439,1,0,0:0:0:0:
65,93,40639,5,0,0:0:0:0:
118,152,40739,1,0,0:0:0:0:
160,216,40839,1,0,0:0:0:0:
254,328,41039,1,0,0:0:0:0:
264,332,41239,5,0,0:0:0:0:
192,320,41339,1,0,0:0:0:0:
123,286,41439,1,0,0:0:0:0:
91,217,41539,1,0,0:0:0:0:
95,147,41639,1,0,0:0:0:0:
133,84,41739,1,0,0:0:0:0:
202,63,41839,1,0,0:0:0:0:
279,50,41939,1,0,0:0:0:0:
212,211,42039,6,0,B|190:222|165:182|165:182|91:217,1,140
299,211,42339,2,0,B|322:222|347:182|347:182|421:217,1,140
257,142,42639,2,0,L|256:281,1,140
258,384,43039,1,0,0:0:0:0:
257,142,43139,1,0,0:0:0:0:
89,233,43339,5,0,0:0:0:0:
423,233,43439,1,0,0:0:0:0:
150,298,43639,6,0,P|175:235|144:176,1,140
99,111,43939,2,0,P|65:171|90:234,1,140
413,111,44239,2,0,P|446:169|422:233,1,140
142,175,44639,1,0,0:0:0:0:
370,175,44739,1,0,0:0:0:0:
370,175,44939,1,0,0:0:0:0:
142,175,45039,1,0,0:0:0:0:
160,250,47639,6,0,L|91:246,1,70
351,133,47839,6,0,L|421:138,1,70
160,133,48039,6,0,L|91:138,1,70
351,250,48240,6,0,L|421:246,1,70
111,215,48439,2,0,L|266:207,1,140
401,215,48739,2,0,L|246:207,1,140
102,204,49039,2,0,L|259:201,1,140
76,84,54039,5,0,0:0:0:0:
217,357,54239,1,0,0:0:0:0:
512,316,54439,1,0,0:0:0:0:
512,36,54639,1,0,0:0:0:0:
97,271,54839,5,8,0:0:0:0:
160,224,54939,1,8,0:0:0:0:
224,192,55039,1,8,0:0:0:0:
288,160,55139,1,8,0:0:0:0:
352,128,55239,1,8,0:0:0:0:
352,320,55439,1,0,0:0:0:0:
96,320,55639,5,8,0:0:0:0:
96,256,55739,1,8,0:0:0:0:
96,192,55839,1,8,0:0:0:0:
96,128,55939,1,8,0:0:0:0:
96,64,56039,1,8,0:0:0:0:
261,341,56239,1,0,0:0:0:0:
416,192,56439,5,8,0:0:0:0:
352,192,56539,1,8,0:0:0:0:
288,192,56639,1,8,0:0:0:0:
224,192,56739,1,8,0:0:0:0:
160,192,56839,1,8,0:0:0:0:
374,325,57039,5,8,0:0:0:0:
323,42,57239,1,0,0:0:0:0:
206,339,57439,1,0,0:0:0:0:
135,49,57639,1,0,0:0:0:0:
160,216,58039,5,8,0:0:0:0:
352,192,58139,1,8,0:0:0:0:
416,192,58239,1,8,0:0:0:0:
416,256,58339,1,8,0:0:0:0:
352,256,58439,1,8,0:0:0:0:
151,296,58639,5,0,0:0:0:0:
160,96,58839,1,0,0:0:0:0:
224,96,58939,1,0,0:0:0:0:
288,96,59039,1,0,0:0:0:0:
352,96,59139,1,0,0:0:0:0:
352,160,59239,1,0,0:0:0:0:
146,286,59439,5,0,0:0:0:0:
405,287,59639,1,0,0:0:0:0:
246,223,59839,5,0,0:0:0:0:
476,212,60039,1,0,0:0:0:0:
446,335,60439,5,0,0:0:0:0:
250,188,60639,1,0,0:0:0:0:
74,55,60839,1,0,0:0:0:0:
97,113,61239,5,0,0:0:0:0:
160,160,61339,1,0,0:0:0:0:
224,192,61439,1,0,0:0:0:0:
288,224,61539,1,0,0:0:0:0:
352,256,61639,1,0,0:0:0:0:
352,64,61839,1,0,0:0:0:0:
384,352,62039,5,0,0:3:0:0:
320,352,62139,1,0,0:3:0:0:
256,352,62239,1,0,0:3:0:0:
192,352,62339,1,0,0:3:0:0:
128,352,62439,1,0,0:3:0:0:
160,64,62639,1,0,0:0:0:0:
416,64,62839,5,0,0:0:0:0:
416,128,62939,1,0,0:0:0:0:
416,192,63039,1,0,0:0:0:0:
416,256,63139,1,0,0:0:0:0:
416,320,63239,1,0,0:0:0:0:
69,88,63439,5,0,0:0:0:0:
70,282,63639,1,0,0:0:0:0:
274,348,63839,1,0,0:0:0:0:
274,84,64039,1,0,0:0:0:0:
169,319,64439,5,0,0:0:0:0:
169,255,64539,1,0,0:0:0:0:
169,191,64639,1,0,0:0:0:0:
169,127,64739,1,0,0:0:0:0:
169,63,64839,1,0,0:0:0:0:
425,319,65039,1,0,0:0:0:0:
52,327,65239,5,0,0:0:0:0:
52,263,65339,1,0,0:0:0:0:
52,199,65439,1,0,0:0:0:0:
52,135,65539,1,0,0:0:0:0:
52,71,65639,1,0,0:0:0:0:
411,74,65839,1,0,0:0:0:0:
52,71,66039,1,4,0:0:0:0:
480,192,66239,5,4,0:0:0:0:
0,192,66439,1,4,0:0:0:0:
480,192,66839,1,4,0:0:0:0:
256,192,67039,1,4,0:0:0:0:
0,192,67239,1,4,0:0:0:0:
258,313,67639,1,0,0:0:0:0:
261,232,67739,1,0,0:0:0:0:
259,164,67839,1,0,0:0:0:0:
262,92,67939,1,0,0:0:0:0:
233,14,68039,2,0,L|549:6,1,280
79,220,68539,2,0,L|146:269,1,70
433,220,68739,2,0,L|366:269,1,70
433,164,68939,2,0,L|366:115,1,70
68,265,69239,2,0,L|237:265,1,140
128,160,69639,5,0,0:0:0:0:
348,156,69739,1,0,0:0:0:0:
128,160,69839,1,0,0:0:0:0:
80,192,72239,5,0,0:0:0:0:
160,250,74839,6,0,L|91:246,1,70
351,133,75039,6,0,L|421:138,1,70
160,133,75239,6,0,L|91:138,1,70
351,250,75440,6,0,L|421:246,1,70
93,73,79039,5,0,0:0:0:0:
148,128,79139,1,0,0:0:0:0:
199,190,79239,1,0,0:0:0:0:
419,73,79639,5,0,0:0:0:0:
360,126,79739,1,0,0:0:0:0:
318,191,79839,1,0,0:0:0:0:
93,311,80039,5,0,0:0:0:0:
148,256,80139,1,0,0:0:0:0:
192,192,80239,1,0,0:0:0:0:
419,73,80639,5,0,0:0:0:0:
366,132,80739,1,0,0:0:0:0:
324,196,80839,1,0,0:0:0:0:
160,250,81239,6,0,L|91:246,1,70
351,133,81439,6,0,L|421:138,1,70
160,133,81639,6,0,L|91:138,1,70
351,250,81840,6,0,L|421:246,1,70
171,66,82039,2,0,P|75:226|134:275,1,280
192,202,86639,1,0,0:0:0:0:
145,200,86739,1,0,0:0:0:0:
90,207,86839,1,0,0:0:0:0:
314,288,87639,6,0,L|310:357,1,70
197,97,87839,6,0,L|202:27,1,70
197,288,88039,6,0,L|202:357,1,70
314,97,88240,6,0,L|310:27,1,70
256,192,91639,12,0,94239,0:0:0:0:
151,231,94339,5,0,0:0:0:0:
152,238,94439,1,0,0:0:0:0:
117,309,94839,5,0,0:0:0:0:
194,309,94939,1,0,0:0:0:0:
271,309,95039,1,0,0:0:0:0:
194,309,95139,1,0,0:0:0:0:
117,309,95239,2,0,B|105:231|105:231|6:241|-31:154|20:94,1,280
155,37,95839,1,0,0:0:0:0:
214,253,96039,1,0,0:0:0:0:
80,150,96239,2,0,L|399:151,1,280
512,109,96839,1,0,0:0:0:0:
359,233,97039,2,0,L|80:234,1,280
291,73,97539,1,0,0:0:0:0:
291,73,97639,1,0,0:0:0:0:
60,165,98039,1,0,0:0:0:0:
60,165,98139,1,0,0:0:0:0:
60,165,98239,1,0,0:0:0:0:
60,165,98339,1,0,0:0:0:0:
70,62,98439,2,0,L|392:71,1,280
463,125,99039,1,0,0:0:0:0:
323,157,99239,1,0,0:0:0:0:
115,204,99439,1,0,0:0:0:0:
137,205,99839,1,0,0:0:0:0:
400,88,100039,5,0,0:0:0:0:
251,219,100239,1,0,0:0:0:0:
278,183,100439,1,0,0:0:0:0:
280,206,100539,1,0,0:0:0:0:
280,237,100639,1,0,0:0:0:0:
282,260,100739,1,0,0:0:0:0:
284,285,100839,1,0,0:0:0:0:
286,308,100939,1,0,0:0:0:0:
286,339,101039,1,0,0:0:0:0:
288,362,101139,1,0,0:0:0:0:
93,73,101439,5,0,0:0:0:0:
148,128,101539,1,0,0:0:0:0:
199,190,101639,1,0,0:0:0:0:
419,73,102039,5,0,0:0:0:0:
360,126,102139,1,0,0:0:0:0:
318,191,102239,1,0,0:0:0:0:
93,311,102439,5,0,0:0:0:0:
148,256,102539,1,0,0:0:0:0:
192,192,102639,1,0,0:0:0:0:
419,73,103039,5,0,0:0:0:0:
366,132,103139,1,0,0:0:0:0:
324,196,103239,1,0,0:0:0:0:
248,332,103639,5,0,0:0:0:0:
320,320,103739,1,0,0:0:0:0:
389,286,103839,1,0,0:0:0:0:
421,217,103939,1,0,0:0:0:0:
417,147,104039,1,0,0:0:0:0:
379,84,104139,1,0,0:0:0:0:
310,63,104239,1,0,0:0:0:0:
233,50,104339,1,0,0:0:0:0:
171,66,104439,2,0,P|75:226|356:296,1,560
93,73,107839,5,0,0:0:0:0:
148,128,107939,1,0,0:0:0:0:
199,190,108039,1,0,0:0:0:0:
419,73,108439,5,0,0:0:0:0:
360,126,108539,1,0,0:0:0:0:
318,191,108639,1,0,0:0:0:0:
93,311,108839,5,0,0:0:0:0:
148,256,108939,1,0,0:0:0:0:
192,192,109039,1,0,0:0:0:0:
419,73,109439,5,0,0:0:0:0:
366,132,109539,1,0,0:0:0:0:
324,196,109639,1,0,0:0:0:0:
248,332,110039,5,0,0:0:0:0:
320,320,110139,1,0,0:0:0:0:
389,286,110239,1,0,0:0:0:0:
421,217,110339,1,0,0:0:0:0:
417,147,110439,1,0,0:0:0:0:
379,84,110539,1,0,0:0:0:0:
310,63,110639,1,0,0:0:0:0:
233,50,110739,1,0,0:0:0:0:
171,66,110839,2,0,P|75:226|356:296,1,560
354,86,114039,5,0,0:0:0:0:
141,90,114239,1,0,0:0:0:0:
144,163,114339,1,0,0:0:0:0:
140,232,114439,1,0,0:0:0:0:
239,100,114639,5,0,0:0:0:0:
29,90,114839,1,0,0:0:0:0:
32,163,114939,1,0,0:0:0:0:
34,234,115039,1,0,0:0:0:0:
170,353,115239,5,0,0:0:0:0:
168,270,115339,1,0,0:0:0:0:
167,195,115439,1,0,0:0:0:0:
361,193,115639,1,0,0:0:0:0:
324,57,115839,5,0,0:0:0:0:
403,59,115939,1,0,0:0:0:0:
486,60,116039,1,0,0:0:0:0:
480,302,116239,1,0,0:0:0:0:
170,353,116439,5,0,0:0:0:0:
209,283,116539,1,0,0:0:0:0:
171,215,116639,1,0,0:0:0:0:
356,353,116839,5,0,0:0:0:0:
323,280,116939,1,0,0:0:0:0:
354,206,117039,1,0,0:0:0:0:
256,192,117239,12,0,124439,0:0:0:0:
