osu file format v14

[General]
AudioFilename: Metallicana.mp3
AudioLeadIn: 0
PreviewTime: 60506
Countdown: 1
SampleSet: None
StackLeniency: 0.7
Mode: 0
LetterboxInBreaks: 0
WidescreenStoryboard: 1

[Editor]
Bookmarks: 2624,19565,25212,30859,36506,60506,83094,88741,100035,111329
DistanceSpacing: 1.6
BeatDivisor: 4
GridSize: 4
TimelineZoom: 1.7

[Metadata]
Title:Haja no Senpuu
TitleUnicode:Haja no Senpuu
Artist:Yasuharu Takanashi
ArtistUnicode:Yasuharu Takanashi
Creator:Keada
Version:Metallicana
Source:Fairy Tail.
Tags:
BeatmapID:1824875
BeatmapSetID:873002

[Difficulty]
HPDrainRate:6
CircleSize:4.5
OverallDifficulty:9
ApproachRate:10
SliderMultiplier:1.8
SliderTickRate:1

[Events]
//Background and Video events
0,0,"gajeel-redfox-hd-4f6dc1.jpg",0,0
//Break Periods
//Storyboard Layer 0 (Background)
//Storyboard Layer 1 (Fail)
//Storyboard Layer 2 (Pass)
//Storyboard Layer 3 (Foreground)
//Storyboard Sound Samples

[TimingPoints]
507,352.941176470588,6,1,1,70,1,0
1124,-66.6666666666667,6,1,6,5,0,0
1212,-66.6666666666667,6,1,6,70,0,0
1477,-66.6666666666667,6,1,6,5,0,0
1565,-66.6666666666667,6,1,6,70,0,0
1830,-66.6666666666667,6,1,6,5,0,0
1918,-66.6666666666667,6,1,6,70,0,0
2095,-66.6666666666667,6,1,6,5,0,0
2183,-66.6666666666667,6,1,6,70,0,0
2271,-133.333333333333,6,1,4,70,0,0
2535,-133.333333333333,6,1,4,5,0,0
2624,352.941176470588,4,1,6,70,1,0
2976,-100,4,1,2,70,0,0
7565,-100,4,1,6,70,0,0
8447,-100,4,1,2,70,0,0

[HitObjects]
185,94,683,5,2,0:0:0:0:
189,90,742,1,2,0:0:0:0:
193,86,801,1,2,0:0:0:0:
197,82,859,2,0,B|205:109|214:127|214:127|207:146|206:164|206:164|221:186|232:217,1,135,8|0,0:0|2:0,0:0:0:0:
250,301,1212,6,0,B|262:348|262:348|112:310,1,202.500007724762,6|0,0:0|2:0,0:0:0:0:
228,207,1565,2,0,B|378:170|378:170|366:217,1,202.500007724762,12|0,0:0|2:0,0:0:0:0:
164,167,1918,2,0,B|163:99|163:99|238:142,1,135.000005149842,6|0,0:0|2:0,0:0:0:0:
160,243,2183,1,2,0:0:0:0:
150,249,2271,6,0,B|120:233|120:233|90:235|90:235|52:217,1,101.250003862381,12|0,0:0|0:0,0:0:0:0:
207,63,2624,5,6,0:0:0:0:
222,133,2712,1,2,0:0:0:0:
236,203,2800,1,2,0:0:0:0:
225,26,2976,5,12,0:0:0:0:
239,96,3064,1,2,0:0:0:0:
254,166,3152,1,2,0:0:0:0:
332,8,3329,5,6,0:0:0:0:
319,206,3506,1,2,0:0:0:0:
432,44,3682,5,12,0:0:0:0:
445,242,3859,1,2,0:0:0:0:
239,96,4035,5,6,0:0:0:0:
310,102,4123,1,2,0:0:0:0:
382,106,4212,1,2,0:0:0:0:
207,74,4388,5,12,0:0:0:0:
278,80,4476,1,2,0:0:0:0:
350,84,4565,1,2,0:0:0:0:
184,191,4741,5,6,0:0:0:0:
381,215,4918,1,2,0:0:0:0:
157,310,5094,5,12,0:0:0:0:
354,286,5271,1,2,0:0:0:0:
206,50,5447,5,6,0:0:0:0:
195,120,5535,1,2,0:0:0:0:
184,191,5623,1,2,0:0:0:0:
184,16,5800,5,12,0:0:0:0:
173,86,5888,1,2,0:0:0:0:
162,157,5976,1,2,0:0:0:0:
330,51,6153,5,6,0:0:0:0:
248,230,6329,1,2,0:0:0:0:
87,112,6506,5,12,0:0:0:0:
169,291,6682,1,2,0:0:0:0:
327,157,6859,5,6,0:0:0:0:
257,138,6947,1,2,0:0:0:0:
187,120,7035,1,2,0:0:0:0:
363,136,7212,5,12,0:0:0:0:
293,117,7300,1,2,0:0:0:0:
223,99,7388,1,2,0:0:0:0:
250,295,7565,6,0,P|260:259|258:228,1,45,6|0,0:0|0:0,0:0:0:0:
113,121,7741,2,0,P|115:143|123:164,1,45,2|0,0:0|0:0,0:0:0:0:
332,298,7918,2,0,L|399:306,1,45,12|0,0:0|0:0,0:0:0:0:
293,117,8094,2,0,L|226:125,1,45,2|0,0:0|0:0,0:0:0:0:
433,227,8271,5,6,0:0:0:0:
458,159,8359,1,2,0:0:0:0:
426,94,8447,1,2,0:0:0:0:
260,251,8623,5,12,0:0:0:0:
235,319,8711,1,2,0:0:0:0:
267,384,8799,1,2,0:0:0:0:
369,164,8976,5,6,0:0:0:0:
