osu file format v14

[General]
AudioFilename: audio.mp3
AudioLeadIn: 0
PreviewTime: 49588
Countdown: 0
SampleSet: Soft
StackLeniency: 0.6
Mode: 0
LetterboxInBreaks: 0
WidescreenStoryboard: 0

[Editor]
Bookmarks: 1953,11427,30436,49446,53605,73209,77961
DistanceSpacing: 1
BeatDivisor: 4
GridSize: 16
TimelineZoom: 1

[Metadata]
Title:through the dark (TV Size)
TitleUnicode:through the dark (TV Size)
Artist:Yasuda Rei
ArtistUnicode:安田レイ
Creator:- ascended -
Version:run, little light
Source:白猫プロジェクト ZERO CHRONICLE
Tags:ゼロ・クロニクル ゼロクロニクル shironeko project purojekuto ed ending whitecat white cat videogame video game Colopl funimation 白猫テニス Tenisu j-pop jpop j pop Sony Music Japan anime animation japanese jp wanpachi cycopton
BeatmapID:2457848
BeatmapSetID:1178549

[Difficulty]
HPDrainRate:5.5
CircleSize:4
OverallDifficulty:8.5
ApproachRate:9
SliderMultiplier:2.3
SliderTickRate:1

[Events]
//Background and Video events
0,0,"man this ed is actually pog.png",0,0
Video,18,"pog pog pog pog pog pog.mp4"
//Break Periods
//Storyboard Layer 0 (Background)
//Storyboard Layer 1 (Fail)
//Storyboard Layer 2 (Pass)
//Storyboard Layer 3 (Foreground)
//Storyboard Layer 4 (Overlay)
//Storyboard Sound Samples

[TimingPoints]
866,677.966101694915,4,2,1,20,1,0
866,-133.333333333333,4,2,1,20,0,0
11374,-133.333333333333,4,2,1,20,0,0
11713,-133.333333333333,4,2,1,40,0,0
11717,594.059405940594,4,2,1,40,1,0
11717,-133.333333333333,4,2,1,40,0,0
21072,-133.333333333333,4,2,1,5,0,0
21221,-133.333333333333,4,2,1,40,0,0
29390,-133.333333333333,4,2,1,5,0,0
30132,-181.818181818182,4,2,1,40,0,0
30577,-181.818181818182,4,2,1,5,0,0
30726,-100,4,2,1,50,0,0
34885,-181.818181818182,4,2,1,50,0,0
35330,-181.818181818182,4,2,1,5,0,0
35479,-100,4,2,1,50,0,0
39637,-181.818181818182,4,2,1,50,0,0
40082,-181.818181818182,4,2,1,5,0,0
40156,-181.818181818182,4,2,1,50,0,0
40231,-100,4,2,1,50,0,0
46617,-133.333333333333,4,2,1,5,0,0
46766,-133.333333333333,4,2,1,50,0,0
48696,-133.333333333333,4,2,1,50,0,0
48845,-133.333333333333,4,2,1,50,0,0
49736,-50,4,2,1,70,0,1
50181,-50,4,2,1,5,0,1
50330,-50,4,2,1,70,0,1
50775,-50,4,2,1,5,0,1
50924,-50,4,2,1,70,0,1
51963,-50,4,2,1,5,0,1
52113,-50,4,2,1,70,0,1
53301,-66.6666666666667,4,2,1,70,0,1
54637,-66.6666666666667,4,2,1,5,0,1
54786,-66.6666666666667,4,2,1,70,0,1
55528,-66.6666666666667,4,2,1,5,0,1
55677,-100,4,2,1,70,0,1
57013,-100,4,2,1,5,0,1
57162,-100,4,2,1,70,0,1
57904,-100,4,2,1,5,0,1
58053,-100,4,2,1,70,0,1
58647,-66.6666666666667,4,2,1,70,0,1
59241,-50,4,2,1,70,0,1
59686,-50,4,2,1,5,0,1
59835,-50,4,2,1,70,0,1
60280,-50,4,2,1,5,0,1
60429,-50,4,2,1,70,0,1
61468,-50,4,2,1,5,0,1
61617,-50,4,2,1,70,0,1
62806,-66.6666666666667,4,2,1,70,0,1
64142,-66.6666666666667,4,2,1,5,0,1
64291,-66.6666666666667,4,2,1,70,0,1
65033,-66.6666666666667,4,2,1,5,0,1
65182,-100,4,2,1,70,0,1
66518,-100,4,2,1,5,0,1
66667,-100,4,2,1,70,0,1
67409,-100,4,2,1,5,0,1
67558,-100,4,2,1,70,0,1
68746,-66.6666666666667,4,2,1,70,0,1
73499,-133.333333333333,4,2,1,50,0,0
75726,-105.263157894737,4,2,1,70,0,0
76023,-105.263157894737,4,2,1,70,0,0
76172,-105.263157894737,4,2,1,70,0,0
77360,-66.6666666666667,4,2,1,70,0,0
78251,-133.333333333333,4,2,1,40,0,0
87756,-133.333333333333,4,2,1,40,0,0

[Colours]
Combo1 : 143,210,243
Combo2 : 83,74,74
Combo3 : 218,5,5
Combo4 : 200,205,227
Combo5 : 78,186,236
Combo6 : 156,146,146
Combo7 : 251,79,79

[HitObjects]
104,44,866,5,2,0:0:0:0:
104,44,1204,2,0,L|108:101,1,43.1250016450883,2|2,0:0|0:0,0:0:0:0:
136,144,1543,2,0,L|132:201,1,43.1250016450883,2|2,0:0|0:0,0:0:0:0:
106,246,1882,1,2,0:0:0:0:
258,164,2221,2,0,L|254:221,1,43.1250016450883,2|2,0:0|0:0,0:0:0:0:
226,264,2560,2,0,L|230:321,1,43.1250016450883,2|2,0:0|0:0,0:0:0:0:
256,366,2899,1,2,0:0:0:0:
384,356,3238,2,0,L|380:299,1,43.1250016450883,2|2,0:0|0:0,0:0:0:0:
354,254,3577,5,2,0:0:0:0:
396,131,3916,1,2,0:0:0:0:
396,131,4255,2,0,L|392:74,1,43.1250016450883,2|2,0:0|0:0,0:0:0:0:
367,28,4594,1,2,0:0:0:0:
367,28,4933,1,2,0:0:0:0:
199,126,5611,1,2,0:0:0:0:
299,255,6120,1,2,0:0:0:0:
299,255,6289,85,2,0:0:0:0:
299,255,6628,2,0,P|256:250|238:257,1,43.1250016450883,2|2,0:0|0:0,0:0:0:0:
195,269,6967,2,0,P|173:269|152:263,1,43.1250016450883,2|2,0:0|0:0,0:0:0:0:
99,227,7306,1,2,0:0:0:0:
77,99,7645,2,0,P|120:104|138:97,1,43.1250016450883,2|2,0:0|0:0,0:0:0:0:
181,85,7984,2,0,P|202:84|223:90,1,43.1250016450883,2|2,0:0|0:0,0:0:0:0:
277,127,8323,1,2,0:0:0:0:
405,111,8662,2,0,L|410:50,1,43.1250016450883,2|2,0:0|0:0,0:0:0:0:
413,25,9001,1,2,0:0:0:0:
256,192,9171,12,0,11374,0:0:0:0:
386,60,11713,5,0,3:0:0:0:
310,169,12014,1,2,0:0:0:0:
220,151,12311,1,2,0:0:0:0:
130,133,12608,1,2,3:2:0:0:
159,223,12905,1,2,0:0:0:0:
195,59,13202,1,2,0:0:0:0:
195,59,13350,1,2,0:0:0:0:
12,126,13796,1,2,0:0:0:0:
9,82,13944,1,2,0:0:0:0:
6,39,14093,1,2,0:0:0:0:
22,269,14390,1,2,0:0:0:0:
22,269,14538,1,2,0:0:0:0:
159,223,14835,1,2,0:0:0:0:
159,223,14984,1,2,0:0:0:0:
284,58,16469,85,0,3:0:0:0:
198,213,16766,1,2,0:0:0:0:
288,231,17063,1,2,0:0:0:0:
378,249,17360,1,2,3:2:0:0:
259,145,17657,1,2,0:0:0:0:
316,317,17954,1,2,0:0:0:0:
316,317,18103,1,2,0:0:0:0:
198,213,18548,1,2,0:0:0:0:
198,213,18697,1,2,0:0:0:0:
346,195,20627,2,0,L|354:51,1,129.375004935265,0|0,3:0|2:0,0:0:0:0:
343,272,21221,5,0,3:0:0:0:
259,214,21518,1,2,0:0:0:0:
166,239,21816,1,2,0:0:0:0:
166,239,22113,1,0,3:0:0:0:
278,348,22410,1,2,0:0:0:0:
345,248,22558,1,2,0:0:0:0:
349,367,22707,1,2,0:0:0:0:
274,273,22855,1,2,0:0:0:0:
390,306,23004,1,2,0:0:0:0:
390,306,23301,1,2,0:0:0:0:
100,103,23820,85,2,0:0:0:0:
167,203,23969,1,2,0:0:0:0:
173,82,24192,2,0,B|231:37|303:53|303:53|326:97,1,172.500006580353,2|2,0:0|0:0,0:0:0:0:
371,153,24934,1,2,0:0:0:0:
364,16,25083,1,2,0:0:0:0:
450,128,25231,1,2,0:0:0:0:
319,83,25677,1,2,0:0:0:0:
396,289,25974,5,0,3:0:0:0:
208,369,26568,1,2,0:0:0:0:
118,351,26865,1,2,0:0:0:0:
28,333,27162,1,2,0:0:0:0:
90,261,27459,1,2,3:2:0:0:
180,279,27756,1,2,3:2:0:0:
270,297,28053,1,2,3:2:0:0:
270,297,28202,86,0,P|264:133|170:191,1,345.000013160706,2|0,0:0|2:0,0:0:0:0:
453,219,30132,2,0,L|448:327,1,94.8750028953553,2|0,0:0|2:0,0:0:0:0:
458,326,30726,70,0,B|466:131|466:131|474:75|425:47|376:72|378:123|378:123|369:312|369:312|369:367|309:375|273:356|274:313|274:313|278:205,1,805,6|2,0:0|0:0,0:0:0:0:
277,207,33103,2,0,B|274:313|274:313|273:356|309:375|369:367|369:312|369:312|378:123|378:123|381:69,1,460,2|0,0:0|0:0,0:0:0:0:
192,54,34885,2,0,L|98:66,1,94.8750028953553,2|0,0:0|2:0,0:0:0:0:
87,81,35479,86,0,B|236:61|236:61|54:18|54:18|75:280|75:280|80:317|125:346|173:313|171:272|171:272|165:211|165:211,1,805,2|2,0:0|3:2,0:0:0:0:
165,214,37855,2,0,B|165:211|171:272|171:272|173:313|125:346|80:317|75:280|75:280|54:18|54:18,1,460,2|0,0:0|0:0,0:0:0:0:
406,50,39637,2,0,P|452:48|500:73,1,94.8750028953553,2|0,0:0|2:0,0:0:0:0:
511,73,40231,6,0,B|446:6|339:56|339:56|189:205|319:328|460:225|339:56|339:56|248:-3|173:50,1,805,2|2,0:0|0:0,0:0:0:0:
179,46,42608,2,0,B|243:2|338:53|338:53|459:219|285:318|270:151,1,460,2|0,0:0|0:0,0:0:0:0:
150,138,44390,1,0,3:0:0:0:
80,197,44687,1,0,3:0:0:0:
80,197,44984,1,0,0:0:0:0:
393,288,45281,85,2,0:0:0:0:
302,268,45578,1,2,0:0:0:0:
221,311,45875,1,2,0:0:0:0:
146,267,46172,2,0,B|139:160|184:217|165:80,1,172.5,2|0,0:0|2:0,0:0:0:0:
98,150,46766,1,2,0:0:0:0:
288,185,47063,1,2,0:0:0:0:
412,52,47657,101,2,0:0:0:0:
392,143,47954,1,2,0:0:0:0:
415,248,48251,1,2,0:0:0:0:
472,165,48548,1,2,0:0:0:0:
355,322,48845,1,2,0:0:0:0:
278,142,49142,1,2,3:2:0:0:
49,354,49736,70,0,P|183:301|402:313,1,345,6|0,0:0|2:0,0:0:0:0:
105,39,50330,2,0,P|252:140|428:175,1,345,10|0,0:0|2:0,0:0:0:0:
53,257,50924,2,0,P|123:245|183:204,1,115,2|0,0:0|3:0,0:0:0:0:
329,54,51221,2,0,P|399:66|459:107,1,115,0|0,3:0|0:0,0:0:0:0:
342,339,51518,2,0,P|244:189|218:12,1,345,10|0,0:0|2:0,0:0:0:0:
476,237,52113,2,0,P|300:268|152:369,1,345,2|0,0:0|3:0,0:0:0:0:
10,17,52707,2,0,P|155:118|331:152,1,345,10|0,0:0|3:0,0:0:0:0:
66,320,53301,6,0,P|110:361|149:363,1,86.2500032901765,2|0,0:0|3:0,0:0:0:0:
32,140,53598,2,0,P|34:200|60:229,1,86.2500032901765,2|0,3:2|0:0,0:0:0:0:
168,11,53895,2,0,P|127:54|125:93,1,86.2500032901765,10|0,0:0|0:0,0:0:0:0:
413,276,54192,2,0,P|300:171|192:166,1,258.75000987053,2|0,0:0|2:0,0:0:0:0:
223,362,54786,2,0,P|264:319|266:280,1,86.2500032901765,2|0,0:0|0:0,0:0:0:0:
168,11,55083,2,0,P|63:123|56:231,1,258.75000987053,10|0,0:0|2:0,0:0:0:0:
366,116,55677,38,0,L|371:183,1,57.5,2|0,0:0|3:0,0:0:0:0:
277,72,55974,2,0,L|272:131,1,57.5,2|0,3:2|0:0,0:0:0:0:
169,105,56271,2,0,L|174:172,1,57.5,10|0,0:0|0:0,0:0:0:0:
81,252,56568,2,0,L|268:238,1,172.5,2|0,0:0|2:0,0:0:0:0:
195,384,57162,2,0,L|190:324,1,57.5,2|0,0:0|0:0,0:0:0:0:
341,371,57459,2,0,L|354:183,1,172.5,10|0,0:0|2:0,0:0:0:0:
355,51,58053,1,0,3:0:0:0:
247,94,58202,1,0,3:0:0:0:
365,46,58350,1,0,3:0:0:0:
237,98,58499,1,0,3:0:0:0:
345,198,58647,54,0,P|408:213|430:206,1,86.2500032901765,8|0,0:0|0:0,0:0:0:0:
257,289,58944,2,0,P|214:282|175:298,1,86.2500032901765,2|0,0:0|0:0,0:0:0:0:
104,24,59241,86,0,P|69:206|100:377,1,345,2|0,0:0|2:0,0:0:0:0:
235,31,59835,2,0,P|270:213|239:384,1,345,10|0,0:0|2:0,0:0:0:0:
48,128,60429,2,0,P|113:132|167:158,1,115,2|0,0:0|3:0,0:0:0:0:
369,221,60726,2,0,P|434:216|488:190,1,115,0|0,3:0|0:0,0:0:0:0:
73,324,61023,2,0,P|254:359|426:328,1,345,10|0,0:0|2:0,0:0:0:0:
355,23,61617,2,0,P|304:201|320:375,1,345,2|0,0:0|3:0,0:0:0:0:
26,90,62212,2,0,P|159:218|232:377,1,345,10|0,0:0|3:0,0:0:0:0:
407,90,62806,6,0,P|409:46|396:5,1,86.2500032901765,2|0,0:0|3:0,0:0:0:0:
434,226,63103,2,0,P|465:196|487:159,1,86.2500032901765,2|0,3:2|0:0,0:0:0:0:
356,343,63400,2,0,P|400:345|442:332,1,86.2500032901765,10|0,0:0|0:0,0:0:0:0:
96,111,63697,2,0,P|201:84|298:219,1,258.75000987053,2|0,0:0|2:0,0:0:0:0:
174,321,64291,2,0,P|161:268|164:230,1,86.2500032901765,2|0,0:0|0:0,0:0:0:0:
287,0,64588,2,0,P|326:161|316:278,1,258.75000987053,10|0,0:0|2:0,0:0:0:0:
34,93,65182,38,0,L|101:111,1,57.5,2|0,0:0|3:0,0:0:0:0:
172,153,65479,2,0,L|239:135,1,57.5,2|0,3:2|0:0,0:0:0:0:
309,88,65776,2,0,L|376:106,1,57.5,10|0,0:0|0:0,0:0:0:0:
450,213,66073,2,0,L|276:260,1,172.5,2|0,0:0|2:0,0:0:0:0:
241,347,66667,2,0,L|174:329,1,57.5,2|0,0:0|0:0,0:0:0:0:
19,273,66964,2,0,L|192:226,1,172.5,10|0,0:0|2:0,0:0:0:0:
267,111,67558,1,0,3:0:0:0:
103,99,67707,1,0,3:0:0:0:
238,40,67855,1,0,3:0:0:0:
79,108,68004,1,0,3:0:0:0:
266,248,68152,2,0,L|275:175,1,57.5,8|0,0:0|0:0,0:0:0:0:
372,164,68449,2,0,L|363:91,1,57.5,0|0,3:0|0:0,0:0:0:0:
143,34,68746,38,0,B|117:176|168:104|138:302,1,258.75000987053,0|0,3:0|3:0,0:0:0:0:
255,348,69340,2,0,P|301:326|345:326,1,86.2500032901765,10|0,0:0|0:0,0:0:0:0:
297,206,69637,2,0,P|345:222|376:254,1,86.2500032901765,2|0,0:0|0:0,0:0:0:0:
418,122,69934,2,0,P|440:168|439:211,1,86.2500032901765,2|0,0:0|0:0,0:0:0:0:
303,117,70231,2,0,P|308:71|330:31,1,86.2500032901765,2|0,0:0|0:0,0:0:0:0:
154,108,70528,2,0,P|159:152|181:192,1,86.2500032901765,10|0,0:0|0:0,0:0:0:0:
100,9,70825,1,2,0:0:0:0:
14,78,70974,6,0,P|23:196|114:313,1,258.75000987053,2|0,0:0|0:0,0:0:0:0:
198,188,71568,1,0,0:0:0:0:
300,321,71717,2,0,P|261:302|219:292,1,86.2500032901765,8|0,0:0|0:0,0:0:0:0:
341,203,72014,1,0,0:0:0:0:
396,344,72162,2,0,P|409:293|428:258,1,86.2500032901765,0|0,3:0|0:0,0:0:0:0:
480,180,72459,1,0,3:0:0:0:
400,115,72608,2,0,P|359:100|323:77,1,86.2500032901765,0|0,3:0|0:0,0:0:0:0:
205,84,72905,2,0,P|218:33|237:-2,1,86.2500032901765,8|0,3:2|3:0,0:0:0:0:
102,66,73202,1,0,0:0:0:0:
99,279,73499,85,0,3:0:0:0:
253,310,74093,2,0,P|297:305|344:331,3,86.2500032901765,2|2|2|2,0:0|0:0|0:0|0:0,0:0:0:0:
396,201,75281,1,2,0:0:0:0:
348,34,75578,1,2,0:0:0:0:
348,34,75726,6,0,L|205:49,1,109.24999708271,2|0,3:2|0:0,0:0:0:0:
151,11,76172,2,0,L|158:77,1,54.6249985413552,2|0,3:2|0:0,0:0:0:0:
114,137,76469,1,2,3:2:0:0:
114,137,76617,2,0,L|261:148,1,109.24999708271,2|2,3:2|3:2,0:0:0:0:
294,197,77063,1,2,3:2:0:0:
243,355,77360,86,0,P|185:337|161:342,1,86.2500032901765,2|0,2:0|3:0,0:0:0:0:
202,209,77657,2,0,P|148:237|134:257,1,86.2500032901765,2|0,0:0|0:0,0:0:0:0:
69,134,77954,2,0,P|51:192|56:216,1,86.2500032901765,2|0,3:2|0:0,0:0:0:0:
159,33,78251,21,4,3:2:0:0:
260,71,78697,1,0,3:0:0:0:
331,52,78994,1,0,3:0:0:0:
331,52,79142,1,0,3:0:0:0:
395,84,79439,1,0,3:0:0:0:
395,84,80033,1,0,3:0:0:0:
435,218,80627,5,0,3:0:0:0:
334,177,80924,1,0,3:0:0:0:
334,177,81073,1,0,3:0:0:0:
268,201,81370,1,0,3:0:0:0:
268,201,81518,1,0,3:0:0:0:
197,186,81816,1,0,3:0:0:0:
138,318,82113,6,0,P|132:280|136:248,1,43.1250016450883,2|0,0:0|0:0,0:0:0:0:
225,335,82410,2,0,P|219:297|223:265,1,43.1250016450883,2|0,0:0|0:0,0:0:0:0:
312,352,82707,2,0,P|306:314|310:282,1,43.1250016450883,2|0,0:0|0:0,0:0:0:0:
416,325,83004,69,0,3:0:0:0:
397,241,83301,1,0,3:0:0:0:
397,241,83449,1,0,3:0:0:0:
413,173,83746,1,0,3:0:0:0:
413,173,83895,1,0,3:0:0:0:
381,108,84192,1,0,3:0:0:0:
277,77,84637,1,0,3:0:0:0:
178,120,85083,1,0,3:0:0:0:
256,192,85231,12,0,87756,0:0:0:0:
