osu file format v14

[General]
AudioFilename: audio.mp3
AudioLeadIn: 0
PreviewTime: 49588
Countdown: 0
SampleSet: Soft
StackLeniency: 0.6
Mode: 0
LetterboxInBreaks: 0
WidescreenStoryboard: 1

[Editor]
Bookmarks: 11427,30436,49446,53605,73209,77961
DistanceSpacing: 1
BeatDivisor: 4
GridSize: 16
TimelineZoom: 1

[Metadata]
Title:through the dark (TV Size)
TitleUnicode:through the dark (TV Size)
Artist:Yasuda Rei
ArtistUnicode:安田レイ
Creator:- ascended -
Version:normal
Source:白猫プロジェクト ZERO CHRONICLE
Tags:ゼロ・クロニクル ゼロクロニクル shironeko project purojekuto ed ending whitecat white cat videogame video game Colopl funimation 白猫テニス Tenisu j-pop jpop j pop Sony Music Japan anime animation japanese jp wanpachi cycopton
BeatmapID:2457847
BeatmapSetID:1178549

[Difficulty]
HPDrainRate:4
CircleSize:3.5
OverallDifficulty:4
ApproachRate:5
SliderMultiplier:1.8
SliderTickRate:1

[Events]
//Background and Video events
Video,18,"pog pog pog pog pog pog.mp4"
0,0,"man this ed is actually pog.png",0,0
//Break Periods
//Storyboard Layer 0 (Background)
//Storyboard Layer 1 (Fail)
//Storyboard Layer 2 (Pass)
//Storyboard Layer 3 (Foreground)
//Storyboard Layer 4 (Overlay)
//Storyboard Sound Samples

[TimingPoints]
866,677.966101694915,4,2,1,20,1,0
11713,-100,4,2,1,40,0,0
11717,594.059405940594,4,2,1,40,1,0
11717,-111.111111111111,4,2,1,40,0,0
18400,-111.111111111111,4,2,1,40,0,0
18548,-111.111111111111,4,2,1,40,0,0
21072,-111.111111111111,4,2,1,40,0,0
21221,-111.111111111111,4,2,1,40,0,0
29390,-111.111111111111,4,2,1,5,0,0
30132,-111.111111111111,4,2,1,40,0,0
30577,-111.111111111111,4,2,1,40,0,0
30726,-100,4,2,1,50,0,0
34885,-100,4,2,1,50,0,0
35330,-100,4,2,1,50,0,0
35479,-100,4,2,1,50,0,0
39637,-100,4,2,1,50,0,0
40156,-100,4,2,1,50,0,0
40231,-100,4,2,1,50,0,0
46617,-100,4,2,1,50,0,0
46766,-100,4,2,1,50,0,0
48696,-100,4,2,1,50,0,0
48845,-100,4,2,1,50,0,0
49736,-90.9090909090909,4,2,1,70,0,1
50181,-90.9090909090909,4,2,1,70,0,1
50330,-90.9090909090909,4,2,1,70,0,1
50775,-90.9090909090909,4,2,1,70,0,1
50924,-90.9090909090909,4,2,1,70,0,1
51369,-90.9090909090909,4,2,1,5,0,1
51518,-90.9090909090909,4,2,1,70,0,1
51963,-90.9090909090909,4,2,1,70,0,1
52113,-90.9090909090909,4,2,1,70,0,1
53301,-90.9090909090909,4,2,1,70,0,1
54637,-90.9090909090909,4,2,1,70,0,1
54786,-90.9090909090909,4,2,1,70,0,1
55528,-90.9090909090909,4,2,1,70,0,1
55677,-90.9090909090909,4,2,1,70,0,1
57013,-90.9090909090909,4,2,1,70,0,1
57162,-90.9090909090909,4,2,1,70,0,1
57904,-90.9090909090909,4,2,1,70,0,1
58053,-90.9090909090909,4,2,1,70,0,1
58647,-90.9090909090909,4,2,1,70,0,1
59241,-90.9090909090909,4,2,1,70,0,1
59686,-90.9090909090909,4,2,1,70,0,1
59835,-90.9090909090909,4,2,1,70,0,1
60280,-90.9090909090909,4,2,1,70,0,1
60429,-90.9090909090909,4,2,1,70,0,1
60874,-90.9090909090909,4,2,1,5,0,1
61023,-90.9090909090909,4,2,1,70,0,1
61468,-90.9090909090909,4,2,1,70,0,1
61617,-90.9090909090909,4,2,1,70,0,1
62806,-90.9090909090909,4,2,1,70,0,1
64142,-90.9090909090909,4,2,1,70,0,1
64291,-90.9090909090909,4,2,1,70,0,1
65033,-90.9090909090909,4,2,1,70,0,1
65182,-90.9090909090909,4,2,1,70,0,1
66518,-90.9090909090909,4,2,1,70,0,1
66667,-90.9090909090909,4,2,1,70,0,1
67409,-90.9090909090909,4,2,1,70,0,1
67558,-90.9090909090909,4,2,1,70,0,1
68746,-90.9090909090909,4,2,1,70,0,1
73499,-100,4,2,1,50,0,0
75726,-100,4,2,1,70,0,0
78251,-100,4,2,1,40,0,0
87756,-100,4,2,1,40,0,0

[Colours]
Combo1 : 143,210,243
Combo2 : 83,74,74
Combo3 : 218,5,5
Combo4 : 200,205,227
Combo5 : 78,186,236
Combo6 : 156,146,146
Combo7 : 251,79,79

[HitObjects]
78,342,11717,5,0,3:0:0:0:
157,323,12014,2,0,P|200:339|241:330,2,80.9999975280763,2|2|2,0:0|0:0|3:2,0:0:0:0:
110,256,12905,2,0,L|107:170,1,80.9999975280763,2|2,0:0|0:0,0:0:0:0:
139,150,13350,1,2,0:0:0:0:
231,71,13796,2,0,L|239:24,2,40.4999987640381,2|2|2,0:0|0:0|0:0,0:0:0:0:
287,129,14390,2,0,L|279:178,1,40.4999987640381,2|2,0:0|0:0,0:0:0:0:
340,222,14835,2,0,L|332:271,1,40.4999987640381,2|2,0:0|0:0,0:0:0:0:
40,330,16469,5,0,3:0:0:0:
84,262,16766,2,0,L|79:177,2,80.9999975280763,2|2|2,0:0|0:0|3:2,0:0:0:0:
149,309,17657,2,0,P|196:295|225:305,1,80.9999975280763,2|2,0:0|0:0,0:0:0:0:
254,332,18103,1,2,0:0:0:0:
319,230,18548,1,2,0:0:0:0:
319,230,18697,1,2,0:0:0:0:
67,358,20627,2,0,B|61:318|94:317|73:246,1,80.9999975280763,0|0,3:0|0:0,0:0:0:0:
46,205,21221,85,0,3:0:0:0:
87,135,21518,2,0,P|119:96|155:97,2,80.9999975280763,2|2|0,0:0|0:0|3:0,0:0:0:0:
150,185,22410,2,0,L|205:200,1,40.4999987640381,2|2,0:0|0:0,0:0:0:0:
224,177,22707,2,0,L|276:163,1,40.4999987640381,2|2,0:0|0:0,0:0:0:0:
300,185,23004,1,2,0:0:0:0:
377,161,23301,1,2,0:0:0:0:
358,20,23820,6,0,L|313:25,1,40.4999987640381,2|2,0:0|0:0,0:0:0:0:
259,5,24192,2,0,P|187:31|187:106,1,161.999995056153,2|2,0:0|0:0,0:0:0:0:
218,132,24934,2,0,L|223:173,1,40.4999987640381,2|2,0:0|0:0,0:0:0:0:
228,212,25231,1,2,0:0:0:0:
152,307,25677,1,2,0:0:0:0:
72,292,25974,85,0,3:0:0:0:
40,133,26568,2,0,L|33:44,2,80.9999975280763,2|2|2,0:0|0:0|0:0,0:0:0:0:
113,98,27459,1,2,3:2:0:0:
191,117,27756,1,2,3:2:0:0:
231,48,28053,1,2,3:2:0:0:
231,48,28202,2,0,B|195:277|304:137|279:371,1,323.999990112305,2|0,0:0|2:0,0:0:0:0:
477,323,30132,1,2,0:0:0:0:
338,207,30726,70,0,B|337:69|337:69|327:11|260:-14|192:17|188:82|188:82|189:142|191:194|155:214|112:214|112:214|4:218,1,630,6|2,0:0|0:0,0:0:0:0:
16,307,33103,2,0,L|376:298,1,360,2|0,0:0|0:0,0:0:0:0:
467,143,34885,1,2,0:0:0:0:
343,37,35479,86,0,B|210:101|102:15|102:15|145:53|169:236|24:114|65:373,1,630,2|2,0:0|3:2,0:0:0:0:
151,380,37855,2,0,B|264:366|245:257|245:257|303:353|397:292,1,360,2|0,0:0|0:0,0:0:0:0:
487,136,39637,1,2,0:0:0:0:
331,51,40231,6,0,B|130:40|130:40|80:34|38:96|77:147|126:149|126:149|380:160,1,630,2|2,0:0|0:0,0:0:0:0:
444,218,42608,2,0,P|416:357|332:242,1,360,2|0,0:0|0:0,0:0:0:0:
112,137,45281,86,0,L|2:125,2,90,2|2|2,0:0|0:0|0:0,0:0:0:0:
101,225,46172,2,0,L|191:215,1,90,2|0,0:0|0:0,0:0:0:0:
270,174,46766,1,2,0:0:0:0:
352,210,47063,1,2,0:0:0:0:
477,81,47657,2,0,L|388:91,1,90,2|2,0:0|0:0,0:0:0:0:
317,34,48251,1,2,0:0:0:0:
241,83,48548,2,0,L|251:190,2,90,2|2|2,0:0|0:0|3:2,0:0:0:0:
45,113,49736,70,0,P|5:165|2:220,1,99.0000030212403,6|0,0:0|0:0,0:0:0:0:
55,278,50330,2,0,P|107:238|162:235,1,99.0000030212403,10|0,0:0|0:0,0:0:0:0:
225,279,50924,2,0,P|277:319|370:318,1,148.50000453186,2|0,0:0|2:0,0:0:0:0:
396,292,51518,2,0,P|408:244|441:208,1,99.0000030212403,10|0,0:0|0:0,0:0:0:0:
401,116,52113,2,0,P|349:156|294:159,1,99.0000030212403,2|0,0:0|0:0,0:0:0:0:
242,221,52707,1,10,0:0:0:0:
89,347,53301,5,2,0:0:0:0:
28,268,53598,1,2,3:2:0:0:
36,169,53895,1,10,0:0:0:0:
70,76,54192,2,0,B|190:47|143:111|293:75,1,198.000006042481,2|2,0:0|0:0,0:0:0:0:
355,46,55083,2,0,P|345:97|345:143,1,99.0000030212403,10|0,0:0|3:0,0:0:0:0:
405,222,55677,38,0,P|454:221|502:212,2,99.0000030212403,2|2|10,0:0|3:2|0:0,0:0:0:0:
416,320,56568,2,0,L|195:295,1,198.000006042481,2|2,0:0|0:0,0:0:0:0:
124,327,57459,2,0,P|123:277|114:229,1,99.0000030212403,10|0,0:0|3:0,0:0:0:0:
83,134,58053,2,0,L|90:78,2,49.5000015106202,0|0|0,3:0|3:0|3:0,0:0:0:0:
164,78,58647,2,0,L|232:90,1,49.5000015106202,8|0,0:0|0:0,0:0:0:0:
257,108,58944,2,0,L|325:96,1,49.5000015106202,2|0,0:0|0:0,0:0:0:0:
343,131,59241,38,0,P|328:206|342:252,1,99.0000030212403,2|0,0:0|0:0,0:0:0:0:
380,329,59835,2,0,P|305:314|259:328,1,99.0000030212403,10|0,0:0|0:0,0:0:0:0:
191,282,60429,2,0,P|141:286|37:257,1,148.50000453186,2|0,0:0|2:0,0:0:0:0:
12,298,61023,2,0,P|15:248|1:202,1,99.0000030212403,10|0,0:0|0:0,0:0:0:0:
77,138,61617,2,0,P|123:152|172:148,1,99.0000030212403,2|0,0:0|0:0,0:0:0:0:
230,66,62212,1,10,0:0:0:0:
424,31,62806,5,2,0:0:0:0:
474,116,63103,1,2,3:2:0:0:
440,209,63400,1,10,0:0:0:0:
500,287,63697,2,0,P|418:317|343:218,1,198.000006042481,2|2,0:0|0:0,0:0:0:0:
251,281,64588,2,0,P|260:235|252:178,1,99.0000030212403,10|0,0:0|3:0,0:0:0:0:
155,174,65182,38,0,P|106:180|57:171,2,99.0000030212403,2|2|10,0:0|3:2|0:0,0:0:0:0:
219,98,66073,2,0,P|256:24|358:71,1,198.000006042481,2|2,0:0|0:0,0:0:0:0:
321,147,66964,1,10,0:0:0:0:
450,296,67558,2,0,L|464:233,2,49.5000015106202,0|0|0,3:0|3:0|3:0,0:0:0:0:
352,279,68152,2,0,L|292:268,1,49.5000015106202,8|0,0:0|0:0,0:0:0:0:
260,294,68449,2,0,L|200:305,1,49.5000015106202,0|0,3:0|0:0,0:0:0:0:
169,275,68746,37,0,3:0:0:0:
210,81,69340,2,0,P|160:79|111:87,2,99.0000030212403,10|2|2,0:0|0:0|0:0,0:0:0:0:
283,151,70231,1,2,0:0:0:0:
276,249,70528,1,10,0:0:0:0:
235,341,70825,1,2,0:0:0:0:
235,341,70974,6,0,B|376:358|316:264|481:280,1,247.500007553101,2|8,0:0|0:0,0:0:0:0:
493,133,72162,2,0,P|460:83|412:75,1,99.0000030212403,0|0,3:0|3:0,0:0:0:0:
380,50,72608,1,0,3:0:0:0:
281,50,72905,2,0,L|222:41,2,49.5000015106202,8|0|0,3:2|3:0|0:0,0:0:0:0:
316,132,73499,85,0,3:0:0:0:
295,310,74093,2,0,P|346:306|389:312,2,90,2|2|2,0:0|0:0|0:0,0:0:0:0:
213,273,74984,1,2,0:0:0:0:
132,312,75281,1,2,0:0:0:0:
72,243,75578,1,2,0:0:0:0:
72,243,75726,6,0,B|49:177|49:177|79:78,2,135,2|2|2,3:2|3:2|3:2,0:0:0:0:
189,174,77063,1,2,3:2:0:0:
270,212,77360,2,0,L|363:199,2,90,2|2|2,2:0|0:0|3:2,0:0:0:0:
218,286,78251,5,4,3:2:0:0:
256,192,78400,12,0,87756,0:0:0:0:
