osu file format v14

[General]
AudioFilename: audio.mp3
AudioLeadIn: 0
PreviewTime: 49588
Countdown: 0
SampleSet: Soft
StackLeniency: 0.6
Mode: 0
LetterboxInBreaks: 0
WidescreenStoryboard: 1

[Editor]
Bookmarks: 1953,11427,30436,49446,53605,61023,68746,73209,77961
DistanceSpacing: 1
BeatDivisor: 4
GridSize: 16
TimelineZoom: 1

[Metadata]
Title:through the dark (TV Size)
TitleUnicode:through the dark (TV Size)
Artist:Yasuda Rei
ArtistUnicode:安田レイ
Creator:- ascended -
Version:light insane
Source:白猫プロジェクト ZERO CHRONICLE
Tags:ゼロ・クロニクル ゼロクロニクル shironeko project purojekuto ed ending whitecat white cat videogame video game Colopl funimation 白猫テニス Tenisu j-pop jpop j pop Sony Music Japan anime animation japanese jp wanpachi cycopton
BeatmapID:2457846
BeatmapSetID:1178549

[Difficulty]
HPDrainRate:5
CircleSize:4
OverallDifficulty:7
ApproachRate:8.5
SliderMultiplier:2
SliderTickRate:1

[Events]
//Background and Video events
Video,18,"pog pog pog pog pog pog.mp4"
0,0,"man this ed is actually pog.png",0,0
//Break Periods
//Storyboard Layer 0 (Background)
//Storyboard Layer 1 (Fail)
//Storyboard Layer 2 (Pass)
//Storyboard Layer 3 (Foreground)
//Storyboard Layer 4 (Overlay)
//Storyboard Sound Samples

[TimingPoints]
866,677.966101694915,4,2,1,20,1,0
866,-133.333333333333,4,2,1,20,0,0
11315,-133.333333333333,4,2,1,20,0,0
11713,-133.333333333333,4,2,1,40,0,0
11717,594.059405940594,4,2,1,40,1,0
11717,-133.333333333333,4,2,1,40,0,0
21072,-133.333333333333,4,2,1,5,0,0
21221,-133.333333333333,4,2,1,40,0,0
29390,-133.333333333333,4,2,1,40,0,0
30132,-181.818181818182,4,2,1,40,0,0
30577,-181.818181818182,4,2,1,5,0,0
30726,-100,4,2,1,50,0,0
34885,-181.818181818182,4,2,1,50,0,0
35330,-181.818181818182,4,2,1,5,0,0
35479,-100,4,2,1,50,0,0
39637,-181.818181818182,4,2,1,50,0,0
40082,-181.818181818182,4,2,1,5,0,0
40156,-181.818181818182,4,2,1,50,0,0
40231,-100,4,2,1,50,0,0
46617,-133.333333333333,4,2,1,5,0,0
46766,-133.333333333333,4,2,1,50,0,0
48696,-133.333333333333,4,2,1,50,0,0
48845,-133.333333333333,4,2,1,50,0,0
49736,-57.1428571428571,4,2,1,70,0,1
50181,-57.1428571428571,4,2,1,5,0,1
50330,-57.1428571428571,4,2,1,70,0,1
50775,-57.1428571428571,4,2,1,5,0,1
50924,-57.1428571428571,4,2,1,70,0,1
51963,-57.1428571428571,4,2,1,5,0,1
52113,-57.1428571428571,4,2,1,70,0,1
53301,-66.6666666666667,4,2,1,70,0,1
54637,-66.6666666666667,4,2,1,5,0,1
54786,-66.6666666666667,4,2,1,70,0,1
55528,-66.6666666666667,4,2,1,5,0,1
55677,-100,4,2,1,70,0,1
57013,-100,4,2,1,5,0,1
57162,-100,4,2,1,70,0,1
57904,-100,4,2,1,5,0,1
58053,-100,4,2,1,70,0,1
58647,-66.6666666666667,4,2,1,70,0,1
59241,-57.1428571428571,4,2,1,70,0,1
59686,-57.1428571428571,4,2,1,5,0,1
59835,-57.1428571428571,4,2,1,70,0,1
60280,-57.1428571428571,4,2,1,5,0,1
60429,-57.1428571428571,4,2,1,70,0,1
61468,-57.1428571428571,4,2,1,5,0,1
61617,-57.1428571428571,4,2,1,70,0,1
62806,-66.6666666666667,4,2,1,70,0,1
64142,-66.6666666666667,4,2,1,5,0,1
64291,-66.6666666666667,4,2,1,70,0,1
65033,-66.6666666666667,4,2,1,5,0,1
65182,-100,4,2,1,70,0,1
66518,-100,4,2,1,5,0,1
66667,-100,4,2,1,70,0,1
67409,-100,4,2,1,5,0,1
67558,-100,4,2,1,70,0,1
68746,-66.6666666666667,4,2,1,70,0,1
72459,-66.6666666666667,4,2,1,70,0,1
73499,-133.333333333333,4,2,1,50,0,0
75726,-105.263157894737,4,2,1,70,0,0
76023,-105.263157894737,4,2,1,70,0,0
76172,-105.263157894737,4,2,1,70,0,0
77360,-66.6666666666667,4,2,1,70,0,0
78251,-133.333333333333,4,2,1,40,0,0
87756,-133.333333333333,4,2,1,40,0,0

[Colours]
Combo1 : 143,210,243
Combo2 : 83,74,74
Combo3 : 218,5,5
Combo4 : 200,205,227
Combo5 : 78,186,236
Combo6 : 156,146,146
Combo7 : 251,79,79

[HitObjects]
404,40,866,5,2,0:0:0:0:
404,40,1204,2,0,L|347:44,1,37.5000014305115,2|2,0:0|0:0,0:0:0:0:
323,64,1543,2,0,L|266:60,1,37.5000014305115,2|2,0:0|0:0,0:0:0:0:
238,48,1882,1,2,0:0:0:0:
151,124,2221,2,0,L|147:181,1,37.5000014305115,2|2,0:0|0:0,0:0:0:0:
165,206,2560,2,0,L|169:263,1,37.5000014305115,2|2,0:0|0:0,0:0:0:0:
152,289,2899,1,2,0:0:0:0:
272,331,3238,2,0,L|329:327,1,37.5000014305115,2|2,0:0|0:0,0:0:0:0:
348,301,3577,5,2,0:0:0:0:
417,192,3916,1,2,0:0:0:0:
417,192,4255,2,0,L|413:135,1,37.5000014305115,2|2,0:0|0:0,0:0:0:0:
398,108,4594,1,2,0:0:0:0:
321,148,4933,1,2,0:0:0:0:
108,102,5611,1,2,0:0:0:0:
213,244,6120,1,2,0:0:0:0:
213,244,6289,85,2,0:0:0:0:
213,244,6628,2,0,P|170:239|152:246,1,37.5000014305115,2|2,0:0|0:0,0:0:0:0:
129,252,6967,2,0,P|107:252|86:246,1,37.5000014305115,2|2,0:0|0:0,0:0:0:0:
48,226,7306,1,2,0:0:0:0:
90,110,7645,2,0,P|133:115|151:108,1,37.5000014305115,2|2,0:0|0:0,0:0:0:0:
174,102,7984,2,0,P|196:102|217:108,1,37.5000014305115,2|2,0:0|0:0,0:0:0:0:
255,128,8323,1,2,0:0:0:0:
383,84,8662,2,0,L|379:126,1,37.5000014305115,2|2,0:0|0:0,0:0:0:0:
382,170,9001,1,2,0:0:0:0:
256,192,9171,12,0,11374,0:0:0:0:
358,335,11713,5,0,3:0:0:0:
325,218,12014,1,2,0:0:0:0:
235,200,12311,1,2,0:0:0:0:
264,287,12608,1,2,3:2:0:0:
175,269,12905,1,2,0:0:0:0:
296,131,13202,1,2,0:0:0:0:
296,131,13350,1,2,0:0:0:0:
264,287,13796,1,2,0:0:0:0:
264,287,13944,1,2,0:0:0:0:
264,287,14093,1,2,0:0:0:0:
371,197,14390,1,2,0:0:0:0:
371,197,14538,1,2,0:0:0:0:
422,331,14835,1,2,0:0:0:0:
422,331,14984,1,2,0:0:0:0:
158,353,16469,85,0,3:0:0:0:
77,208,16766,1,2,0:0:0:0:
167,190,17063,1,2,0:0:0:0:
138,276,17360,1,2,3:2:0:0:
106,122,17657,1,2,0:0:0:0:
257,172,17954,1,2,0:0:0:0:
257,172,18103,1,2,0:0:0:0:
77,208,18548,1,2,0:0:0:0:
77,208,18697,1,2,0:0:0:0:
253,323,20627,2,0,L|261:179,1,112.500004291535,0|0,3:0|2:0,0:0:0:0:
193,240,21221,5,0,3:0:0:0:
158,113,21518,1,2,0:0:0:0:
55,144,21816,2,0,L|54:241,1,75.0000028610231,2|0,0:0|3:0,0:0:0:0:
154,346,22410,2,0,L|211:337,1,37.5000014305115,2|2,0:0|0:0,0:0:0:0:
237,325,22707,2,0,L|294:334,1,37.5000014305115,2|2,0:0|0:0,0:0:0:0:
319,347,23004,1,2,0:0:0:0:
296,220,23301,1,2,0:0:0:0:
426,259,23820,85,2,0:0:0:0:
422,216,23969,1,2,0:0:0:0:
441,163,24192,2,0,B|494:120|485:59|485:59|445:64,1,150.000005722046,2|2,0:0|0:0,0:0:0:0:
413,55,24934,1,2,0:0:0:0:
370,51,25083,1,2,0:0:0:0:
327,46,25231,1,2,0:0:0:0:
232,121,25677,1,2,0:0:0:0:
204,14,25974,5,0,3:0:0:0:
224,330,26568,1,2,0:0:0:0:
252,240,26865,1,2,0:0:0:0:
314,312,27162,1,2,0:0:0:0:
404,294,27459,1,2,3:2:0:0:
342,222,27756,1,2,3:2:0:0:
432,204,28053,1,2,3:2:0:0:
432,204,28202,86,0,P|393:24|261:73,1,337.500012874604,2|0,0:0|0:0,0:0:0:0:
379,308,30132,2,0,P|418:311|484:308,1,82.5000025177003,2|0,0:0|2:0,0:0:0:0:
468,320,30726,70,0,B|361:338|312:283|312:283|243:157|374:54|449:211|310:283|310:283|194:252|165:356,1,700,6|2,0:0|0:0,0:0:0:0:
165,353,33103,2,0,B|194:252|314:283|314:283|430:212|372:100|302:171,1,400,2|0,0:0|0:0,0:0:0:0:
192,54,34885,2,0,L|98:66,1,82.5000025177003,2|0,0:0|2:0,0:0:0:0:
99,81,35479,86,0,B|279:52|279:52|349:39|376:75|369:130|305:139|305:139|163:161|163:161|113:168|101:219|134:257|174:245|174:245|266:231,1,700,2|2,0:0|3:2,0:0:0:0:
222,238,37855,6,0,B|174:245|174:245|134:257|101:219|113:168|163:161|163:161|305:139|305:139|371:126|356:75,1,400,2|0,0:0|0:0,0:0:0:0:
417,232,39637,2,0,P|428:274|392:319,1,82.5000025177003,2|0,0:0|2:0,0:0:0:0:
416,326,40231,86,0,B|481:264|438:188|335:169|306:252|320:286|320:286|354:246|333:111|205:85|144:163|61:263|223:353|258:311,1,700,2|2,0:0|0:0,0:0:0:0:
222,318,42608,2,0,B|104:278|143:163|198:83|356:110|357:238|320:286|320:286,1,400,2|0,0:0|0:0,0:0:0:0:
244,244,44390,1,0,3:0:0:0:
93,138,44687,1,0,3:0:0:0:
64,293,45281,5,2,0:0:0:0:
155,273,45578,1,2,0:0:0:0:
236,316,45875,1,2,0:0:0:0:
311,252,46172,2,0,B|418:259|361:214|498:233,1,150,2|0,0:0|2:0,0:0:0:0:
436,284,46766,1,2,0:0:0:0:
349,170,47063,1,2,0:0:0:0:
84,78,47657,85,2,0:0:0:0:
141,152,47954,1,2,0:0:0:0:
71,255,48251,1,2,0:0:0:0:
152,135,48548,1,2,0:0:0:0:
141,321,48845,1,2,0:0:0:0:
308,238,49142,1,2,3:2:0:0:
439,113,49736,70,0,P|306:91|147:147,1,262.500002503395,6|0,0:0|2:0,0:0:0:0:
45,38,50330,2,0,P|67:171|11:330,1,262.500002503395,10|0,0:0|2:0,0:0:0:0:
129,285,50924,2,0,P|178:290|227:279,1,87.500000834465,2|0,0:0|3:0,0:0:0:0:
301,332,51221,2,0,P|350:326|399:337,1,87.500000834465,0|0,3:0|0:0,0:0:0:0:
504,210,51518,2,0,P|371:232|212:176,1,262.500002503395,10|0,0:0|2:0,0:0:0:0:
75,75,52113,2,0,P|208:97|367:41,1,262.500002503395,2|0,0:0|3:0,0:0:0:0:
492,36,52707,2,0,P|440:176|460:324,1,262.500002503395,10|0,0:0|3:0,0:0:0:0:
365,338,53301,6,0,P|306:327|263:328,1,75.0000028610231,2|0,0:0|3:0,0:0:0:0:
322,197,53598,2,0,P|272:230|242:262,1,75.0000028610231,2|0,3:2|0:0,0:0:0:0:
202,106,53895,2,0,P|191:165|192:208,1,75.0000028610231,10|0,0:0|0:0,0:0:0:0:
105,299,54192,2,0,P|267:268|385:271,1,225.000008583069,2|0,0:0|2:0,0:0:0:0:
437,331,54786,2,0,P|448:272|447:229,1,75.0000028610231,2|0,0:0|0:0,0:0:0:0:
512,146,55083,2,0,P|349:115|231:118,1,225.000008583069,10|0,0:0|2:0,0:0:0:0:
189,44,55677,38,0,L|131:41,1,50,2|0,0:0|3:0,0:0:0:0:
147,140,55974,2,0,L|89:142,1,50,2|0,3:2|0:0,0:0:0:0:
175,239,56271,2,0,L|117:236,1,50,10|0,0:0|0:0,0:0:0:0:
260,332,56568,2,0,L|266:178,1,150,2|0,0:0|2:0,0:0:0:0:
406,253,57162,2,0,L|340:256,1,50,2|0,0:0|0:0,0:0:0:0:
505,323,57459,2,0,L|499:169,1,150,10|0,0:0|2:0,0:0:0:0:
442,71,58053,1,0,3:0:0:0:
356,102,58202,1,0,3:0:0:0:
270,71,58350,1,0,3:0:0:0:
184,102,58499,1,0,3:0:0:0:
262,203,58647,54,0,P|219:192|171:195,1,75.0000028610231,8|0,0:0|0:0,0:0:0:0:
275,347,58944,2,0,P|252:308|216:276,1,75.0000028610231,2|0,0:0|0:0,0:0:0:0:
433,331,59241,86,0,P|427:181|477:28,1,262.500002503395,2|0,0:0|2:0,0:0:0:0:
348,107,59835,2,0,P|204:62|55:68,1,262.500002503395,10|0,0:0|2:0,0:0:0:0:
111,264,60429,2,0,P|127:210|125:154,1,87.500000834465,2|0,0:0|3:0,0:0:0:0:
273,287,60726,2,0,P|256:233|258:177,1,87.500000834465,0|0,3:0|0:0,0:0:0:0:
204,52,61023,2,0,P|354:46|497:90,1,262.500002503395,10|0,0:0|2:0,0:0:0:0:
494,250,61617,2,0,P|350:294|200:288,1,262.500002503395,2|0,0:0|3:0,0:0:0:0:
79,369,62212,2,0,P|84:218|41:75,1,262.500002503395,10|0,0:0|3:0,0:0:0:0:
222,62,62806,6,0,P|161:45|121:45,1,75.0000028610231,2|0,0:0|3:0,0:0:0:0:
345,97,63103,2,0,P|313:41|285:13,1,75.0000028610231,2|0,3:2|0:0,0:0:0:0:
415,196,63400,2,0,P|432:135|432:94,1,75.0000028610231,10|0,0:0|0:0,0:0:0:0:
500,310,63697,2,0,P|333:263|223:263,1,225.000008583069,2|0,0:0|2:0,0:0:0:0:
170,221,64291,2,0,P|138:276|110:304,1,75.0000028610231,2|0,0:0|0:0,0:0:0:0:
25,179,64588,2,0,P|190:132|298:132,1,225.000008583069,10|0,0:0|2:0,0:0:0:0:
407,180,65182,38,0,L|333:165,1,50,2|0,0:0|3:0,0:0:0:0:
456,265,65479,2,0,L|382:280,1,50,2|0,3:2|0:0,0:0:0:0:
401,369,65776,2,0,L|327:354,1,50,10|0,0:0|0:0,0:0:0:0:
146,297,66073,2,0,L|328:262,1,150,2|0,0:0|2:0,0:0:0:0:
206,139,66667,2,0,L|217:195,1,50,2|0,0:0|0:0,0:0:0:0:
304,65,66964,2,0,L|156:36,1,150,10|0,0:0|2:0,0:0:0:0:
63,47,67558,1,0,3:0:0:0:
94,133,67707,1,0,3:0:0:0:
63,219,67855,1,0,3:0:0:0:
94,305,68004,1,0,3:0:0:0:
199,278,68152,2,0,P|252:260|276:262,1,50,8|0,0:0|0:0,0:0:0:0:
300,154,68449,2,0,P|350:178|365:197,1,50,0|0,3:0|0:0,0:0:0:0:
477,327,68746,38,0,P|459:203|472:171,1,150.000005722046,0|0,3:0|3:0,0:0:0:0:
442,86,69192,1,0,3:0:0:0:
350,79,69340,2,0,P|343:42|326:10,1,75.0000028610231,10|0,0:0|0:0,0:0:0:0:
241,78,69637,2,0,P|208:146|182:166,1,75.0000028610231,2|0,0:0|0:0,0:0:0:0:
68,102,69934,2,0,P|102:88|132:65,1,75.0000028610231,2|0,0:0|0:0,0:0:0:0:
104,220,70231,2,0,P|144:232|178:259,1,75.0000028610231,2|0,0:0|0:0,0:0:0:0:
298,265,70528,2,0,P|286:305|259:339,1,75.0000028610231,10|0,0:0|0:0,0:0:0:0:
240,202,70825,1,2,0:0:0:0:
284,95,70974,6,0,P|408:116|516:217,1,225.000008583069,2|0,0:0|0:0,0:0:0:0:
383,282,71717,2,0,P|425:274|379:347,1,150.000005722046,8|0,0:0|0:0,0:0:0:0:
292,303,72162,2,0,P|220:315|204:324,1,75.0000028610231,0|0,3:0|0:0,0:0:0:0:
235,209,72459,1,0,3:0:0:0:
152,105,72608,2,0,P|224:117|235:126,1,75.0000028610231,0|0,3:0|0:0,0:0:0:0:
320,62,72905,2,0,P|332:134|351:151,1,75.0000028610231,8|0,3:2|3:0,0:0:0:0:
429,116,73202,1,0,0:0:0:0:
429,353,73499,85,0,3:0:0:0:
257,315,74093,2,0,P|300:315|348:294,3,75.0000028610231,2|2|2|2,0:0|0:0|0:0|0:0,0:0:0:0:
187,226,75281,1,2,0:0:0:0:
42,278,75578,1,2,0:0:0:0:
42,278,75726,6,0,L|52:171,1,94.9999974632264,2|0,3:2|0:0,0:0:0:0:
47,95,76172,2,0,L|114:103,1,47.4999987316132,2|0,3:2|0:0,0:0:0:0:
191,30,76469,1,2,3:2:0:0:
191,30,76617,2,0,L|201:142,1,94.9999974632264,2|2,3:2|3:2,0:0:0:0:
291,90,77063,1,2,3:2:0:0:
320,292,77360,86,0,P|302:234|307:210,1,75.0000028610231,2|0,2:0|3:0,0:0:0:0:
181,329,77657,2,0,P|194:269|211:252,1,75.0000028610231,2|0,0:0|0:0,0:0:0:0:
39,299,77954,2,0,P|81:254|104:248,1,75.0000028610231,2|0,3:2|0:0,0:0:0:0:
60,118,78251,21,4,3:2:0:0:
211,62,78697,1,0,3:0:0:0:
290,106,78994,1,0,3:0:0:0:
290,106,79142,1,0,3:0:0:0:
369,72,79439,1,0,3:0:0:0:
282,221,80033,1,0,3:0:0:0:
453,236,80627,5,0,3:0:0:0:
323,144,80924,1,0,3:0:0:0:
323,144,81073,1,0,3:0:0:0:
282,221,81370,1,0,3:0:0:0:
282,221,81518,1,0,3:0:0:0:
195,214,81816,1,0,3:0:0:0:
82,291,82113,6,0,P|120:297|152:293,1,37.5000014305115,2|0,0:0|0:0,0:0:0:0:
65,204,82410,2,0,P|103:210|135:206,1,37.5000014305115,2|0,0:0|0:0,0:0:0:0:
48,117,82707,2,0,P|86:123|118:119,1,37.5000014305115,2|0,0:0|0:0,0:0:0:0:
175,61,83004,69,0,3:0:0:0:
254,118,83301,1,0,3:0:0:0:
254,118,83449,1,0,3:0:0:0:
350,105,83746,1,0,3:0:0:0:
350,105,83895,1,0,3:0:0:0:
412,164,84192,1,0,3:0:0:0:
345,274,84637,1,0,3:0:0:0:
233,292,85083,1,0,3:0:0:0:
256,192,85231,12,0,87756,0:0:0:0:
