osu file format v14

[General]
AudioFilename: audio.mp3
AudioLeadIn: 0
PreviewTime: 49588
Countdown: 0
SampleSet: Soft
StackLeniency: 0.6
Mode: 0
LetterboxInBreaks: 0
WidescreenStoryboard: 1

[Editor]
Bookmarks: 11427,25974,30132,39637,49446,59241,68746,73209,77961,83004
DistanceSpacing: 1
BeatDivisor: 4
GridSize: 16
TimelineZoom: 1.3

[Metadata]
Title:through the dark (TV Size)
TitleUnicode:through the dark (TV Size)
Artist:Yasuda Rei
ArtistUnicode:安田レイ
Creator:- ascended -
Version:ascended cycopton's hard
Source:白猫プロジェクト ZERO CHRONICLE
Tags:ゼロ・クロニクル ゼロクロニクル shironeko project purojekuto ed ending whitecat white cat videogame video game Colopl funimation 白猫テニス Tenisu j-pop jpop j pop Sony Music Japan anime animation japanese jp wanpachi cycopton
BeatmapID:2457844
BeatmapSetID:1178549

[Difficulty]
HPDrainRate:4.5
CircleSize:3.7
OverallDifficulty:6
ApproachRate:7
SliderMultiplier:2
SliderTickRate:1

[Events]
//Background and Video events
0,0,"man this ed is actually pog.png",0,0
Video,18,"pog pog pog pog pog pog.mp4"
//Break Periods
//Storyboard Layer 0 (Background)
//Storyboard Layer 1 (Fail)
//Storyboard Layer 2 (Pass)
//Storyboard Layer 3 (Foreground)
//Storyboard Layer 4 (Overlay)
//Storyboard Sound Samples

[TimingPoints]
866,677.966101694915,4,2,1,20,1,0
11713,-100,4,2,1,40,0,0
11717,594.059405940594,4,2,1,40,1,0
11717,-111.111111111111,4,2,1,40,0,0
18400,-111.111111111111,4,2,1,40,0,0
18548,-111.111111111111,4,2,1,40,0,0
21072,-111.111111111111,4,2,1,5,0,0
21221,-111.111111111111,4,2,1,40,0,0
26419,-111.111111111111,4,2,1,5,0,0
26568,-111.111111111111,4,2,1,40,0,0
29390,-111.111111111111,4,2,1,40,0,0
30132,-111.111111111111,4,2,1,40,0,0
30577,-111.111111111111,4,2,1,40,0,0
30726,-100,4,2,1,50,0,0
34885,-100,4,2,1,50,0,0
35330,-100,4,2,1,50,0,0
35479,-100,4,2,1,50,0,0
39637,-100,4,2,1,50,0,0
40156,-100,4,2,1,50,0,0
40231,-100,4,2,1,50,0,0
46617,-100,4,2,1,5,0,0
46766,-100,4,2,1,50,0,0
48696,-100,4,2,1,50,0,0
48845,-100,4,2,1,50,0,0
49736,-76.9230769230769,4,2,1,70,0,1
50181,-76.9230769230769,4,2,1,5,0,1
50330,-76.9230769230769,4,2,1,70,0,1
50775,-76.9230769230769,4,2,1,5,0,1
50924,-76.9230769230769,4,2,1,70,0,1
51369,-76.9230769230769,4,2,1,5,0,1
51518,-76.9230769230769,4,2,1,70,0,1
51963,-76.9230769230769,4,2,1,5,0,1
52113,-76.9230769230769,4,2,1,70,0,1
53301,-76.9230769230769,4,2,1,70,0,1
54637,-76.9230769230769,4,2,1,5,0,1
54786,-76.9230769230769,4,2,1,70,0,1
55528,-76.9230769230769,4,2,1,5,0,1
55677,-76.9230769230769,4,2,1,70,0,1
57013,-76.9230769230769,4,2,1,5,0,1
57162,-76.9230769230769,4,2,1,70,0,1
57904,-76.9230769230769,4,2,1,70,0,1
58053,-76.9230769230769,4,2,1,70,0,1
58647,-76.9230769230769,4,2,1,70,0,1
59241,-76.9230769230769,4,2,1,70,0,1
59686,-76.9230769230769,4,2,1,5,0,1
59835,-76.9230769230769,4,2,1,70,0,1
60280,-76.9230769230769,4,2,1,5,0,1
60429,-76.9230769230769,4,2,1,70,0,1
60874,-76.9230769230769,4,2,1,5,0,1
61023,-76.9230769230769,4,2,1,70,0,1
61468,-76.9230769230769,4,2,1,5,0,1
61617,-76.9230769230769,4,2,1,70,0,1
62806,-76.9230769230769,4,2,1,70,0,1
64142,-76.9230769230769,4,2,1,5,0,1
64291,-76.9230769230769,4,2,1,70,0,1
65033,-76.9230769230769,4,2,1,5,0,1
65182,-76.9230769230769,4,2,1,70,0,1
66518,-76.9230769230769,4,2,1,5,0,1
66667,-76.9230769230769,4,2,1,70,0,1
67409,-76.9230769230769,4,2,1,70,0,1
67558,-76.9230769230769,4,2,1,70,0,1
68746,-76.9230769230769,4,2,1,70,0,1
73499,-100,4,2,1,50,0,0
73944,-100,4,2,1,5,0,0
74093,-100,4,2,1,50,0,0
75726,-100,4,2,1,70,0,0
76023,-100,4,2,1,5,0,0
76172,-100,4,2,1,70,0,0
78251,-100,4,2,1,40,0,0
87756,-100,4,2,1,40,0,0

[Colours]
Combo1 : 143,210,243
Combo2 : 83,74,74
Combo3 : 218,5,5
Combo4 : 200,205,227
Combo5 : 78,186,236
Combo6 : 156,146,146
Combo7 : 251,79,79

[HitObjects]
134,81,11717,5,0,3:0:0:0:
84,200,12014,1,2,0:0:0:0:
173,191,12311,1,2,0:0:0:0:
262,182,12608,1,2,3:2:0:0:
225,263,12905,1,2,0:0:0:0:
314,255,13202,1,2,0:0:0:0:
314,255,13350,1,2,0:0:0:0:
461,247,13796,5,2,0:0:0:0:
455,201,13944,1,2,0:0:0:0:
449,156,14093,1,2,0:0:0:0:
393,100,14390,1,2,0:0:0:0:
393,100,14538,1,2,0:0:0:0:
312,105,14835,1,2,0:0:0:0:
312,105,14983,1,2,0:0:0:0:
317,362,16469,85,0,3:0:0:0:
202,314,16766,1,2,0:0:0:0:
193,225,17063,1,2,0:0:0:0:
184,136,17360,1,2,3:2:0:0:
257,84,17657,1,2,0:0:0:0:
176,47,17954,1,2,0:0:0:0:
176,47,18103,1,2,0:0:0:0:
97,148,18548,1,2,0:0:0:0:
97,148,18697,1,2,0:0:0:0:
466,73,20627,2,0,L|326:55,1,134.999995880127,0|0,3:0|2:0,0:0:0:0:
287,51,21221,5,0,3:0:0:0:
340,143,21518,1,2,0:0:0:0:
331,232,21816,2,0,P|276:208|230:222,1,89.9999972534181,2|0,0:0|3:0,0:0:0:0:
148,299,22410,2,0,L|143:254,1,44.999998626709,2|2,0:0|0:0,0:0:0:0:
131,210,22707,2,0,L|136:165,1,44.999998626709,2|2,0:0|0:0,0:0:0:0:
142,120,23004,1,2,0:0:0:0:
34,177,23301,1,2,0:0:0:0:
251,11,23820,85,2,0:0:0:0:
257,56,23969,1,2,0:0:0:0:
255,114,24192,2,0,B|351:111|307:45|436:35,1,179.999994506836,2|2,0:0|0:0,0:0:0:0:
418,82,24935,1,2,0:0:0:0:
412,128,25083,1,2,0:0:0:0:
406,174,25231,1,2,0:0:0:0:
415,308,25677,1,2,0:0:0:0:
281,285,25974,6,0,B|208:277|226:331|146:318,1,134.999995880127,0|0,3:0|2:0,0:0:0:0:
136,337,26568,2,0,P|92:296|102:242,1,89.9999972534181,2|2,0:0|0:0,0:0:0:0:
165,226,27162,1,2,0:0:0:0:
151,138,27459,2,0,L|140:76,1,44.999998626709,2|0,3:2|0:0,0:0:0:0:
178,10,27756,2,0,L|54:32,1,89.9999972534181,2|2,3:2|3:2,0:0:0:0:
38,86,28202,1,2,0:0:0:0:
25,97,28350,86,0,B|-3:168|30:296|139:272|207:268|228:214|243:173,1,359.999989013672
406,250,30132,1,2,0:0:0:0:
371,50,30726,70,0,B|193:58|193:58|122:60|111:111|120:165|195:162|195:162|334:157|334:157|393:153|405:199|399:251|332:254|332:254|291:254,1,700,6|2,0:0|0:0,0:0:0:0:
261,333,33103,2,0,B|382:348|442:320|446:305|497:215|484:164|419:98,1,400,2|0,0:0|0:0,0:0:0:0:
45,174,34885,2,0,L|49:288,1,100,2|0,0:0|0:0,0:0:0:0:
85,346,35479,86,0,B|74:46|74:46|222:-7|172:111|343:38|343:38|307:89|365:155,1,700,2|2,0:0|3:2,0:0:0:0:
325,226,37855,2,0,B|279:176|268:137|268:137|212:144|150:108|150:108|156:303,1,400,2|0,0:0|0:0,0:0:0:0:
400,282,39637,2,0,P|356:233|314:226,1,100,2|0,0:0|0:0,0:0:0:0:
256,313,40231,6,0,B|217:335|117:341|2:278|158:188|5:147|5:147|158:188|68:33|199:35|282:90|305:129,1,700,2|2,0:0|0:0,0:0:0:0:
317,235,42608,2,0,B|364:235|412:186|412:138|412:138|412:282|509:186|509:354,1,400,2|0,0:0|0:0,0:0:0:0:
392,339,44093,2,0,B|283:370|314:276|205:307,1,200,0|0,0:0|3:0,0:0:0:0:
118,352,44984,85,0,0:0:0:0:
132,364,45281,1,2,0:0:0:0:
204,308,45578,1,2,0:0:0:0:
189,219,45875,1,2,0:0:0:0:
104,188,46172,2,0,P|90:130|96:33,1,150,2|0,0:0|2:0,0:0:0:0:
85,29,46766,2,0,P|128:71|179:66,1,100,2|2,0:0|0:0,0:0:0:0:
254,25,47360,5,0,0:0:0:0:
319,116,47657,2,0,P|311:173|305:222,2,100,2|2|2,0:0|0:0|0:0,0:0:0:0:
263,36,48548,2,0,P|205:48|176:89,1,100,2|2,0:0|0:0,0:0:0:0:
203,175,49142,2,0,P|148:155|97:144,1,100,2|0,3:2|0:0,0:0:0:0:
25,46,49736,54,0,P|9:115|45:239,1,194.999991073609,6|0,0:0|2:0,0:0:0:0:
11,332,50330,2,0,P|102:300|197:316,1,194.999991073609,10|0,0:0|2:0,0:0:0:0:
255,381,50924,2,0,P|286:289|270:194,1,194.999991073609,2|0,0:0|2:0,0:0:0:0:
201,87,51518,2,0,P|292:118|387:102,1,194.999991073609,10|0,0:0|2:0,0:0:0:0:
483,36,52113,2,0,P|467:131|498:222,1,194.999991073609,2|0,0:0|3:0,0:0:0:0:
507,309,52707,2,0,P|411:294|320:325,1,194.999991073609,10|0,0:0|3:0,0:0:0:0:
239,220,53301,6,0,L|228:291,1,64.9999970245363,2|0,0:0|3:0,0:0:0:0:
217,359,53598,2,0,L|146:348,1,64.9999970245363,2|0,3:2|0:0,0:0:0:0:
78,337,53895,2,0,L|89:266,1,64.9999970245363,10|0,0:0|0:0,0:0:0:0:
64,198,54192,2,0,P|51:113|149:68,1,194.999991073609,2|0,0:0|2:0,0:0:0:0:
212,108,54786,2,0,P|252:121|288:121,1,64.9999970245363,2|0,0:0|0:0,0:0:0:0:
372,74,55083,2,0,P|339:174|339:264,1,194.999991073609,10|0,0:0|2:0,0:0:0:0:
310,331,55677,37,2,0:0:0:0:
201,290,55974,1,2,3:2:0:0:
176,190,56271,1,10,0:0:0:0:
251,112,56568,2,0,B|367:153|326:78|442:118,1,194.999991073609,2|0,0:0|2:0,0:0:0:0:
492,180,57162,1,2,0:0:0:0:
418,277,57459,1,10,0:0:0:0:
230,234,58053,2,0,L|163:242,1,64.9999970245363,0|0,3:0|3:0,0:0:0:0:
97,252,58350,1,0,3:0:0:0:
31,261,58499,1,0,3:0:0:0:
34,161,58647,54,0,P|88:138|126:145,1,64.9999970245363,8|0,0:0|0:0,0:0:0:0:
158,91,58944,2,0,P|189:96|217:114,1,64.9999970245363,2|0,0:0|0:0,0:0:0:0:
306,172,59241,86,0,B|332:221|332:221|345:67,1,194.999991073609,2|0,0:0|2:0,0:0:0:0:
436,66,59835,2,0,B|419:260|419:260,1,194.999991073609,10|0,0:0|2:0,0:0:0:0:
458,344,60429,2,0,B|386:354|386:354|353:313|353:313|274:321,1,194.999991073609,2|0,0:0|2:0,0:0:0:0:
203,362,61023,2,0,B|115:329|115:329|106:330|106:330|8:296,1,194.999991073609,10|0,0:0|2:0,0:0:0:0:
72,224,61617,2,0,B|92:86|92:86|50:18,1,194.999991073609,2|0,0:0|3:0,0:0:0:0:
6,102,62212,2,0,L|220:80,1,194.999991073609,10|0,0:0|3:0,0:0:0:0:
293,8,62806,6,0,P|288:55|274:74,1,64.9999970245363,2|0,0:0|3:0,0:0:0:0:
340,131,63103,2,0,P|383:111|406:114,1,64.9999970245363,2|0,3:2|0:0,0:0:0:0:
462,166,63400,2,0,P|457:213|443:232,1,64.9999970245363,10|0,0:0|0:0,0:0:0:0:
341,234,63697,2,0,B|264:226|264:226|224:242|224:242|150:231,1,194.999991073609,2|0,0:0|2:0,0:0:0:0:
70,216,64291,2,0,L|85:322,1,64.9999970245363,2|0,0:0|0:0,0:0:0:0:
37,368,64588,2,0,B|176:332|176:332|243:351,1,194.999991073609,10|0,0:0|2:0,0:0:0:0:
298,366,65182,37,2,0:0:0:0:
376,279,65479,1,2,3:2:0:0:
325,173,65776,1,10,0:0:0:0:
428,118,66073,2,0,L|214:138,1,194.999991073609,2|0,0:0|2:0,0:0:0:0:
153,149,66667,1,2,0:0:0:0:
135,256,66964,1,10,0:0:0:0:
328,325,67558,1,0,3:0:0:0:
360,268,67706,1,0,3:0:0:0:
337,206,67855,2,0,P|318:179|292:159,1,64.9999970245363,0|0,3:0|3:0,0:0:0:0:
240,120,68152,2,0,P|258:93|284:73,1,64.9999970245363,8|0,0:0|0:0,0:0:0:0:
269,9,68449,1,0,3:0:0:0:
458,41,68746,38,0,B|463:162|414:125|439:241,1,194.999991073609,0|0,3:0|3:0,0:0:0:0:
462,331,69340,2,0,P|414:311|383:312,1,64.9999970245363,10|0,0:0|0:0,0:0:0:0:
322,333,69637,2,0,P|274:353|243:352,1,64.9999970245363,2|0,0:0|0:0,0:0:0:0:
219,283,69934,2,0,P|239:235|238:204,1,64.9999970245363,2|0,0:0|0:0,0:0:0:0:
191,158,70231,2,0,P|171:110|172:79,1,64.9999970245363,2|0,0:0|0:0,0:0:0:0:
211,26,70528,2,0,P|163:6|132:7,1,64.9999970245363,10|0,0:0|0:0,0:0:0:0:
85,46,70825,1,2,0:0:0:0:
10,20,70974,2,0,P|33:122|28:215,1,194.999991073609,2|0,0:0|0:0,0:0:0:0:
14,287,71568,1,0,0:0:0:0:
97,351,71717,6,0,P|140:340|243:339,1,129.999994049073,8|0,0:0|0:0,0:0:0:0:
285,286,72163,2,0,P|328:297|357:298,1,64.9999970245363,0|0,3:0|0:0,0:0:0:0:
423,333,72459,1,0,3:0:0:0:
423,333,72608,2,0,P|412:290|411:261,1,64.9999970245363,0|0,3:0|0:0,0:0:0:0:
425,192,72905,1,8,3:2:0:0:
363,144,73053,1,0,3:0:0:0:
287,163,73202,1,0,0:0:0:0:
119,249,73499,86,0,P|79:218|4:133,1,150,0|0,3:0|2:0,0:0:0:0:
3,125,74093,2,0,P|51:93|102:111,1,100,2|2,0:0|0:0,0:0:0:0:
160,22,74687,1,2,0:0:0:0:
160,22,74984,1,2,0:0:0:0:
254,89,75281,2,0,P|321:50|376:37,1,100,2|2,0:0|0:0,0:0:0:0:
359,30,75726,6,0,L|346:161,1,100,2|0,3:2|2:0,0:0:0:0:
273,171,76172,2,0,L|279:236,1,50,2|0,3:2|0:0,0:0:0:0:
294,306,76469,1,2,3:2:0:0:
294,306,76617,2,0,B|197:342|197:342|153:325,1,150,2|2,3:2|3:2,0:0:0:0:
110,215,77360,2,0,P|152:203|188:183,1,50,2|0,2:0|3:0,0:0:0:0:
225,156,77657,2,0,P|267:168|303:188,1,50,2|0,0:0|0:0,0:0:0:0:
354,212,77954,1,2,3:2:0:0:
402,345,78251,5,4,3:2:0:0:
492,230,78697,1,0,3:0:0:0:
444,171,78994,1,0,3:0:0:0:
444,171,79142,1,0,3:0:0:0:
205,144,80033,1,0,3:0:0:0:
93,64,80627,5,0,3:0:0:0:
58,138,80924,1,0,3:0:0:0:
58,138,81073,1,0,3:0:0:0:
81,214,81370,1,0,3:0:0:0:
81,214,81518,1,0,3:0:0:0:
45,286,81816,1,0,3:0:0:0:
113,327,82113,6,0,P|150:315|174:315,1,50,2|0,0:0|0:0,0:0:0:0:
203,286,82410,2,0,P|240:298|264:298,1,50,2|0,0:0|0:0,0:0:0:0:
296,318,82707,2,0,P|299:293|308:270,1,50,2|0,0:0|0:0,0:0:0:0:
391,233,83004,69,0,3:0:0:0:
422,139,83301,1,0,3:0:0:0:
422,139,83449,1,0,3:0:0:0:
343,79,83746,1,0,3:0:0:0:
343,79,83895,1,0,3:0:0:0:
167,153,84637,2,0,P|96:144|10:136,1,150,0|0,3:0|3:0,0:0:0:0:
256,192,85231,12,0,87756,0:0:0:0:
