osu file format v14

[General]
AudioFilename: audio.mp3
AudioLeadIn: 0
PreviewTime: 51812
Countdown: 0
SampleSet: Soft
StackLeniency: 0.7
Mode: 0
LetterboxInBreaks: 0
WidescreenStoryboard: 1

[Editor]
Bookmarks: 519,28264,51675,79594,96241,108553,136473,162831,190577
DistanceSpacing: 0.1
BeatDivisor: 12
GridSize: 16
TimelineZoom: 2

[Metadata]
Title:blooming
TitleUnicode:blooming
Artist:Yasuda Rei
ArtistUnicode:安田レイ
Creator:Glaceon
Version:Tomatsu's Insane
Source:レイトン ミステリー探偵社 ~カトリーのナゾトキファイル~
Tags:japanese female vocals rachel rhodes Layton Mystery Tanteisha: Katri no Nazotoki File opening op op2 agatsu tomadoi shiinoha kotone
BeatmapID:1964821
BeatmapSetID:937782

[Difficulty]
HPDrainRate:5
CircleSize:4.2
OverallDifficulty:8.2
ApproachRate:9
SliderMultiplier:1.6
SliderTickRate:1

[Events]
//Background and Video events
0,0,"meowuwu.jpg",0,0
//Break Periods
//Storyboard Layer 0 (Background)
//Storyboard Layer 1 (Fail)
//Storyboard Layer 2 (Pass)
//Storyboard Layer 3 (Foreground)
//Storyboard Sound Samples

[TimingPoints]
-818,346.820809248555,4,2,22,80,1,0
569,-250,4,2,22,80,0,0
5771,-125,4,2,22,80,0,0
6031,-125,4,2,22,5,0,0
6118,-125,4,2,22,80,0,0
14268,-100,4,2,22,80,0,0
17216,-125,4,2,22,55,0,0
21551,-100,4,2,22,55,0,0
21898,-83.3333333333333,4,2,22,55,0,0
22245,-71.4285714285714,4,2,22,55,0,0
22765,-125,4,2,22,55,0,0
27101,-100,4,2,22,55,0,0
27621,-83.3333333333333,4,2,22,55,0,0
28314,-111.111111111111,4,2,22,65,0,0
32303,-125,4,2,22,65,0,0
32650,-99.9999999999999,4,2,22,65,0,0
32997,-83.3333333333333,4,2,22,65,0,0
33343,-71.4285714285714,4,2,22,65,0,0
33864,-111.111111111111,4,2,22,65,0,0
37852,-125,4,2,22,65,0,0
38199,-100,4,2,22,65,0,0
38719,-111.111111111111,4,2,22,65,0,0
39326,-111.111111111111,4,2,22,5,0,0
39413,-125,4,2,22,65,0,0
44095,-100,4,2,22,65,0,0
44962,-111.111111111111,4,2,22,75,0,0
47736,-100,4,2,22,75,0,0
51378,-71.4285714285714,4,2,22,75,0,0
51725,-66.6666666666667,4,2,22,80,0,1
52245,-76.9230769230769,4,2,22,80,0,1
68459,-76.9230769230769,4,2,22,5,0,1
68546,-125,4,2,22,80,0,0
74095,-83.3333333333333,4,2,22,80,0,1
76869,-100,4,2,22,80,0,0
77563,-100,4,2,22,50,0,0
79124,-100,4,2,22,65,0,0
79557,-100,4,2,22,5,0,0
79644,-100,4,2,22,80,0,0
85193,-111.111111111111,4,2,22,65,0,0
89182,-125,4,2,22,65,0,0
89528,-100,4,2,22,65,0,0
89875,-83.3333333333333,4,2,22,65,0,0
90222,-71.4285714285714,4,2,22,65,0,0
90742,-111.111111111111,4,2,22,65,0,0
94731,-111.111111111111,4,2,22,65,0,0
95077,-100,4,2,22,65,0,0
95424,-83.3333333333333,4,2,22,65,0,0
96291,-125,4,2,22,65,0,0
101840,-125,4,2,22,75,0,0
102187,-100,4,2,22,75,0,0
108257,-71.4285714285715,4,2,22,75,0,0
108603,-66.6666666666667,4,2,22,80,0,1
109124,-76.9230769230769,4,2,22,80,0,1
125338,-76.9230769230769,4,2,22,5,0,1
125424,-125,4,2,22,80,0,0
130973,-83.3333333333333,4,2,22,80,0,1
133748,-100,4,2,22,80,0,0
134442,-100,4,2,22,50,0,0
136002,-100,4,2,22,65,0,0
136436,-100,4,2,22,5,0,0
136523,-83.3333333333333,4,2,22,80,0,0
147621,-100,4,2,22,80,0,0
157679,-83.3333333333333,4,2,22,80,0,0
165482,-66.6666666666667,4,2,22,80,0,1
166349,-76.9230769230769,4,2,22,80,0,1
179528,-125,4,2,22,80,0,0
185077,-83.3333333333333,4,2,22,80,0,1
187852,-100,4,2,22,80,0,0
189933,-100,4,2,22,50,0,0
190106,-100,4,2,22,80,0,0
190540,-100,4,2,22,5,0,0
190627,-83.3333333333333,4,2,22,80,0,0
195829,-83.3333333333333,4,2,22,10,0,0
196002,-100,4,2,22,80,0,0
196176,-263.157894736842,4,2,22,80,0,0
196869,-263.157894736842,4,2,22,70,0,0
197563,-263.157894736842,4,2,22,60,0,0
198257,-263.157894736842,4,2,22,50,0,0
198950,-263.157894736842,4,2,22,40,0,0
199644,-263.157894736842,4,2,22,30,0,0
200338,-263.157894736842,4,2,22,20,0,0

[Colours]
Combo1 : 255,79,79
Combo2 : 255,168,211
Combo3 : 117,255,117
Combo4 : 185,185,221

[HitObjects]
421,49,569,6,0,B|394:171|465:114|432:243,1,192,6|0,1:2|0:0,0:0:0:0:
354,339,1956,2,0,P|398:321|446:327,1,96,6|8,1:2|0:0,0:0:0:0:
505,372,2650,1,8,0:0:0:0:
286,292,2997,1,2,3:2:0:0:
189,353,3343,6,0,P|181:251|180:189,1,160,6|0,1:2|3:2,0:0:0:0:
180,193,4384,1,0,3:2:0:0:
60,47,4731,6,0,P|87:84|81:163,1,128,6|2,1:2|0:0,0:0:0:0:
10,139,5598,1,0,3:2:0:0:
129,254,5771,6,0,P|81:254|29:269,1,96,10|0,0:0|0:0,0:0:0:0:
34,266,6118,6,0,B|108:272|81:312|161:332,2,128,6|8|8,3:2|3:2|3:2,0:0:0:0:
170,182,6985,1,0,3:2:0:0:
170,182,7158,2,0,P|165:212|166:257,1,64,8|0,3:2|3:2,0:0:0:0:
225,288,7418,1,0,3:2:0:0:
233,293,7505,2,0,P|307:280|424:286,1,192,10|0,3:2|3:2,0:0:0:0:
402,141,8199,2,0,P|383:165|378:212,1,64,8|0,3:2|3:2,0:0:0:0:
473,345,8546,2,0,P|492:321|497:274,1,64,8|0,3:2|3:2,0:0:0:0:
466,226,8806,1,0,3:2:0:0:
466,226,8892,6,0,P|457:153|454:95,2,128,10|8|10,3:2|3:2|3:2,0:0:0:0:
341,333,9760,1,0,3:2:0:0:
341,333,9933,2,0,P|345:299|346:263,1,64,8|0,3:2|3:2,0:0:0:0:
202,182,10280,6,0,P|260:197|330:159,1,128,10|8,3:2|3:2,0:0:0:0:
277,109,10800,1,0,3:2:0:0:
357,17,10973,2,0,P|352:47|350:83,1,64,10|0,3:2|3:2,0:0:0:0:
393,140,11234,1,0,3:2:0:0:
399,147,11320,1,8,3:2:0:0:
88,59,11667,6,0,P|148:57|231:47,1,128,6|8,1:2|0:0,0:0:0:0:
260,220,12187,2,0,P|196:212|132:210,1,128,6|8,1:2|0:0,0:0:0:0:
332,46,12708,2,0,P|318:90|317:152,1,96,6|0,1:2|0:0,0:0:0:0:
315,139,13054,5,2,3:2:0:0:
512,189,13228,2,0,P|448:188|379:199,2,128,2|2|2,3:2|3:2|0:0,0:0:0:0:
488,263,14095,1,2,0:0:0:0:
333,330,14268,6,0,B|242:317|273:374|181:362,1,160,6|0,0:0|3:2,0:0:0:0:
45,268,14788,2,0,P|108:280|210:287,1,160,10|0,0:0|0:0,0:0:0:0:
103,384,15309,1,2,1:2:0:0:
103,384,15482,2,0,P|95:344|108:301,1,80,8|0,0:0|3:2,0:0:0:0:
210,182,15829,5,2,3:2:0:0:
217,171,16002,1,10,0:0:0:0:
48,217,16176,5,10,3:2:0:0:
55,228,16349,1,10,0:0:0:0:
245,274,16523,5,10,3:2:0:0:
132,192,16696,1,10,0:0:0:0:
125,186,17043,5,2,0:0:0:0:
251,278,17216,2,0,P|310:272|391:270,1,128,6|0,3:2|3:2,0:0:0:0:
457,184,17736,1,2,0:0:0:0:
449,191,17910,2,0,P|385:188|321:182,1,128,0|0,3:2|3:2,0:0:0:0:
211,101,18430,5,2,0:0:0:0:
267,43,18603,2,0,P|259:75|255:118,1,64,2|0,3:2|0:0,0:0:0:0:
385,148,18950,2,0,P|393:116|397:73,1,64,2|0,3:2|0:0,0:0:0:0:
244,193,19297,2,0,B|247:272|273:239|276:318,1,128,2|0,3:2|3:2,0:0:0:0:
209,347,19817,1,2,0:0:0:0:
45,266,19991,6,0,P|101:280|184:281,2,128,2|2|2,3:2|3:2|3:2,0:0:0:0:
15,196,20858,1,2,0:0:0:0:
15,196,21031,1,2,3:2:0:0:
84,89,21205,6,0,P|84:122|92:162,1,64,2|0,0:0|3:2,0:0:0:0:
170,282,21551,6,0,P|170:249|182:201,1,80,2|0,0:0|3:2,0:0:0:0:
255,38,21898,6,0,P|255:71|287:128,1,95.9999970703126,0|0,0:0|3:2,0:0:0:0:
326,353,22245,6,0,P|331:308|379:266,1,111.999996582031,0|0,0:0|3:2,0:0:0:0:
424,329,22592,1,2,0:0:0:0:
305,365,22765,6,0,P|298:286|289:229,1,128,6|0,3:2|3:2,0:0:0:0:
414,116,23286,1,2,0:0:0:0:
420,126,23459,2,0,P|410:189|405:253,1,128,2|0,3:2|3:2,0:0:0:0:
217,157,23979,5,2,0:0:0:0:
277,107,24153,2,0,P|307:114|339:113,1,64,2|0,3:2|0:0,0:0:0:0:
391,236,24499,2,0,P|359:235|328:242,1,64,2|0,3:2|0:0,0:0:0:0:
468,60,24846,2,0,P|459:125|459:197,1,128,2|0,3:2|3:2,0:0:0:0:
512,237,25366,1,2,0:0:0:0:
367,358,25540,6,0,P|423:330|493:346,2,128,2|2|2,3:2|3:2|3:2,0:0:0:0:
275,318,26407,1,2,0:0:0:0:
204,348,26580,1,2,3:2:0:0:
79,285,26754,6,0,P|85:253|89:206,1,64,2|0,0:0|3:2,0:0:0:0:
369,156,27101,6,0,P|363:124|360:66,1,80,0|0,0:0|3:2,0:0:0:0:
369,156,27447,1,0,0:0:0:0:
103,92,27621,6,0,B|218:76|180:157|286:139,1,191.999994140625,0|8,3:2|3:2,0:0:0:0:
267,66,28141,1,2,0:0:0:0:
304,241,28314,6,0,L|287:386,1,143.999995605469,6|8,1:2|0:0,0:0:0:0:
146,277,28835,1,2,0:0:0:0:
136,288,29008,2,0,B|55:297|85:339|-12:348,1,143.999995605469,2|8,0:0|0:0,0:0:0:0:
91,189,29528,1,2,0:0:0:0:
29,140,29702,6,0,P|35:105|39:62,1,71.9999978027344,2|0,1:2|0:0,0:0:0:0:
237,110,30049,2,0,P|231:75|227:32,1,71.9999978027344,10|0,0:0|0:0,0:0:0:0:
91,189,30395,2,0,P|168:210|199:283,1,143.999995605469,2|8,0:0|0:0,0:0:0:0:
172,338,30916,1,2,0:0:0:0:
338,273,31089,6,0,P|331:314|327:364,1,71.9999978027344,2|0,1:2|0:0,0:0:0:0:
187,191,31436,2,0,P|193:226|197:262,1,71.9999978027344,10|0,0:0|0:0,0:0:0:0:
328,121,31783,1,2,0:0:0:0:
264,74,31956,1,2,1:2:0:0:
340,92,32129,1,10,0:0:0:0:
177,102,32303,6,0,B|170:71|170:71|179:38,1,64,2|0,1:2|0:0,0:0:0:0:
336,16,32650,6,0,B|351:55|351:55|340:91,1,80,2|8,1:2|0:0,0:0:0:0:
150,219,32997,6,0,B|133:174|133:174|160:117,1,95.9999970703126,0|0,1:2|0:0,0:0:0:0:
367,122,33343,6,0,B|394:174|394:174|370:235,1,111.999996582031,0|8,1:2|0:0,0:0:0:0:
330,289,33690,1,2,0:0:0:0:
493,199,33864,6,0,L|478:356,1,143.999995605469,6|8,1:2|0:0,0:0:0:0:
374,223,34384,1,2,0:0:0:0:
367,210,34557,2,0,B|315:198|315:198|294:169|294:169|225:153,1,143.999995605469,2|8,0:0|0:0,0:0:0:0:
101,48,35077,1,2,0:0:0:0:
171,12,35251,6,0,B|185:49|185:49|174:99,1,71.9999978027344,2|0,1:2|0:0,0:0:0:0:
17,161,35598,2,0,B|3:124|3:124|14:74,1,71.9999978027344,10|0,0:0|0:0,0:0:0:0:
126,181,35945,2,0,L|133:340,1,143.999995605469,2|8,0:0|0:0,0:0:0:0:
202,362,36465,1,2,0:0:0:0:
313,286,36638,6,0,P|305:325|301:365,1,71.9999978027344,2|0,1:2|0:0,0:0:0:0:
169,238,36985,2,0,P|206:225|243:208,1,71.9999978027344,10|0,0:0|0:0,0:0:0:0:
348,62,37332,1,2,0:0:0:0:
287,11,37505,2,0,P|260:42|262:94,1,71.9999978027344,2|8,1:2|0:0,0:0:0:0:
386,197,37852,6,0,L|463:182,1,64,2|0,1:2|0:0,0:0:0:0:
295,384,38199,6,0,P|270:358|264:308,1,80,0|8,1:2|0:0,0:0:0:0:
295,384,38546,1,0,1:2:0:0:
448,184,38719,5,8,2:3:0:0:
438,262,38892,1,0,3:2:0:0:
428,340,39066,1,0,3:2:0:0:
200,127,39413,6,0,P|194:83|184:40,1,64,6|0,1:2|0:0,0:0:0:0:
342,185,39760,2,0,P|348:141|358:98,1,64,2|0,0:0|0:0,0:0:0:0:
195,223,40106,2,0,P|126:239|79:301,1,128,10|2,0:0|0:0,0:0:0:0:
260,366,40627,1,8,3:2:0:0:
270,358,40713,1,8,3:2:0:0:
281,350,40800,6,0,P|285:306|291:276,1,64,2|8,3:2|3:2,0:0:0:0:
403,124,41147,1,0,1:2:0:0:
403,124,41494,2,0,B|478:136|446:168|528:189,1,128,8|0,0:0|0:0,0:0:0:0:
372,278,42014,1,8,3:2:0:0:
367,265,42101,1,8,3:2:0:0:
367,252,42187,5,2,3:2:0:0:
300,322,42361,2,0,P|364:320|424:366,1,128,8|2,0:0|1:2,0:0:0:0:
223,258,42881,2,0,P|215:226|211:195,1,64,10|0,0:0|0:0,0:0:0:0:
291,62,43228,2,0,L|361:52,1,64,2|8,0:0|2:3,0:0:0:0:
369,60,43488,1,8,2:3:0:0:
381,67,43575,5,2,1:2:0:0:
447,104,43748,1,8,0:0:0:0:
482,24,43921,1,0,1:2:0:0:
342,234,44095,2,0,P|352:184|357:140,1,80,0|8,0:0|0:0,0:0:0:0:
512,307,44442,1,0,1:2:0:0:
498,228,44615,2,0,P|503:267|511:306,1,80,8|0,0:0|0:0,0:0:0:0:
342,234,44962,6,0,B|290:222|290:222|269:193|269:193|200:177,1,143.999995605469,6|0,3:2|3:2,0:0:0:0:
347,43,45482,1,2,0:0:0:0:
276,8,45655,2,0,P|236:17|191:23,1,71.9999978027344,2|0,3:2|0:0,0:0:0:0:
93,101,46002,1,2,3:2:0:0:
142,163,46176,1,2,0:0:0:0:
14,313,46349,6,0,P|25:241|34:170,2,143.999995605469,2|2|2,3:2|3:2|3:2,0:0:0:0:
69,370,47216,1,0,0:0:0:0:
206,262,47390,1,0,3:2:0:0:
150,205,47563,1,2,0:0:0:0:
176,383,47736,5,6,3:2:0:0:
315,293,47910,1,0,3:2:0:0:
325,311,47997,1,0,3:2:0:0:
326,333,48083,1,10,3:2:0:0:
150,205,48257,2,0,L|143:262,2,40,0|2|8,3:2|3:2|3:2,0:0:0:0:
299,101,48603,1,2,3:2:0:0:
317,98,48690,1,0,3:2:0:0:
335,94,48777,1,8,3:2:0:0:
151,17,48950,2,0,P|140:40|139:63,1,40,2|0,3:2|3:2,0:0:0:0:
246,193,49124,5,12,3:2:0:0:
265,217,49210,1,0,3:2:0:0:
273,248,49297,1,0,3:2:0:0:
268,279,49384,1,0,3:2:0:0:
248,304,49471,2,0,P|227:298|206:294,3,40,8|0|0|0,3:2|3:2|3:2|3:2,0:0:0:0:
401,384,49817,1,8,3:2:0:0:
385,356,49904,1,0,3:2:0:0:
378,324,49991,1,2,3:2:0:0:
380,292,50077,1,0,3:2:0:0:
399,265,50164,1,10,3:2:0:0:
423,242,50251,1,0,3:2:0:0:
438,213,50338,1,0,3:2:0:0:
441,181,50424,1,2,3:2:0:0:
427,152,50511,5,12,3:2:0:0:
207,95,50684,1,8,3:2:0:0:
224,199,50858,5,8,3:2:0:0:
397,51,51031,1,8,3:2:0:0:
423,242,51205,5,8,3:2:0:0:
207,95,51378,2,0,B|172:75|149:41|149:41|120:88|69:123,1,167.999994873047,8|0,3:2|0:0,0:0:0:0:
0,102,51725,6,0,B|113:95|59:169|174:172,1,180.000006866455,4|0,3:2|0:0,0:0:0:0:
157,171,52072,1,0,3:2:0:0:
22,291,52245,2,0,B|35:240|35:240|15:184,1,103.999995239258,10|0,0:0|0:0,0:0:0:0:
109,344,52592,1,2,0:0:0:0:
109,344,52765,1,0,1:2:0:0:
237,282,52939,1,8,0:0:0:0:
389,349,53112,6,0,B|372:221|433:277|407:133,1,207.999990478516,2|2,0:0|0:0,0:0:0:0:
226,182,53632,2,0,P|273:185|331:205,1,103.999995239258,8|2,0:0|0:0,0:0:0:0:
441,64,53979,1,0,0:0:0:0:
441,64,54153,1,0,3:2:0:0:
269,0,54326,2,0,P|285:49|289:100,1,103.999995239258,8|2,0:0|0:0,0:0:0:0:
289,100,54586,1,2,0:0:0:0:
289,100,54673,6,0,B|217:94|159:85|159:85|127:114|148:179,1,207.999990478516,0|10,3:2|0:0,0:0:0:0:
90,216,55193,1,2,0:0:0:0:
193,331,55366,1,2,0:0:0:0:
226,263,55540,1,0,3:2:0:0:
151,269,55713,1,10,0:0:0:0:
24,374,55887,6,0,P|75:376|140:387,1,103.999995239258,2|0,0:0|3:2,0:0:0:0:
140,190,56234,2,0,P|91:212|70:259,1,103.999995239258,2|8,0:0|0:0,0:0:0:0:
209,350,56580,2,0,B|310:330|271:377|367:365,1,155.999992858887,2|0,0:0|0:0,0:0:0:0:
360,365,56927,1,2,3:2:0:0:
268,248,57101,1,8,0:0:0:0:
396,106,57274,6,0,P|385:187|381:274,1,155.999992858887,2|0,0:0|0:0,0:0:0:0:
381,261,57621,1,2,0:0:0:0:
213,141,57794,1,10,0:0:0:0:
213,141,57968,2,0,P|265:147|302:113,1,103.999995239258,2|0,0:0|0:0,0:0:0:0:
147,280,58314,1,0,3:2:0:0:
115,211,58488,1,8,0:0:0:0:
177,288,58661,5,2,0:0:0:0:
37,368,58835,1,0,3:2:0:0:
42,363,59008,2,0,P|54:312|58:252,1,103.999995239258,2|10,0:0|0:0,0:0:0:0:
278,346,59355,2,0,P|205:329|136:368,1,155.999992858887,2|0,0:0|0:0,0:0:0:0:
137,366,59702,1,0,3:2:0:0:
5,213,59875,2,0,B|55:226|55:226|105:199,1,103.999995239258,8|2,0:0|0:0,0:0:0:0:
218,30,60222,6,0,B|184:148|257:105|214:238,1,207.999990478516,2|8,3:2|0:0,0:0:0:0:
183,109,60742,1,2,0:0:0:0:
444,99,60916,2,0,P|366:99|289:83,1,155.999992858887,2|0,0:0|0:0,0:0:0:0:
289,83,61262,1,8,0:0:0:0:
101,201,61436,5,2,1:2:0:0:
196,248,61783,5,2,1:2:0:0:
354,204,62129,5,2,1:2:0:0:
433,19,62476,5,0,3:2:0:0:
374,70,62650,5,8,0:0:0:0:
374,70,62736,1,0,1:2:0:0:
374,70,62823,2,0,L|386:233,1,155.999992858887,4|0,3:2|0:0,0:0:0:0:
385,225,63170,1,0,3:2:0:0:
481,362,63343,2,0,P|494:322|468:264,1,103.999995239258,14|0,0:0|0:0,0:0:0:0:
266,289,63690,2,0,P|253:329|279:387,1,103.999995239258,2|0,0:0|3:2,0:0:0:0:
378,327,64037,1,8,0:0:0:0:
168,247,64210,6,0,P|270:261|360:207,1,207.999990478516,2|2,0:0|0:0,0:0:0:0:
316,147,64731,1,10,0:0:0:0:
387,15,64904,2,0,B|367:63|367:63|389:118,1,103.999995239258,2|0,0:0|0:0,0:0:0:0:
211,180,65251,1,0,3:2:0:0:
245,114,65424,1,8,0:0:0:0:
304,190,65598,5,2,0:0:0:0:
169,114,65771,2,0,L|47:135,1,103.999995239258,0|2,3:2|0:0,0:0:0:0:
186,272,66118,1,10,0:0:0:0:
191,261,66291,1,2,0:0:0:0:
29,321,66465,2,0,L|142:344,1,103.999995239258,2|0,0:0|3:2,0:0:0:0:
112,264,66812,1,10,0:0:0:0:
335,315,66985,6,0,P|275:313|203:380,1,155.999992858887,2|0,0:0|0:0,0:0:0:0:
205,373,67332,2,0,P|226:271|233:194,1,155.999992858887,2|0,0:0|0:0,0:0:0:0:
231,219,67679,1,2,0:0:0:0:
403,153,67852,1,0,0:0:0:0:
403,153,68025,2,0,P|364:162|308:125,1,103.999995239258,2|8,3:2|0:0,0:0:0:0:
355,70,68372,1,8,3:2:0:0:
504,200,68546,6,0,B|405:201|441:282|347:306,1,192,6|0,3:2|3:2,0:0:0:0:
248,259,69239,2,0,P|314:271|379:278,1,128,8|0,0:0|0:0,0:0:0:0:
242,363,69760,5,8,0:0:0:0:
242,363,69846,1,8,0:0:0:0:
242,363,69933,2,0,P|207:367|176:374,1,64,2|8,3:2|0:0,0:0:0:0:
280,281,70280,2,0,P|248:274|216:270,1,64,0|0,3:2|0:0,0:0:0:0:
345,205,70627,1,8,0:0:0:0:
345,205,70800,2,0,P|316:190|286:178,1,64,0|2,3:2|0:0,0:0:0:0:
433,56,71147,5,8,0:0:0:0:
433,56,71234,1,8,0:0:0:0:
433,56,71320,2,0,P|434:121|440:190,1,128,2|0,3:2|0:0,0:0:0:0:
297,43,71840,5,0,3:2:0:0:
225,19,72014,2,0,P|224:84|218:153,1,128,8|2,0:0|0:0,0:0:0:0:
120,251,72534,5,0,3:2:0:0:
194,280,72708,2,0,P|158:282|124:290,1,64,2|8,0:0|0:0,0:0:0:0:
383,294,73054,5,2,3:2:0:0:
383,294,73228,1,0,3:2:0:0:
307,320,73401,2,0,P|343:322|377:330,1,64,10|0,0:0|3:2,0:0:0:0:
444,204,73748,2,0,P|412:210|380:211,1,64,2|8,3:2|0:0,0:0:0:0:
219,21,74095,6,0,B|223:142|267:81|273:201,1,191.999994140625,6|8,3:2|0:0,0:0:0:0:
136,353,74615,2,0,B|140:231|184:292|190:172,1,191.999994140625,6|10,3:2|0:0,0:0:0:0:
91,98,75135,2,0,P|99:143|99:202,1,95.9999970703126,6|0,3:2|0:0,0:0:0:0:
277,310,75482,6,0,P|277:262|285:214,1,95.9999970703126,0|0,0:0|3:2,0:0:0:0:
123,343,75829,2,0,P|170:343|218:351,1,95.9999970703126,8|0,0:0|0:0,0:0:0:0:
429,226,76176,5,8,0:0:0:0:
353,287,76349,1,0,3:2:0:0:
384,357,76523,1,0,3:2:0:0:
401,348,76696,1,2,3:2:0:0:
386,157,76869,5,6,3:2:0:0:
386,157,79124,5,0,3:2:0:0:
401,348,79297,1,10,0:0:0:0:
414,129,79644,6,0,L|405:252,1,120,6|0,3:2|0:0,0:0:0:0:
405,248,79991,1,10,0:0:0:0:
275,190,80164,1,6,3:2:0:0:
110,109,80338,1,2,0:0:0:0:
183,78,80511,1,10,0:0:0:0:
196,234,80684,2,0,P|137:241|81:289,1,120,6|0,3:2|0:0,0:0:0:0:
89,276,81031,5,2,3:2:0:0:
126,347,81205,2,0,P|166:354|230:372,1,80,2|8,3:2|0:0,0:0:0:0:
252,169,81551,2,0,P|292:162|356:144,1,80,2|8,3:2|0:0,0:0:0:0:
484,251,81898,1,2,0:0:0:0:
433,313,82072,1,2,0:0:0:0:
330,152,82245,1,10,0:0:0:0:
447,92,82418,6,0,B|467:129|467:129|454:183,1,80,6|2,3:2|0:0,0:0:0:0:
287,266,82765,1,10,0:0:0:0:
377,368,82939,2,0,P|420:374|477:387,1,80,6|2,3:2|0:0,0:0:0:0:
390,232,83286,1,10,0:0:0:0:
452,54,83459,2,0,P|393:92|330:96,1,120,6|0,3:2|0:0,0:0:0:0:
344,97,83806,5,10,0:0:0:0:
283,58,83979,1,6,3:2:0:0:
243,214,84153,1,10,2:3:0:0:
319,204,84326,1,10,3:2:0:0:
269,28,84499,5,10,0:0:0:0:
226,290,84673,1,10,0:0:0:0:
23,121,85020,5,2,0:0:0:0:
195,115,85193,2,0,B|249:128|249:128|270:156|270:156|334:173,1,143.999995605469,6|8,3:2|0:0,0:0:0:0:
441,318,85713,1,2,0:0:0:0:
451,334,85887,2,0,P|368:353|285:376,1,143.999995605469,2|8,0:0|0:0,0:0:0:0:
157,272,86407,1,2,0:0:0:0:
220,225,86580,6,0,P|266:238|310:247,1,71.9999978027344,2|0,3:2|0:0,0:0:0:0:
148,360,86927,2,0,P|112:368|78:378,1,71.9999978027344,10|2,0:0|0:0,0:0:0:0:
157,272,87274,2,0,B|155:195|211:218|206:134,1,143.999995605469,2|8,0:0|0:0,0:0:0:0:
160,76,87794,1,2,0:0:0:0:
344,24,87968,6,0,P|408:41|505:64,1,143.999995605469,2|8,3:2|0:0,0:0:0:0:
348,148,88488,1,0,0:0:0:0:
280,189,88661,1,2,0:0:0:0:
414,284,88835,1,2,3:2:0:0:
427,206,89008,1,8,0:0:0:0:
279,297,89182,6,0,P|271:344|261:381,1,64,2|0,3:2|0:0,0:0:0:0:
427,206,89528,6,0,P|435:253|451:306,1,80,2|8,3:2|0:0,0:0:0:0:
206,131,89875,6,0,P|196:190|185:233,1,95.9999970703126,0|0,0:0|3:2,0:0:0:0:
476,15,90222,6,0,P|486:74|501:135,1,111.999996582031,0|8,3:2|0:0,0:0:0:0:
319,78,90569,1,2,0:0:0:0:
206,131,90742,6,0,L|46:109,1,143.999995605469,2|12,3:2|0:0,0:0:0:0:
238,35,91262,1,2,0:0:0:0:
250,22,91436,2,0,P|321:47|339:126,1,143.999995605469,2|8,0:0|0:0,0:0:0:0:
260,271,91956,1,2,0:0:0:0:
322,319,92129,6,0,P|361:325|410:339,1,71.9999978027344,2|0,3:2|0:0,0:0:0:0:
512,188,92476,2,0,B|493:221|493:221|505:271,1,71.9999978027344,10|2,0:0|0:0,0:0:0:0:
379,185,92823,2,0,L|400:36,1,143.999995605469,2|8,0:0|0:0,0:0:0:0:
321,60,93343,1,2,0:0:0:0:
138,126,93517,5,6,3:2:0:0:
213,148,93690,1,8,0:0:0:0:
77,279,93864,1,0,0:0:0:0:
60,201,94037,1,2,3:2:0:0:
239,249,94210,1,10,0:0:0:0:
191,313,94384,1,2,3:2:0:0:
138,126,94557,1,10,0:0:0:0:
203,81,94731,6,0,L|214:-8,1,71.9999978027344,6|0,3:2|0:0,0:0:0:0:
12,150,95077,6,0,L|-2:46,1,80,8|0,0:0|3:2,0:0:0:0:
12,150,95424,1,0,3:2:0:0:
221,190,95598,6,0,B|110:197|170:269|35:295,1,191.999994140625,8|8,0:0|0:0,0:0:0:0:
106,356,96118,1,8,0:0:0:0:
25,209,96291,5,6,3:2:0:0:
29,218,96465,2,0,L|16:359,1,128,0|0,3:0|0:0,0:0:0:0:
126,207,96985,2,0,B|213:203|168:252|268:249,1,128,10|2,0:0|0:0,0:0:0:0:
295,192,97505,1,8,3:2:0:0:
295,192,97592,1,8,3:2:0:0:
295,192,97679,1,2,3:2:0:0:
398,308,97852,6,0,P|326:311|266:322,1,128,8|0,3:2|0:0,0:0:0:0:
379,225,98372,1,8,0:0:0:0:
386,217,98719,1,0,0:0:0:0:
361,144,98892,5,8,3:2:0:0:
361,144,98979,1,8,3:2:0:0:
361,144,99066,1,2,3:2:0:0:
406,82,99239,2,0,P|374:106|276:98,1,128,8|2,3:2|1:2,0:0:0:0:
276,29,99760,1,10,0:0:0:0:
124,260,100106,5,2,0:0:0:0:
201,258,100280,1,8,3:2:0:0:
203,265,100453,2,0,P|197:298|189:369,1,96,2|0,3:2|0:0,0:0:0:0:
120,381,100800,1,0,3:2:0:0:
118,374,100973,1,0,3:2:0:0:
203,265,101147,6,0,B|276:256|250:300|334:301,1,128,8|0,0:0|3:2,0:0:0:0:
402,380,101667,1,8,3:2:0:0:
395,378,101754,1,8,3:2:0:0:
397,384,101840,1,6,3:2:0:0:
319,126,102187,6,0,P|316:169|310:214,1,80,0|0,3:2|0:0,0:0:0:0:
444,294,102534,2,0,P|439:254|436:214,1,80,2|0,3:2|0:0,0:0:0:0:
347,303,102881,1,2,3:2:0:0:
347,303,103054,1,2,0:0:0:0:
209,204,103228,6,0,B|136:191|142:269|51:247,1,160,6|2,3:2|3:2,0:0:0:0:
37,178,103748,1,0,0:0:0:0:
149,316,103921,6,0,L|188:319,1,40,2|0,3:2|0:0,0:0:0:0:
272,335,104095,2,0,L|233:339,1,40,8|0,0:0|0:0,0:0:0:0:
219,319,104268,2,0,B|209:281|209:281|225:235,1,80,0|10,3:2|2:3,0:0:0:0:
325,81,104615,5,2,0:0:0:0:
381,146,104788,1,0,3:2:0:0:
358,154,104875,1,0,3:2:0:0:
344,173,104962,1,10,3:2:0:0:
450,290,105135,1,2,3:2:0:0:
432,273,105222,1,0,3:2:0:0:
427,250,105309,1,8,3:2:0:0:
508,102,105482,2,0,P|500:126|495:156,1,40,2|0,3:2|3:2,0:0:0:0:
507,157,105655,1,8,3:2:0:0:
274,23,105829,6,0,P|282:47|287:77,1,40,2|0,3:2|3:2,0:0:0:0:
249,127,106002,1,12,3:2:0:0:
227,115,106089,1,0,3:2:0:0:
203,109,106176,1,0,3:2:0:0:
179,112,106262,1,0,3:2:0:0:
158,124,106349,1,8,3:2:0:0:
135,131,106436,1,0,3:2:0:0:
110,131,106523,1,0,3:2:0:0:
86,126,106609,1,0,3:2:0:0:
67,110,106696,1,8,3:2:0:0:
56,88,106783,1,0,3:2:0:0:
61,64,106869,6,0,P|81:63|103:59,1,40,2|0,3:2|3:2,0:0:0:0:
161,219,107043,2,0,P|141:215|121:214,1,40,10|0,3:2|3:2,0:0:0:0:
263,43,107216,5,0,3:2:0:0:
280,49,107303,1,2,3:2:0:0:
320,40,107390,5,14,3:2:0:0:
391,192,107563,1,8,3:2:0:0:
453,112,107736,5,8,3:2:0:0:
232,171,107910,1,8,3:2:0:0:
194,79,108083,5,8,3:2:0:0:
375,163,108257,2,0,B|347:264|408:224|376:326,1,167.999994873047,8|0,3:2|0:0,0:0:0:0:
281,345,108603,6,0,P|313:271|421:267,1,180.000006866455,4|0,3:2|0:0,0:0:0:0:
403,257,108950,1,0,3:2:0:0:
505,102,109124,2,0,P|453:93|403:80,1,103.999995239258,10|0,0:0|0:0,0:0:0:0:
209,157,109471,1,2,0:0:0:0:
281,188,109644,1,0,1:2:0:0:
125,286,109817,1,8,0:0:0:0:
298,384,109991,6,0,P|288:327|282:276,1,103.999995239258,2|0,0:0|3:2,0:0:0:0:
109,172,110338,2,0,P|119:115|125:64,1,103.999995239258,2|8,0:0|0:0,0:0:0:0:
225,1,110684,2,0,B|339:-36|320:63|413:63,1,207.999990478516,2|0,0:0|3:2,0:0:0:0:
276,235,111205,1,8,0:0:0:0:
484,213,111378,6,0,B|438:203|438:203|426:194|426:194|371:182,1,103.999995239258,2|0,0:0|3:2,0:0:0:0:
215,350,111725,1,2,0:0:0:0:
289,377,111898,1,10,0:0:0:0:
229,165,112072,1,2,0:0:0:0:
83,283,112245,2,0,B|129:273|129:273|141:264|141:264|196:252,1,103.999995239258,2|0,0:0|3:2,0:0:0:0:
317,67,112592,1,10,0:0:0:0:
251,16,112765,6,0,P|166:26|120:150,1,207.999990478516,2|2,0:0|0:0,0:0:0:0:
281,225,113286,1,8,0:0:0:0:
336,168,113459,2,0,P|323:116|316:65,1,103.999995239258,2|0,0:0|0:0,0:0:0:0:
192,227,113806,1,2,3:2:0:0:
354,333,113979,1,8,0:0:0:0:
401,272,114153,5,2,0:0:0:0:
401,272,114239,1,0,0:0:0:0:
401,272,114326,1,0,3:2:0:0:
234,351,114499,2,0,P|180:333|116:319,1,103.999995239258,2|10,0:0|0:0,0:0:0:0:
320,183,114846,2,0,B|394:162|394:162|417:116|417:116|511:92,1,207.999990478516,2|0,0:0|3:2,0:0:0:0:
270,64,115366,1,8,0:0:0:0:
199,26,115540,6,0,B|156:19|156:19|140:8|140:8|88:-1,1,103.999995239258,2|0,0:0|3:2,0:0:0:0:
231,147,115887,1,2,0:0:0:0:
356,10,116060,1,10,0:0:0:0:
426,48,116234,2,0,P|435:158|450:262,1,207.999990478516,2|0,0:0|3:2,0:0:0:0:
289,384,116754,1,8,0:0:0:0:
214,361,116927,1,2,0:0:0:0:
352,278,117101,6,0,P|444:286|503:404,1,207.999990478516,2|8,3:2|0:0,0:0:0:0:
424,377,117621,1,2,0:0:0:0:
433,152,117794,2,0,P|439:208|454:278,1,103.999995239258,2|0,0:0|3:2,0:0:0:0:
283,135,118141,1,8,0:0:0:0:
454,12,118314,5,2,1:2:0:0:
371,74,118661,5,2,1:2:0:0:
208,184,119008,5,2,1:2:0:0:
24,312,119355,5,0,3:2:0:0:
13,236,119528,5,8,0:0:0:0:
13,236,119615,1,0,1:2:0:0:
13,236,119702,2,0,B|98:211|89:275|171:277,1,155.999992858887,4|0,3:2|0:0,0:0:0:0:
157,275,120049,1,0,3:2:0:0:
353,211,120222,2,0,B|385:252|385:252|361:304,1,103.999995239258,14|0,0:0|0:0,0:0:0:0:
195,168,120569,1,2,0:0:0:0:
261,128,120742,1,0,3:2:0:0:
238,322,120916,1,8,0:0:0:0:
90,213,121089,6,0,L|-29:189,1,103.999995239258,2|0,0:0|3:2,0:0:0:0:
177,84,121436,1,2,0:0:0:0:
118,32,121609,1,10,0:0:0:0:
199,215,121783,2,0,B|309:176|301:273|389:275,1,207.999990478516,2|0,0:0|3:2,0:0:0:0:
512,80,122303,1,8,0:0:0:0:
461,17,122476,6,0,L|482:241,1,207.999990478516,2|2,0:0|0:0,0:0:0:0:
296,140,122997,1,10,0:0:0:0:
363,98,123170,1,2,0:0:0:0:
328,273,123343,2,0,P|276:284|209:307,1,103.999995239258,2|0,0:0|3:2,0:0:0:0:
58,198,123690,1,10,0:0:0:0:
127,154,123864,6,0,B|156:197|156:197|116:268,1,103.999995239258,2|0,0:0|3:2,0:0:0:0:
324,361,124210,2,0,B|298:315|298:315|327:272,1,103.999995239258,2|8,0:0|0:0,0:0:0:0:
274,215,124557,1,2,0:0:0:0:
421,115,124731,1,0,0:0:0:0:
429,193,124904,1,2,3:2:0:0:
235,93,125077,1,8,0:0:0:0:
303,51,125251,1,8,3:2:0:0:
374,284,125424,5,6,3:2:0:0:
307,246,125598,2,0,B|259:255|259:255|238:278|238:278|165:293,1,128,0|0,3:2|3:2,0:0:0:0:
40,145,126118,2,0,B|87:154|87:154|108:177|108:177|156:186,1,128,8|0,0:0|0:0,0:0:0:0:
286,100,126638,5,8,0:0:0:0:
286,100,126725,1,8,0:0:0:0:
286,100,126812,2,0,P|281:60|279:22,1,64,2|8,3:2|0:0,0:0:0:0:
156,186,127158,2,0,P|161:146|163:108,1,64,0|0,3:2|0:0,0:0:0:0:
298,228,127505,1,8,0:0:0:0:
239,277,127679,1,0,3:2:0:0:
336,358,127852,1,2,0:0:0:0:
436,229,128025,5,8,0:0:0:0:
436,229,128112,1,8,0:0:0:0:
436,229,128199,1,2,3:2:0:0:
381,173,128372,2,0,P|369:110|357:24,1,128,8|0,0:0|3:2,0:0:0:0:
257,188,128892,2,0,B|243:217|243:217|258:260,1,64,8|0,0:0|0:0,0:0:0:0:
145,129,129239,2,0,L|71:114,1,64,2|0,0:0|3:2,0:0:0:0:
263,38,129586,5,2,0:0:0:0:
192,4,129760,1,8,0:0:0:0:
257,188,129933,2,0,P|313:196|379:213,1,96,2|0,3:2|0:0,0:0:0:0:
351,204,130280,2,0,P|373:174|371:134,1,64,10|0,0:0|3:2,0:0:0:0:
457,342,130627,1,2,3:2:0:0:
356,384,130800,1,8,0:0:0:0:
464,203,130973,6,0,B|368:165|370:261|284:257,1,191.999994140625,6|8,3:2|0:0,0:0:0:0:
107,78,131494,2,0,B|203:40|201:136|287:132,1,191.999994140625,6|10,3:2|0:0,0:0:0:0:
128,210,132014,2,0,P|133:257|137:305,1,95.9999970703126,6|0,3:2|0:0,0:0:0:0:
279,132,132361,5,0,0:0:0:0:
162,59,132534,2,0,P|107:46|44:27,1,95.9999970703126,0|8,3:2|0:0,0:0:0:0:
128,210,132881,2,0,B|156:252|156:252|131:316,1,95.9999970703126,0|8,3:2|0:0,0:0:0:0:
268,222,133228,1,0,3:2:0:0:
369,267,133401,1,0,3:2:0:0:
393,256,133575,1,2,3:2:0:0:
512,194,133748,5,6,3:2:0:0:
110,64,136002,5,0,3:2:0:0:
318,102,136176,1,10,0:0:0:0:
326,93,136523,6,0,B|221:99|265:167|158:182,2,191.999994140625,6|10|2,3:2|0:0|0:0,0:0:0:0:
451,227,137390,2,0,P|421:199|356:207,1,95.9999970703126,2|8,3:2|0:0,0:0:0:0:
459,127,137736,6,0,P|463:206|472:331,1,191.999994140625,2|2,0:0|0:0,0:0:0:0:
470,318,138257,1,8,0:0:0:0:
228,276,138430,2,0,P|295:276|388:361,1,191.999994140625,2|2,0:0|3:2,0:0:0:0:
361,168,138950,2,0,P|330:197|274:194,1,95.9999970703126,10|0,0:0|0:0,0:0:0:0:
193,109,139297,6,0,L|209:307,2,191.999994140625,2|10|2,3:2|0:0|0:0,0:0:0:0:
134,65,140164,1,2,3:2:0:0:
34,155,140338,1,10,0:0:0:0:
101,275,140511,6,0,L|116:83,1,191.999994140625,2|2,0:0|0:0,0:0:0:0:
188,91,141031,1,10,0:0:0:0:
390,236,141205,6,0,P|284:256|202:297,1,191.999994140625,2|0,0:0|3:2,0:0:0:0:
390,236,141725,1,10,0:0:0:0:
279,38,142072,6,0,B|252:159|317:111|297:229,2,191.999994140625,6|8|2,3:2|0:0|0:0,0:0:0:0:
351,55,142939,1,0,3:2:0:0:
469,142,143112,2,0,P|462:93|464:41,1,95.9999970703126,8|0,0:0|0:0,0:0:0:0:
329,220,143459,6,0,P|419:212|495:291,1,191.999994140625,2|8,3:2|0:0,0:0:0:0:
426,310,143979,1,0,0:0:0:0:
230,366,144153,6,0,P|170:297|61:301,1,191.999994140625,2|8,0:0|0:0,0:0:0:0:
230,366,144673,2,0,P|236:342|237:318,1,47.9999985351563,0|0,0:0|0:0,0:0:0:0:
196,203,144846,6,0,B|82:200|123:291|25:295,2,191.999994140625,6|8|0,0:0|0:0|0:0,0:0:0:0:
251,253,145713,1,2,3:2:0:0:
404,164,145887,5,10,0:0:0:0:
512,251,146060,6,0,L|321:229,1,191.999994140625,6|2,0:0|3:2,0:0:0:0:
275,168,146580,1,8,0:0:0:0:
93,102,146754,6,0,B|102:184|102:184|120:201|120:201|129:295,1,191.999994140625,2|8,0:0|0:0,0:0:0:0:
269,87,147274,2,0,B|221:97|221:97|169:73,1,95.9999970703126,8|0,2:3|0:0,0:0:0:0:
334,240,147621,6,0,P|328:166|383:84,1,160,6|8,3:2|0:0,0:0:0:0:
415,155,148141,1,0,0:0:0:0:
476,310,148314,2,0,P|436:310|394:320,1,80,2|2,0:0|3:2,0:0:0:0:
228,343,148661,2,0,P|272:349|351:386,1,120,10|0,0:0|0:0,0:0:0:0:
340,378,149008,1,2,3:2:0:0:
266,256,149182,5,0,0:0:0:0:
127,359,149355,2,0,P|126:262|122:193,1,160,8|0,0:0|0:0,0:0:0:0:
199,200,149875,1,0,3:2:0:0:
407,280,150049,6,0,P|408:183|412:114,1,160,8|2,0:0|3:2,0:0:0:0:
407,280,150742,6,0,P|445:265|490:278,1,80,8|0,0:0|0:0,0:0:0:0:
477,347,151089,1,2,0:0:0:0:
477,347,151262,1,2,3:2:0:0:
321,236,151436,2,0,L|311:316,1,80,10|0,0:0|0:0,0:0:0:0:
476,147,151783,6,0,P|404:161|341:96,1,160,2|8,3:2|0:0,0:0:0:0:
226,190,152303,2,0,P|264:194|310:213,1,80,2|0,0:0|0:0,0:0:0:0:
150,57,152650,5,0,3:2:0:0:
105,113,152823,2,0,P|67:117|21:136,1,80,8|0,0:0|0:0,0:0:0:0:
133,336,153170,6,0,B|116:237|162:276|141:171,1,160,6|8,3:2|0:0,0:0:0:0:
210,298,153690,1,0,0:0:0:0:
336,354,153864,2,0,P|294:357|256:366,1,80,2|2,0:0|3:2,0:0:0:0:
343,244,154210,2,0,P|422:255|514:281,1,160,10|2,0:0|3:2,0:0:0:0:
323,136,154731,5,2,0:0:0:0:
233,214,154904,1,10,0:0:0:0:
315,346,155077,2,0,P|311:302|310:257,1,80,2|0,0:0|0:0,0:0:0:0:
144,345,155424,5,0,3:2:0:0:
70,369,155598,2,0,P|74:325|75:280,1,80,8|0,0:0|0:0,0:0:0:0:
242,96,155945,6,0,P|181:110|152:207,1,160,2|8,3:2|0:0,0:0:0:0:
1,65,156465,2,0,P|37:78|79:79,1,80,2|0,0:0|0:0,0:0:0:0:
171,216,156812,5,0,3:2:0:0:
260,183,156985,1,10,0:0:0:0:
346,224,157158,1,8,0:0:0:0:
342,230,157245,1,8,0:0:0:0:
349,232,157332,1,6,3:2:0:0:
494,70,157679,6,0,L|395:81,1,95.9999970703126,10|2,0:0|0:0,0:0:0:0:
481,186,158025,1,0,0:0:0:0:
484,196,158199,1,0,3:2:0:0:
512,269,158372,2,0,L|413:258,1,95.9999970703126,8|0,0:0|0:0,0:0:0:0:
211,332,158719,6,0,B|303:298|279:380|375:351,1,143.999995605469,4|0,3:2|0:0,0:0:0:0:
345,356,159066,1,8,0:0:0:0:
137,302,159239,1,0,0:0:0:0:
54,338,159413,2,0,P|65:292|67:243,1,95.9999970703126,0|0,0:0|3:2,0:0:0:0:
54,338,159760,1,8,0:0:0:0:
162,143,159933,5,2,0:0:0:0:
170,150,160106,2,0,B|289:148|238:223|351:211,2,191.999994140625,6|10|2,3:2|0:0|0:0,0:0:0:0:
326,128,160973,5,0,3:2:0:0:
196,252,161147,1,8,0:0:0:0:
409,358,161320,6,0,L|203:371,1,191.999994140625,4|8,3:2|0:0,0:0:0:0:
70,219,161840,5,8,3:2:0:0:
234,288,162014,1,8,0:0:0:0:
257,216,162187,5,8,3:2:0:0:
50,299,162361,1,8,0:0:0:0:
35,210,162534,5,8,3:2:0:0:
259,315,162708,1,8,0:0:0:0:
388,254,162881,5,4,3:2:0:0:
306,231,163575,5,4,3:2:0:0:
192,202,164268,5,4,3:2:0:0:
418,263,164788,5,10,0:0:0:0:
418,263,164875,1,8,0:0:0:0:
418,263,164962,1,8,0:0:0:0:
283,344,165135,1,8,2:3:0:0:
358,374,165309,1,8,2:3:0:0:
240,196,165482,6,0,B|137:151|156:267|56:268,1,180.000006866455,6|0,3:2|0:0,0:0:0:0:
89,262,165829,1,2,0:0:0:0:
229,97,166002,1,10,0:0:0:0:
169,50,166176,1,2,0:0:0:0:
207,215,166349,2,0,P|214:275|220:341,1,103.999995239258,2|0,0:0|3:2,0:0:0:0:
372,189,166696,1,10,0:0:0:0:
434,233,166869,6,0,P|490:135|472:29,1,207.999990478516,2|2,0:0|0:0,0:0:0:0:
240,93,167390,1,8,0:0:0:0:
305,51,167563,2,0,P|356:64|397:113,1,103.999995239258,2|0,0:0|0:0,0:0:0:0:
173,152,167910,2,0,P|122:165|81:214,1,103.999995239258,2|8,3:2|0:0,0:0:0:0:
227,364,168257,6,0,B|203:243|318:289|280:157,1,207.999990478516,2|2,0:0|0:0,0:0:0:0:
432,55,168777,1,10,0:0:0:0:
364,21,168950,2,0,P|307:32|245:47,1,103.999995239258,2|0,0:0|0:0,0:0:0:0:
421,193,169297,1,0,3:2:0:0:
286,331,169471,1,8,0:0:0:0:
348,283,169644,6,0,B|377:329|377:329|355:373,1,103.999995239258,2|0,0:0|3:2,0:0:0:0:
210,253,169991,1,2,0:0:0:0:
333,137,170164,1,10,0:0:0:0:
267,97,170338,2,0,B|197:114|197:114|162:172|162:172|68:202,1,207.999990478516,2|0,0:0|3:2,0:0:0:0:
254,10,170858,1,8,0:0:0:0:
178,4,171031,1,2,0:0:0:0:
333,137,171205,6,0,P|380:145|467:168,1,103.999995239258,2|0,3:2|0:0,0:0:0:0:
252,216,171551,1,8,0:0:0:0:
211,150,171725,1,2,0:0:0:0:
182,275,171898,1,2,0:0:0:0:
313,161,172072,1,0,3:2:0:0:
191,38,172245,1,8,0:0:0:0:
291,302,172418,5,2,1:2:0:0:
312,208,172765,5,2,1:2:0:0:
338,82,173112,5,2,1:2:0:0:
277,368,173459,5,0,3:2:0:0:
212,306,173632,5,8,0:0:0:0:
212,306,173719,1,0,1:2:0:0:
212,306,173806,2,0,B|121:266|131:359|21:346,1,155.999992858887,4|0,3:2|0:0,0:0:0:0:
70,344,174153,1,0,3:2:0:0:
286,176,174326,2,0,P|294:227|304:278,1,103.999995239258,14|0,0:0|0:0,0:0:0:0:
107,224,174673,2,0,B|86:175|86:175|130:106,1,103.999995239258,2|0,0:0|3:2,0:0:0:0:
221,285,175020,1,8,0:0:0:0:
167,339,175193,6,0,P|118:348|41:365,1,103.999995239258,2|0,0:0|3:2,0:0:0:0:
208,198,175540,1,2,0:0:0:0:
306,351,175713,1,10,0:0:0:0:
367,298,175887,2,0,P|377:235|397:162,1,103.999995239258,2|0,0:0|0:0,0:0:0:0:
205,84,176234,1,0,3:2:0:0:
439,47,176407,1,8,0:0:0:0:
376,1,176580,6,0,P|270:12|196:115,1,207.999990478516,2|2,0:0|0:0,0:0:0:0:
386,195,177101,2,0,B|434:178|434:178|497:200,1,103.999995239258,14|2,0:0|0:0,0:0:0:0:
374,329,177447,2,0,P|323:317|252:304,1,103.999995239258,2|0,0:0|3:2,0:0:0:0:
82,226,177794,1,10,0:0:0:0:
130,292,177968,6,0,L|115:84,1,207.999990478516,2|2,0:0|0:0,0:0:0:0:
303,149,178488,1,8,0:0:0:0:
297,77,178661,1,2,0:0:0:0:
214,162,178835,1,0,0:0:0:0:
302,244,179008,1,2,3:2:0:0:
384,159,179182,1,8,0:0:0:0:
213,263,179355,5,8,3:2:0:0:
213,263,179442,1,0,0:0:0:0:
213,263,179528,1,6,3:2:0:0:
268,320,179702,2,0,P|328:337|414:366,1,128,0|0,3:2|3:2,0:0:0:0:
213,263,180222,2,0,P|152:278|116:354,1,128,8|0,0:0|0:0,0:0:0:0:
259,162,180742,5,8,0:0:0:0:
259,162,180829,1,8,0:0:0:0:
259,162,180916,1,2,3:2:0:0:
317,213,181089,1,8,0:0:0:0:
396,146,181262,1,0,3:2:0:0:
258,266,181436,2,0,L|191:284,1,64,0|8,0:0|0:0,0:0:0:0:
259,162,181783,1,0,3:2:0:0:
399,268,181956,2,0,L|466:286,1,64,2|8,0:0|0:0,0:0:0:0:
460,284,182216,1,8,0:0:0:0:
460,284,182303,5,2,3:2:0:0:
505,222,182476,2,0,P|497:175|486:70,1,128,8|0,0:0|3:2,0:0:0:0:
381,231,182997,2,0,P|358:262|358:304,1,64,8|0,0:0|0:0,0:0:0:0:
279,145,183343,2,0,L|216:132,1,64,2|0,0:0|3:2,0:0:0:0:
39,237,183690,5,2,0:0:0:0:
85,177,183864,1,8,0:0:0:0:
197,268,184037,2,0,L|211:348,1,64,2|0,3:2|3:2,0:0:0:0:
374,230,184384,2,0,B|383:198|383:198|365:152,1,64,10|0,0:0|3:2,0:0:0:0:
180,61,184731,2,0,B|168:89|168:89|177:121,1,64,2|8,3:2|0:0,0:0:0:0:
294,0,185077,6,0,L|277:191,1,191.999994140625,6|8,3:2|0:0,0:0:0:0:
48,319,185598,2,0,L|31:127,1,191.999994140625,6|10,3:2|0:0,0:0:0:0:
172,270,186118,2,0,P|217:284|262:302,1,95.9999970703126,6|0,3:2|0:0,0:0:0:0:
493,305,186465,5,0,0:0:0:0:
429,189,186638,2,0,P|387:210|375:274,1,95.9999970703126,0|8,3:2|0:0,0:0:0:0:
512,45,186985,2,0,P|463:33|390:9,1,95.9999970703126,0|8,3:2|0:0,0:0:0:0:
260,104,187332,1,0,3:2:0:0:
429,189,187505,1,0,3:2:0:0:
392,122,187679,1,2,3:2:0:0:
228,254,187852,5,6,3:2:0:0:
254,75,190106,5,0,3:2:0:0:
231,307,190280,1,10,0:0:0:0:
225,315,190627,6,0,P|182:318|122:331,2,95.9999970703126,6|2|10,3:2|0:0|0:0,0:0:0:0:
369,217,191147,1,6,3:2:0:0:
418,273,191320,1,2,0:0:0:0:
343,289,191494,1,10,0:0:0:0:
238,130,191667,6,0,P|245:68|247:22,1,95.9999970703126,6|2,3:2|0:0,0:0:0:0:
238,130,192014,1,10,0:0:0:0:
93,261,192187,2,0,P|100:323|102:369,1,95.9999970703126,6|2,3:2|0:0,0:0:0:0:
101,369,192447,1,2,0:0:0:0:
101,369,192534,1,10,0:0:0:0:
326,153,192708,5,6,3:2:0:0:
185,225,192881,1,10,0:0:0:0:
9,135,193054,1,10,0:0:0:0:
94,94,193228,5,2,3:2:0:0:
8,306,193401,1,6,3:2:0:0:
256,192,193488,12,0,195829,0:0:0:0:
341,126,196002,6,0,L|335:176,1,40,2|2,0:0|0:0,0:0:0:0:
283,229,196176,70,0,B|336:271|352:234|362:229|362:229|357:219|366:180|297:183|297:183|352:146|322:119|321:108|321:108|309:110|275:89|256:154|256:154|238:88|204:108|192:106|192:106|191:117|161:144|218:182|218:182|149:179|157:219|152:229|152:229|162:234|178:271|232:228|232:228|208:292|248:296|256:304|256:304|264:296|285:289|292:290,1,851.199989609375,2|0,0:0|0:0,0:0:0:0:
