osu file format v14

[General]
AudioFilename: audio.mp3
AudioLeadIn: 0
PreviewTime: 51812
Countdown: 0
SampleSet: Soft
StackLeniency: 0.7
Mode: 0
LetterboxInBreaks: 0
WidescreenStoryboard: 1

[Editor]
DistanceSpacing: 1
BeatDivisor: 4
GridSize: 16
TimelineZoom: 2

[Metadata]
Title:blooming
TitleUnicode:blooming
Artist:Yasuda Rei
ArtistUnicode:安田レイ
Creator:Glaceon
Version:Normal
Source:レイトン ミステリー探偵社 ~カトリーのナゾトキファイル~
Tags:japanese female vocals rachel rhodes Layton Mystery Tanteisha: Katri no Nazotoki File opening op op2 agatsu tomadoi shiinoha kotone
BeatmapID:1960486
BeatmapSetID:937782

[Difficulty]
HPDrainRate:4
CircleSize:3
OverallDifficulty:4
ApproachRate:5.5
SliderMultiplier:1.1
SliderTickRate:1

[Events]
//Background and Video events
0,0,"meowuwu.jpg",0,0
//Break Periods
2,163081,164357
//Storyboard Layer 0 (Background)
//Storyboard Layer 1 (Fail)
//Storyboard Layer 2 (Pass)
//Storyboard Layer 3 (Foreground)
//Storyboard Sound Samples

[TimingPoints]
-818,346.820809248555,4,2,22,80,1,0
569,-100,4,2,22,80,0,0
6031,-100,4,2,22,5,0,0
6118,-100,4,2,22,80,0,0
17216,-100,4,2,22,55,0,0
28314,-100,4,2,22,65,0,0
39326,-100,4,2,22,5,0,0
39413,-100,4,2,22,65,0,0
44962,-100,4,2,22,75,0,0
51378,-100,4,2,22,75,0,0
51725,-100,4,2,22,80,0,1
62476,-100,4,2,22,80,0,0
62823,-100,4,2,22,80,0,1
68199,-100,4,2,22,80,0,1
68459,-100,4,2,22,5,0,1
68546,-100,4,2,22,80,0,0
74095,-100,4,2,22,80,0,1
76869,-100,4,2,22,80,0,0
77563,-100,4,2,22,50,0,0
78950,-100,4,2,22,50,0,0
79124,-100,4,2,22,65,0,0
79557,-100,4,2,22,5,0,0
79644,-100,4,2,22,80,0,0
85193,-100,4,2,22,65,0,0
96291,-100,4,2,22,65,0,0
101840,-100,4,2,22,75,0,0
108257,-100,4,2,22,75,0,0
108603,-100,4,2,22,80,0,1
119355,-100,4,2,22,80,0,0
119702,-100,4,2,22,80,0,1
125077,-100,4,2,22,80,0,1
125338,-100,4,2,22,5,0,1
125424,-100,4,2,22,80,0,0
130973,-100,4,2,22,80,0,1
133748,-100,4,2,22,80,0,0
134442,-100,4,2,22,50,0,0
135829,-100,4,2,22,50,0,0
136002,-100,4,2,22,65,0,0
136436,-100,4,2,22,5,0,0
136523,-100,4,2,22,80,0,0
161840,-100,4,2,22,80,0,0
164788,-100,4,2,22,80,0,0
165482,-100,4,2,22,80,0,1
173459,-100,4,2,22,80,0,0
173806,-100,4,2,22,80,0,1
179528,-100,4,2,22,80,0,0
185077,-100,4,2,22,80,0,1
187852,-100,4,2,22,80,0,0
189933,-100,4,2,22,50,0,0
190106,-100,4,2,22,80,0,0
190540,-100,4,2,22,5,0,0
190627,-100,4,2,22,80,0,0
195829,-100,4,2,22,10,0,0
196002,-100,4,2,22,80,0,0

[Colours]
Combo1 : 255,79,79
Combo2 : 255,168,211
Combo3 : 117,255,117
Combo4 : 185,185,221

[HitObjects]
83,175,569,6,0,P|40:250|184:181,1,440,6|6,1:2|1:2,0:0:0:0:
152,27,2476,2,0,L|222:31,1,55,8|8,0:0|0:0,0:0:0:0:
256,4,2852,2,0,L|356:1,1,82.5,2|2,0:0|0:0,0:0:0:0:
409,43,3343,6,0,P|445:106|303:128,1,275,6|0,1:2|3:2,0:0:0:0:
278,86,4384,1,0,3:2:0:0:
190,152,4731,2,0,B|149:219|149:219|216:399,1,220,6|2,1:2|0:0,0:0:0:0:
247,377,5598,2,0,L|317:372,1,55,0|10,3:2|0:0,0:0:0:0:
410,355,6118,6,0,L|414:234,1,110,6|8,3:2|3:2,0:0:0:0:
416,134,6812,2,0,P|365:124|307:137,1,110,8|8,3:2|3:2,0:0:0:0:
235,217,7505,2,0,P|181:226|127:215,1,110,10|8,3:2|3:2,0:0:0:0:
38,149,8199,1,8,3:2:0:0:
74,45,8546,1,8,3:2:0:0:
183,50,8892,6,0,L|300:57,1,110,10|8,3:2|3:2,0:0:0:0:
323,162,9586,2,0,L|432:155,1,110,10|8,3:2|3:2,0:0:0:0:
503,239,10280,2,0,P|510:292|495:349,1,110,10|8,3:2|3:2,0:0:0:0:
390,314,10973,1,10,3:2:0:0:
290,361,11320,1,8,3:2:0:0:
194,306,11667,6,0,L|200:184,1,110,6|8,1:2|0:0,0:0:0:0:
241,160,12187,2,0,L|235:38,1,110,6|8,1:2|0:0,0:0:0:0:
201,6,12708,1,6,1:2:0:0:
310,0,13054,1,2,3:2:0:0:
310,0,13228,2,0,L|423:5,1,110,2|2,3:2|3:2,0:0:0:0:
482,95,13921,2,0,L|477:152,1,55,2|2,0:0|0:0,0:0:0:0:
429,178,14268,6,0,L|441:299,1,110,6|0,0:0|3:2,0:0:0:0:
442,342,14788,1,10,0:0:0:0:
332,370,15135,1,0,0:0:0:0:
332,370,15309,2,0,L|221:363,1,110,2|0,1:2|3:2,0:0:0:0:
167,358,15829,1,2,3:2:0:0:
129,254,16176,1,10,3:2:0:0:
220,193,16523,2,0,L|221:139,1,55,10|10,3:2|0:0,0:0:0:0:
343,27,17216,6,0,L|340:145,1,110,6|0,3:2|3:2,0:0:0:0:
335,247,17910,2,0,P|388:258|447:243,1,110,0|0,3:2|3:2,0:0:0:0:
497,232,18430,1,2,0:0:0:0:
497,232,18603,2,0,L|490:345,2,110,2|2|2,3:2|3:2|3:2,0:0:0:0:
499,176,19471,1,0,0:0:0:0:
454,75,19817,1,2,0:0:0:0:
454,75,19991,6,0,L|314:72,1,110,2|2,3:2|3:2,0:0:0:0:
243,118,20684,2,0,L|177:118,2,55,2|2|2,3:2|0:0|3:2,0:0:0:0:
290,146,21205,2,0,P|299:195|278:256,1,110,2|2,0:0|0:0,0:0:0:0:
192,316,21898,2,0,L|78:310,1,110,0|0,0:0|0:0,0:0:0:0:
37,209,22592,1,2,0:0:0:0:
37,209,22765,6,0,P|23:148|43:92,1,110,6|0,3:2|3:2,0:0:0:0:
73,62,23286,1,2,0:0:0:0:
73,62,23459,2,0,L|192:62,1,110,2|0,3:2|3:2,0:0:0:0:
225,105,23979,1,2,0:0:0:0:
225,105,24153,2,0,P|280:94|340:111,2,110,2|2|2,3:2|3:2|3:2,0:0:0:0:
185,144,25020,1,0,0:0:0:0:
231,243,25366,1,2,0:0:0:0:
231,243,25540,6,0,L|365:236,1,110,2|2,3:2|3:2,0:0:0:0:
440,190,26234,2,0,P|452:254|436:311,1,110,2|2,3:2|3:2,0:0:0:0:
410,341,26754,1,2,0:0:0:0:
302,318,27101,1,0,0:0:0:0:
207,369,27447,1,0,0:0:0:0:
207,369,27621,2,0,L|86:363,1,110,0|8,3:2|3:2,0:0:0:0:
31,275,28314,6,0,P|23:222|45:157,1,110,6|8,1:2|0:0,0:0:0:0:
73,125,28835,1,2,0:0:0:0:
73,125,29008,2,0,L|188:132,1,110,2|8,0:0|0:0,0:0:0:0:
222,92,29528,1,2,0:0:0:0:
222,92,29702,2,0,L|355:90,1,110,2|10,1:2|0:0,0:0:0:0:
389,184,30395,2,0,L|448:190,2,55,2|0|8,0:0|1:2|0:0,0:0:0:0:
350,224,30916,1,2,0:0:0:0:
350,224,31089,6,0,L|221:228,1,110,2|10,1:2|0:0,0:0:0:0:
162,305,31783,2,0,L|165:365,2,55,2|2|10,0:0|1:2|0:0,0:0:0:0:
122,266,32303,2,0,L|127:153,1,110,2|2,1:2|1:2,0:0:0:0:
129,45,32997,2,0,P|83:35|13:50,1,110,0|0,1:2|1:2,0:0:0:0:
2,97,33517,1,8,0:0:0:0:
38,205,33864,6,0,L|41:315,1,110,6|8,1:2|0:0,0:0:0:0:
48,369,34384,1,2,0:0:0:0:
48,369,34557,2,0,P|105:379|170:363,1,110,2|8,0:0|0:0,0:0:0:0:
199,335,35077,1,2,0:0:0:0:
199,335,35251,2,0,L|314:342,1,110,2|10,1:2|0:0,0:0:0:0:
352,240,35945,2,0,L|422:238,2,55,2|0|8,0:0|1:2|0:0,0:0:0:0:
310,212,36465,1,2,0:0:0:0:
310,212,36638,6,0,L|314:93,1,110,2|10,1:2|0:0,0:0:0:0:
242,17,37332,1,2,0:0:0:0:
242,17,37505,2,0,P|186:8|127:20,1,110,2|2,1:2|1:2,0:0:0:0:
52,91,38199,1,0,1:2:0:0:
117,179,38546,1,0,1:2:0:0:
117,179,38719,2,0,L|121:234,1,55,8|0,2:3|3:2,0:0:0:0:
101,285,39066,1,0,3:2:0:0:
190,347,39413,6,0,L|310:342,1,110,6|2,1:2|0:0,0:0:0:0:
350,244,40106,2,0,L|474:249,1,110,10|2,0:0|0:0,0:0:0:0:
507,148,40800,2,0,P|515:97|498:30,1,110,2|0,3:2|1:2,0:0:0:0:
396,10,41494,1,8,0:0:0:0:
327,95,41840,1,0,0:0:0:0:
395,180,42187,6,0,L|400:333,1,110,2|0,3:2|0:0,0:0:0:0:
319,367,42881,2,0,P|273:376|204:361,1,110,10|2,0:0|0:0,0:0:0:0:
199,254,43575,2,0,P|139:244|80:255,1,110,2|0,1:2|1:2,0:0:0:0:
37,266,44095,2,0,L|41:149,1,110,0|0,0:0|1:2,0:0:0:0:
43,100,44615,1,8,0:0:0:0:
134,39,44962,6,0,B|180:66|180:66|301:46,1,165,6|2,3:2|0:0,0:0:0:0:
343,35,45655,1,2,3:2:0:0:
437,92,46002,2,0,L|429:156,1,55,2|2,3:2|0:0,0:0:0:0:
387,167,46349,2,0,L|396:286,1,110,2|2,3:2|3:2,0:0:0:0:
315,353,47043,2,0,P|268:345|202:362,1,110,2|0,3:2|3:2,0:0:0:0:
154,373,47563,1,2,0:0:0:0:
154,373,47736,6,0,L|42:367,1,110,6|10,3:2|3:2,0:0:0:0:
92,268,48430,2,0,L|208:272,1,110,8|8,3:2|3:2,0:0:0:0:
270,186,49124,2,0,P|282:134|271:74,1,110,12|8,3:2|3:2,0:0:0:0:
191,5,49817,2,0,L|79:8,1,110,8|10,3:2|3:2,0:0:0:0:
17,98,50511,2,0,L|24:164,1,55,12|8,3:2|3:2,0:0:0:0:
74,173,50858,2,0,L|67:239,1,55,8|8,3:2|3:2,0:0:0:0:
32,269,51205,1,8,3:2:0:0:
32,269,51378,1,8,3:2:0:0:
126,326,51725,6,0,L|242:322,1,110,4|0,3:2|3:2,0:0:0:0:
268,277,52245,1,10,0:0:0:0:
365,328,52592,2,0,P|373:278|356:213,1,110,2|8,0:0|0:0,0:0:0:0:
317,185,53112,2,0,L|321:75,1,110,2|2,0:0|0:0,0:0:0:0:
324,20,53632,1,8,0:0:0:0:
324,20,53806,1,2,0:0:0:0:
216,44,54153,2,0,L|136:40,1,55,0|8,3:2|0:0,0:0:0:0:
113,14,54499,5,2,0:0:0:0:
51,105,54846,1,2,0:0:0:0:
51,105,55020,2,0,L|54:169,1,55,10|2,0:0|0:0,0:0:0:0:
105,177,55366,2,0,L|98:294,1,110,2|10,0:0|0:0,0:0:0:0:
101,342,55887,6,0,P|157:355|210:342,1,110,2|2,0:0|0:0,0:0:0:0:
267,251,56580,2,0,P|327:241|387:257,1,110,2|2,0:0|3:2,0:0:0:0:
483,277,57274,2,0,L|474:165,1,110,2|2,0:0|0:0,0:0:0:0:
469,117,57794,1,10,0:0:0:0:
469,117,57968,1,2,0:0:0:0:
377,56,58314,2,0,L|311:59,1,55,0|8,3:2|0:0,0:0:0:0:
267,63,58661,6,0,L|278:179,1,110,2|2,0:0|0:0,0:0:0:0:
287,231,59182,1,10,0:0:0:0:
287,231,59355,1,2,0:0:0:0:
215,314,59702,2,0,L|150:310,1,55,0|8,3:2|0:0,0:0:0:0:
109,309,60049,1,2,0:0:0:0:
109,309,60222,6,0,L|118:188,1,110,2|8,3:2|0:0,0:0:0:0:
167,176,60742,1,2,0:0:0:0:
167,176,60916,2,0,P|176:124|160:58,1,110,2|8,0:0|0:0,0:0:0:0:
136,21,61436,1,2,1:2:0:0:
26,8,61783,1,2,1:2:0:0:
5,115,62129,2,0,L|14:226,1,110,2|0,1:2|3:2,0:0:0:0:
24,283,62650,1,8,0:0:0:0:
24,283,62823,6,0,L|135:292,1,110,4|0,3:2|3:2,0:0:0:0:
181,264,63343,1,14,0:0:0:0:
233,360,63690,2,0,P|291:351|345:370,1,110,2|8,0:0|0:0,0:0:0:0:
392,379,64210,2,0,L|386:268,1,110,2|2,0:0|0:0,0:0:0:0:
384,218,64731,1,10,0:0:0:0:
384,218,64904,1,2,0:0:0:0:
319,123,65251,2,0,L|324:61,1,55,0|8,3:2|0:0,0:0:0:0:
330,13,65598,6,0,L|441:19,1,110,2|2,0:0|0:0,0:0:0:0:
494,26,66118,2,0,L|486:87,1,55,10|2,0:0|0:0,0:0:0:0:
451,122,66465,2,0,P|443:173|455:229,1,110,2|10,0:0|0:0,0:0:0:0:
495,267,66985,2,0,L|486:379,1,110,2|2,0:0|0:0,0:0:0:0:
380,348,67679,2,0,P|338:339|264:354,1,110,2|2,0:0|3:2,0:0:0:0:
222,373,68199,2,0,L|165:370,1,55,8|8,0:0|3:2,0:0:0:0:
117,362,68546,6,0,L|124:240,1,110,6|0,3:2|0:0,0:0:0:0:
128,201,69066,1,0,3:2:0:0:
128,201,69239,2,0,P|116:140|137:82,1,110,8|0,0:0|0:0,0:0:0:0:
235,81,69933,2,0,L|232:-9,2,82.5,2|0|0,3:2|0:0|0:0,0:0:0:0:
236,136,70627,1,8,0:0:0:0:
340,101,70973,2,0,L|402:97,1,55,2|8,0:0|0:0,0:0:0:0:
455,99,71320,5,2,3:2:0:0:
455,99,71494,2,0,L|446:227,1,110,8|0,0:0|3:2,0:0:0:0:
441,263,72014,1,8,0:0:0:0:
331,251,72361,1,2,0:0:0:0:
288,352,72708,2,0,L|173:347,1,110,2|2,0:0|3:2,0:0:0:0:
146,309,73228,1,0,3:2:0:0:
146,309,73401,2,0,L|7:312,1,110,10|2,0:0|3:2,0:0:0:0:
13,203,74095,6,0,P|5:151|22:96,1,110,6|8,3:2|0:0,0:0:0:0:
74,82,74615,2,0,L|186:88,1,110,6|10,3:2|0:0,0:0:0:0:
225,123,75135,1,6,3:2:0:0:
327,83,75482,1,0,0:0:0:0:
327,83,75655,2,0,L|333:194,1,110,0|0,3:2|0:0,0:0:0:0:
261,277,76349,2,0,L|256:346,2,55,0|0|2,3:2|3:2|3:2,0:0:0:0:
242,225,76869,5,6,3:2:0:0:
256,192,76956,12,2,78950,0:0:0:0:
445,366,79644,6,0,P|453:327|441:257,1,110,6|10,3:2|0:0,0:0:0:0:
399,223,80164,2,0,L|402:88,1,110,6|10,3:2|0:0,0:0:0:0:
435,68,80684,1,6,3:2:0:0:
346,2,81031,1,2,3:2:0:0:
346,2,81205,2,0,L|291:5,1,55,2|8,3:2|0:0,0:0:0:0:
245,35,81551,2,0,L|135:28,1,110,2|2,3:2|0:0,0:0:0:0:
79,26,82072,1,2,0:0:0:0:
15,115,82418,6,0,L|23:224,1,110,6|10,3:2|0:0,0:0:0:0:
31,279,82939,2,0,P|76:290|147:272,1,110,6|10,3:2|0:0,0:0:0:0:
174,236,83459,2,0,L|332:243,1,110,6|10,3:2|0:0,0:0:0:0:
326,206,83979,2,0,L|321:84,1,110,6|10,3:2|3:2,0:0:0:0:
321,45,84499,1,10,0:0:0:0:
321,45,84673,1,10,0:0:0:0:
482,11,85193,6,0,L|486:126,1,110,6|8,3:2|0:0,0:0:0:0:
451,164,85713,1,2,0:0:0:0:
451,164,85887,2,0,L|444:282,1,110,2|8,0:0|0:0,0:0:0:0:
474,319,86407,1,2,0:0:0:0:
474,319,86580,2,0,P|427:326|360:312,1,110,2|10,3:2|0:0,0:0:0:0:
296,228,87274,2,0,L|226:234,2,55,2|0|8,0:0|3:2|0:0,0:0:0:0:
337,192,87794,1,2,0:0:0:0:
337,192,87968,6,0,L|324:60,1,110,2|8,3:2|0:0,0:0:0:0:
219,54,88661,2,0,L|222:-8,2,55,2|2|8,0:0|3:2|0:0,0:0:0:0:
215,109,89182,2,0,P|162:99|99:119,1,110,2|2,3:2|3:2,0:0:0:0:
54,210,89875,1,0,0:0:0:0:
54,210,90049,2,0,L|-22:217,2,55,0|0|8,3:2|3:2|0:0,0:0:0:0:
99,240,90569,1,2,0:0:0:0:
99,240,90742,6,0,L|93:358,1,110,2|12,3:2|0:0,0:0:0:0:
201,371,91436,2,0,L|327:364,1,110,2|8,0:0|0:0,0:0:0:0:
356,334,91956,1,2,0:0:0:0:
356,334,92129,2,0,P|405:342|472:322,1,110,2|10,3:2|0:0,0:0:0:0:
457,216,92823,2,0,L|519:218,2,55,2|0|8,0:0|3:2|0:0,0:0:0:0:
413,192,93343,1,2,0:0:0:0:
413,192,93517,6,0,L|337:195,1,55,6|8,3:2|0:0,0:0:0:0:
302,197,93864,1,0,0:0:0:0:
205,250,94210,2,0,P|195:191|209:137,1,110,10|10,0:0|0:0,0:0:0:0:
253,112,94731,1,6,3:2:0:0:
237,3,95077,1,8,0:0:0:0:
127,15,95424,1,0,3:2:0:0:
127,15,95598,2,0,L|0:25,1,110,8|8,0:0|0:0,0:0:0:0:
6,80,96118,1,8,0:0:0:0:
6,80,96291,6,0,L|15:215,1,110,6|2,3:2|0:0,0:0:0:0:
123,181,96985,2,0,L|114:316,1,110,10|2,0:0|0:0,0:0:0:0:
199,363,97679,2,0,P|250:373|317:353,1,110,2|0,3:2|1:2,0:0:0:0:
365,267,98372,1,8,0:0:0:0:
308,172,98719,1,0,0:0:0:0:
199,190,99066,6,0,B|176:139|176:139|195:26,1,165,2|2,3:2|1:2,0:0:0:0:
241,2,99760,2,0,L|364:15,1,110,10|2,0:0|0:0,0:0:0:0:
424,95,100453,2,0,L|515:85,2,82.5,2|0|0,3:2|0:0|3:2,0:0:0:0:
368,98,101147,2,0,P|358:156|375:211,1,110,8|0,0:0|3:2,0:0:0:0:
398,258,101667,1,8,3:2:0:0:
398,258,101840,6,0,P|291:286|175:250,1,220,6|2,3:2|3:2,0:0:0:0:
84,220,102881,2,0,L|90:137,1,55,2|2,3:2|0:0,0:0:0:0:
92,110,103228,1,6,3:2:0:0:
168,30,103575,1,2,3:2:0:0:
257,93,103921,2,0,L|317:90,1,55,2|8,3:2|0:0,0:0:0:0:
338,41,104268,2,0,L|392:43,1,55,0|10,3:2|2:3,0:0:0:0:
433,81,104615,6,0,L|426:192,1,110,2|10,0:0|3:2,0:0:0:0:
414,300,105309,2,0,P|359:309|305:292,1,110,8|8,3:2|3:2,0:0:0:0:
251,199,106002,2,0,P|192:184|133:196,1,110,12|8,3:2|3:2,0:0:0:0:
35,214,106696,2,0,L|44:98,1,110,8|10,3:2|3:2,0:0:0:0:
81,11,107390,2,0,L|141:20,1,55,14|8,3:2|3:2,0:0:0:0:
177,53,107736,2,0,L|231:44,1,55,8|8,3:2|3:2,0:0:0:0:
277,14,108083,1,8,3:2:0:0:
277,14,108257,1,8,3:2:0:0:
366,76,108603,6,0,P|378:136|361:200,1,110,4|0,3:2|3:2,0:0:0:0:
334,227,109124,1,10,0:0:0:0:
244,163,109471,2,0,L|116:169,1,110,2|8,0:0|0:0,0:0:0:0:
79,174,109991,2,0,P|69:227|81:281,1,110,2|2,0:0|0:0,0:0:0:0:
111,334,110511,1,8,0:0:0:0:
111,334,110684,1,2,0:0:0:0:
207,280,111031,2,0,L|283:286,1,55,0|8,3:2|0:0,0:0:0:0:
307,315,111378,5,2,0:0:0:0:
407,269,111725,1,2,0:0:0:0:
407,269,111898,2,0,L|402:176,1,55,10|2,0:0|0:0,0:0:0:0:
364,175,112245,2,0,L|371:58,1,110,2|10,0:0|0:0,0:0:0:0:
372,10,112765,2,0,L|239:14,1,110,2|2,0:0|0:0,0:0:0:0:
151,20,113459,2,0,P|139:92|168:154,1,110,2|2,0:0|3:2,0:0:0:0:
236,193,114153,6,0,L|229:314,1,110,2|2,0:0|0:0,0:0:0:0:
230,362,114673,1,10,0:0:0:0:
230,362,114846,1,2,0:0:0:0:
120,369,115193,2,0,L|49:369,1,55,0|8,3:2|0:0,0:0:0:0:
9,369,115540,2,0,L|20:228,1,110,2|2,0:0|0:0,0:0:0:0:
26,208,116060,1,10,0:0:0:0:
26,208,116234,1,2,0:0:0:0:
112,140,116580,2,0,L|110:65,1,55,0|8,3:2|0:0,0:0:0:0:
112,33,116927,1,2,0:0:0:0:
112,33,117101,6,0,P|170:21|238:42,1,110,2|8,3:2|0:0,0:0:0:0:
266,70,117621,1,2,0:0:0:0:
266,70,117794,2,0,L|413:64,1,110,2|8,0:0|0:0,0:0:0:0:
431,63,118314,1,2,1:2:0:0:
508,140,118661,1,2,1:2:0:0:
432,219,119008,2,0,L|305:217,1,110,2|0,1:2|3:2,0:0:0:0:
283,187,119528,1,8,0:0:0:0:
283,187,119702,6,0,P|224:176|158:196,1,110,4|0,3:2|3:2,0:0:0:0:
126,211,120222,1,14,0:0:0:0:
94,316,120569,2,0,L|237:314,1,110,2|8,0:0|0:0,0:0:0:0:
252,288,121089,2,0,L|385:293,1,110,2|2,0:0|0:0,0:0:0:0:
421,297,121609,1,10,0:0:0:0:
421,297,121783,1,2,0:0:0:0:
492,213,122129,2,0,L|487:137,1,55,0|8,3:2|0:0,0:0:0:0:
483,103,122476,6,0,P|427:90|372:104,1,110,2|2,0:0|0:0,0:0:0:0:
324,120,122997,2,0,L|250:117,1,55,10|2,0:0|0:0,0:0:0:0:
228,81,123343,2,0,L|112:85,1,110,2|10,0:0|0:0,0:0:0:0:
62,86,123864,2,0,P|52:145|74:213,1,110,2|2,0:0|0:0,0:0:0:0:
173,199,124557,2,0,P|183:258|161:326,1,110,2|2,0:0|3:2,0:0:0:0:
159,359,125077,2,0,L|247:357,1,55,8|8,0:0|3:2,0:0:0:0:
263,334,125424,6,0,P|319:348|382:328,1,110,6|0,3:2|3:2,0:0:0:0:
423,321,125945,1,0,3:2:0:0:
423,321,126118,2,0,L|414:202,1,110,8|0,0:0|0:0,0:0:0:0:
350,121,126812,2,0,L|355:27,2,82.5,2|0|0,3:2|0:0|0:0,0:0:0:0:
312,160,127505,1,8,0:0:0:0:
210,116,127852,2,0,L|216:42,1,55,2|8,0:0|0:0,0:0:0:0:
219,11,128199,5,2,3:2:0:0:
219,11,128372,2,0,L|82:15,1,110,8|0,0:0|3:2,0:0:0:0:
54,17,128892,1,8,0:0:0:0:
0,113,129239,1,2,0:0:0:0:
90,175,129586,2,0,P|98:238|75:304,1,110,2|2,0:0|3:2,0:0:0:0:
77,339,130106,1,0,3:2:0:0:
77,339,130280,2,0,L|232:332,1,110,10|2,0:0|3:2,0:0:0:0:
272,263,130973,6,0,P|332:254|384:265,1,110,6|8,3:2|0:0,0:0:0:0:
433,276,131494,2,0,L|426:134,1,110,6|10,3:2|0:0,0:0:0:0:
422,111,132014,1,6,3:2:0:0:
326,55,132361,1,0,0:0:0:0:
326,55,132534,2,0,L|334:189,1,110,0|0,3:2|3:2,0:0:0:0:
252,241,133228,2,0,L|249:315,2,55,0|0|2,3:2|3:2|3:2,0:0:0:0:
227,191,133748,5,6,3:2:0:0:
256,192,133835,12,2,135829,0:0:0:0:
450,48,136523,6,0,L|447:174,1,110,6|10,3:2|0:0,0:0:0:0:
442,267,137216,1,2,0:0:0:0:
442,267,137390,2,0,P|382:256|315:273,1,110,2|2,3:2|0:0,0:0:0:0:
236,314,138083,1,2,0:0:0:0:
172,224,138430,2,0,L|181:102,1,110,2|2,0:0|3:2,0:0:0:0:
184,59,138950,1,10,0:0:0:0:
79,25,139297,6,0,L|70:134,1,110,2|10,3:2|0:0,0:0:0:0:
22,233,139991,1,2,0:0:0:0:
22,233,140164,2,0,L|28:355,1,110,2|2,3:2|0:0,0:0:0:0:
135,364,140858,2,0,L|195:360,1,55,2|10,0:0|0:0,0:0:0:0:
221,314,141205,2,0,P|269:305|335:321,1,110,2|0,0:0|3:2,0:0:0:0:
379,338,141725,1,10,0:0:0:0:
462,266,142072,6,0,L|458:150,1,110,6|8,3:2|0:0,0:0:0:0:
448,46,142765,2,0,P|400:55|334:39,1,110,2|8,0:0|0:0,0:0:0:0:
232,22,143459,2,0,L|239:152,1,110,2|8,3:2|0:0,0:0:0:0:
240,242,144153,2,0,P|186:229|132:238,1,110,2|8,0:0|0:0,0:0:0:0:
26,266,144846,6,0,L|30:375,2,110,6|8|0,0:0|0:0|0:0,0:0:0:0:
49,216,145713,2,0,L|41:146,1,55,2|10,3:2|0:0,0:0:0:0:
35,106,146060,1,6,0:0:0:0:
113,28,146407,1,2,3:2:0:0:
206,92,146754,1,2,0:0:0:0:
206,92,146927,2,0,L|276:95,1,55,0|8,3:2|0:0,0:0:0:0:
315,98,147274,1,8,2:3:0:0:
399,31,147621,6,0,B|425:94|425:94|376:252,1,220,6|2,3:2|0:0,0:0:0:0:
360,292,148488,1,2,3:2:0:0:
360,292,148661,1,10,0:0:0:0:
256,255,149008,2,0,L|132:260,1,110,2|8,3:2|0:0,0:0:0:0:
90,258,149528,2,0,P|81:209|101:139,1,110,2|0,0:0|3:2,0:0:0:0:
130,109,150049,1,8,0:0:0:0:
231,66,150395,6,0,B|297:102|352:84|334:64|398:53|461:82,1,220,2|2,3:2|0:0,0:0:0:0:
501,96,151262,1,2,3:2:0:0:
501,96,151436,1,10,0:0:0:0:
505,205,151783,2,0,L|382:198,1,110,2|8,3:2|0:0,0:0:0:0:
339,197,152303,2,0,P|353:247|339:318,1,110,2|0,0:0|3:2,0:0:0:0:
315,350,152823,1,8,0:0:0:0:
204,351,153170,6,0,P|140:349|170:223,1,220,6|2,3:2|0:0,0:0:0:0:
207,214,154037,1,2,3:2:0:0:
207,214,154210,1,10,0:0:0:0:
316,208,154557,2,0,L|312:90,1,110,2|10,3:2|0:0,0:0:0:0:
310,42,155077,2,0,P|258:30|198:42,1,110,2|0,0:0|3:2,0:0:0:0:
154,66,155598,1,8,0:0:0:0:
109,166,155945,6,0,L|114:280,1,110,2|8,3:2|0:0,0:0:0:0:
122,330,156465,2,0,P|175:342|229:332,1,110,2|0,0:0|3:2,0:0:0:0:
273,300,156985,1,10,0:0:0:0:
374,342,157332,2,0,L|378:224,1,110,6|10,3:2|0:0,0:0:0:0:
380,176,157852,1,2,0:0:0:0:
333,76,158199,2,0,L|258:81,1,55,0|8,3:2|0:0,0:0:0:0:
227,87,158546,1,0,0:0:0:0:
227,87,158719,6,0,L|236:204,2,110,4|8|0,3:2|0:0|0:0,0:0:0:0:
218,32,159586,2,0,L|141:29,1,55,0|8,3:2|0:0,0:0:0:0:
112,33,159933,1,2,0:0:0:0:
112,33,160106,6,0,L|118:157,1,110,6|10,3:2|0:0,0:0:0:0:
115,253,160800,2,0,P|160:240|225:256,1,110,2|8,0:0|0:0,0:0:0:0:
273,270,161320,1,4,3:2:0:0:
378,300,161667,1,8,0:0:0:0:
378,300,161840,2,0,L|371:237,1,55,8|8,3:2|0:0,0:0:0:0:
416,212,162187,2,0,L|423:149,1,55,8|8,3:2|0:0,0:0:0:0:
368,143,162534,2,0,L|361:80,1,55,8|8,3:2|0:0,0:0:0:0:
393,42,162881,5,4,3:2:0:0:
438,95,165482,6,0,L|316:87,1,110,6|2,3:2|0:0,0:0:0:0:
283,54,166002,2,0,L|215:57,1,55,10|2,0:0|0:0,0:0:0:0:
172,59,166349,2,0,P|162:117|184:189,1,110,2|10,0:0|0:0,0:0:0:0:
198,215,166869,2,0,L|85:222,1,110,2|2,0:0|0:0,0:0:0:0:
36,319,167563,2,0,L|145:312,1,110,2|2,0:0|3:2,0:0:0:0:
251,344,168257,6,0,L|360:350,1,110,2|2,0:0|0:0,0:0:0:0:
420,357,168777,1,10,0:0:0:0:
420,357,168950,1,2,0:0:0:0:
496,277,169297,2,0,L|489:197,1,55,0|8,3:2|0:0,0:0:0:0:
485,167,169644,2,0,P|448:156|370:168,1,110,2|2,0:0|0:0,0:0:0:0:
331,190,170164,1,10,0:0:0:0:
331,190,170338,1,2,0:0:0:0:
228,151,170684,2,0,L|230:89,1,55,0|8,3:2|0:0,0:0:0:0:
232,45,171031,1,2,0:0:0:0:
232,45,171205,6,0,L|98:52,1,110,2|8,3:2|0:0,0:0:0:0:
71,58,171725,1,2,0:0:0:0:
71,58,171898,2,0,P|57:112|74:177,1,110,2|8,0:0|0:0,0:0:0:0:
100,208,172418,1,2,1:2:0:0:
50,306,172765,1,2,1:2:0:0:
143,363,173112,2,0,L|270:356,1,110,2|0,1:2|3:2,0:0:0:0:
292,319,173632,1,8,0:0:0:0:
292,319,173806,6,0,L|417:327,1,110,4|0,3:2|3:2,0:0:0:0:
456,329,174326,1,14,0:0:0:0:
500,228,174673,2,0,L|390:220,1,110,2|8,0:0|0:0,0:0:0:0:
335,217,175193,2,0,P|325:168|346:104,1,110,2|2,0:0|0:0,0:0:0:0:
376,69,175713,1,10,0:0:0:0:
376,69,175887,1,2,0:0:0:0:
287,3,176234,2,0,L|220:4,1,55,0|8,3:2|0:0,0:0:0:0:
177,6,176580,6,0,L|186:132,1,110,2|2,0:0|0:0,0:0:0:0:
237,134,177101,2,0,L|230:205,1,55,14|2,0:0|0:0,0:0:0:0:
218,241,177447,2,0,P|163:255|101:237,1,110,2|10,0:0|0:0,0:0:0:0:
58,227,177968,2,0,L|65:106,1,110,2|2,0:0|0:0,0:0:0:0:
126,26,178661,2,0,P|181:12|243:30,1,110,2|2,0:0|3:2,0:0:0:0:
271,63,179182,2,0,L|344:59,1,55,8|8,0:0|3:2,0:0:0:0:
385,59,179528,6,0,L|380:174,1,110,6|0,3:2|3:2,0:0:0:0:
380,228,180049,1,0,3:2:0:0:
380,228,180222,2,0,P|391:283|367:354,1,110,8|0,0:0|0:0,0:0:0:0:
272,364,180916,2,0,L|269:247,1,110,2|0,3:2|3:2,0:0:0:0:
321,156,181609,1,8,0:0:0:0:
257,66,181956,2,0,L|188:59,1,55,2|8,0:0|0:0,0:0:0:0:
151,62,182303,5,2,3:2:0:0:
151,62,182476,2,0,L|145:195,1,110,8|0,0:0|3:2,0:0:0:0:
111,215,182997,1,8,0:0:0:0:
33,292,183343,1,2,0:0:0:0:
109,371,183690,2,0,P|162:362|229:377,1,110,2|2,0:0|3:2,0:0:0:0:
276,383,184210,1,0,3:2:0:0:
276,383,184384,2,0,L|271:254,1,110,10|2,0:0|3:2,0:0:0:0:
277,161,185077,6,0,L|410:170,1,110,6|8,3:2|0:0,0:0:0:0:
442,170,185598,2,0,P|453:119|435:48,1,110,6|10,3:2|0:0,0:0:0:0:
407,20,186118,1,6,3:2:0:0:
297,11,186465,1,0,0:0:0:0:
297,11,186638,2,0,L|179:14,1,110,0|0,3:2|3:2,0:0:0:0:
117,99,187332,2,0,L|45:97,2,55,0|0|2,3:2|3:2|3:2,0:0:0:0:
165,126,187852,5,6,3:2:0:0:
256,192,187939,12,0,189933,0:0:0:0:
67,354,190627,6,0,L|73:238,1,110,6|10,3:2|0:0,0:0:0:0:
113,206,191147,2,0,L|107:90,1,110,6|10,3:2|0:0,0:0:0:0:
133,47,191667,1,6,3:2:0:0:
239,74,192014,1,10,0:0:0:0:
239,74,192187,2,0,L|369:71,1,110,6|10,3:2|0:0,0:0:0:0:
404,72,192708,2,0,L|399:143,1,55,6|10,3:2|0:0,0:0:0:0:
357,161,193054,2,0,L|362:232,1,55,10|2,0:0|3:2,0:0:0:0:
398,256,193401,5,6,3:2:0:0:
256,192,193488,12,0,196176,0:0:0:0:
