osu file format v14

[General]
AudioFilename: audio.mp3
AudioLeadIn: 0
PreviewTime: 51812
Countdown: 0
SampleSet: Soft
StackLeniency: 0.5
Mode: 0
LetterboxInBreaks: 0
WidescreenStoryboard: 1

[Editor]
DistanceSpacing: 1.4
BeatDivisor: 4
GridSize: 16
TimelineZoom: 2.699999

[Metadata]
Title:blooming
TitleUnicode:blooming
Artist:Yasuda Rei
ArtistUnicode:安田レイ
Creator:Glaceon
Version:Hard
Source:レイトン ミステリー探偵社 ~カトリーのナゾトキファイル~
Tags:japanese female vocals rachel rhodes Layton Mystery Tanteisha: Katri no Nazotoki File opening op op2 agatsu tomadoi shiinoha kotone
BeatmapID:1961481
BeatmapSetID:937782

[Difficulty]
HPDrainRate:4.5
CircleSize:3.5
OverallDifficulty:6
ApproachRate:7.5
SliderMultiplier:1.5
SliderTickRate:1

[Events]
//Background and Video events
0,0,"meowuwu.jpg",0,0
//Break Periods
//Storyboard Layer 0 (Background)
//Storyboard Layer 1 (Fail)
//Storyboard Layer 2 (Pass)
//Storyboard Layer 3 (Foreground)
//Storyboard Sound Samples

[TimingPoints]
-818,346.820809248555,4,2,22,80,1,0
569,-200,4,2,22,80,0,0
6031,-200,4,2,22,5,0,0
6118,-117.647058823529,4,2,22,80,0,0
17216,-117.647058823529,4,2,22,55,0,0
28314,-117.647058823529,4,2,22,65,0,0
39326,-117.647058823529,4,2,22,5,0,0
39413,-133.333333333333,4,2,22,65,0,0
44962,-117.647058823529,4,2,22,75,0,0
51378,-200,4,2,22,75,0,0
51725,-100,4,2,22,80,0,1
62476,-100,4,2,22,80,0,0
62823,-100,4,2,22,80,0,1
68199,-117.647058823529,4,2,22,80,0,1
68459,-117.647058823529,4,2,22,5,0,1
68546,-117.647058823529,4,2,22,80,0,0
74095,-100,4,2,22,80,0,1
76869,-100,4,2,22,80,0,0
77563,-100,4,2,22,50,0,0
79124,-200,4,2,22,65,0,0
79557,-200,4,2,22,5,0,0
79644,-100,4,2,22,80,0,0
85193,-117.647058823529,4,2,22,65,0,0
96291,-133.333333333333,4,2,22,65,0,0
101840,-117.647058823529,4,2,22,75,0,0
108257,-200,4,2,22,75,0,0
108603,-100,4,2,22,80,0,1
119355,-100,4,2,22,80,0,0
119702,-100,4,2,22,80,0,1
125077,-117.647058823529,4,2,22,80,0,1
125338,-117.647058823529,4,2,22,5,0,1
125424,-117.647058823529,4,2,22,80,0,0
130973,-100,4,2,22,80,0,1
133748,-100,4,2,22,80,0,0
134442,-100,4,2,22,50,0,0
136002,-200,4,2,22,65,0,0
136436,-200,4,2,22,5,0,0
136523,-117.647058823529,4,2,22,80,0,0
139210,-117.647058823529,4,2,22,80,0,0
139297,-117.647058823529,4,2,22,80,0,0
141985,-117.647058823529,4,2,22,80,0,0
142072,-117.647058823529,4,2,22,80,0,0
148921,-117.647058823529,4,2,22,80,0,0
149008,-117.647058823529,4,2,22,80,0,0
151696,-117.647058823529,4,2,22,80,0,0
151783,-117.647058823529,4,2,22,80,0,0
161840,-100,4,2,22,80,0,0
164788,-100,4,2,22,80,0,0
165482,-100,4,2,22,80,0,1
173459,-100,4,2,22,80,0,0
173806,-100,4,2,22,80,0,1
179528,-117.647058823529,4,2,22,80,0,0
185077,-100,4,2,22,80,0,1
187852,-100,4,2,22,80,0,0
189933,-100,4,2,22,50,0,0
190106,-200,4,2,22,80,0,0
190540,-200,4,2,22,5,0,0
190627,-117.647058823529,4,2,22,80,0,0
195829,-117.647058823529,4,2,22,10,0,0
196002,-117.647058823529,4,2,22,80,0,0

[Colours]
Combo1 : 255,79,79
Combo2 : 255,168,211
Combo3 : 117,255,117
Combo4 : 185,185,221

[HitObjects]
66,252,569,6,0,P|46:289|164:258,1,300,6|6,1:2|1:2,0:0:0:0:
140,159,2476,2,0,L|187:157,1,37.5,8|8,0:0|0:0,0:0:0:0:
240,109,2852,2,0,L|304:112,1,56.25,2|2,0:0|0:0,0:0:0:0:
389,164,3343,6,0,P|357:187|438:253,1,187.5,6|0,1:2|3:2,0:0:0:0:
472,181,4384,1,0,3:2:0:0:
416,85,4731,2,0,L|256:80,1,150,6|2,1:2|0:0,0:0:0:0:
201,25,5598,1,0,3:2:0:0:
201,25,5771,2,0,L|130:29,1,56.25,10|0,0:0|0:0,0:0:0:0:
110,51,6118,6,0,L|105:106,3,31.8750006079674,6|0|0|0,3:2|3:2|3:2|3:2,0:0:0:0:
132,115,6465,2,0,L|137:170,3,31.8750006079674,8|0|0|0,3:2|3:2|3:2|3:2,0:0:0:0:
108,178,6812,2,0,L|103:233,3,31.8750006079674,8|0|0|0,3:2|3:2|3:2|3:2,0:0:0:0:
135,236,7158,2,0,L|138:305,1,63.7500012159348,8|0,3:2|3:2,0:0:0:0:
219,316,7505,6,0,L|214:261,3,31.8750006079674,10|0|0|0,3:2|3:2|3:2|3:2,0:0:0:0:
241,252,7852,2,0,L|246:197,3,31.8750006079674,8|0|0|0,3:2|3:2|3:2|3:2,0:0:0:0:
217,189,8199,2,0,L|212:134,3,31.8750006079674,8|0|0|0,3:2|3:2|3:2|3:2,0:0:0:0:
244,131,8546,2,0,L|247:62,1,63.7500012159348,8|0,3:2|3:2,0:0:0:0:
329,71,8892,6,0,L|324:126,3,31.8750006079674,10|0|0|0,3:2|3:2|3:2|3:2,0:0:0:0:
351,135,9239,2,0,L|357:229,1,63.7500012159348,8|0,3:2|3:2,0:0:0:0:
292,253,9586,2,0,L|287:308,3,31.8750006079674,10|0|0|0,3:2|3:2|3:2|3:2,0:0:0:0:
319,311,9933,2,0,L|322:380,1,63.7500012159348,8|0,3:2|3:2,0:0:0:0:
438,336,10280,6,0,L|433:281,3,31.8750006079674,10|0|0|0,3:2|3:2|3:2|3:2,0:0:0:0:
460,272,10627,2,0,L|466:189,1,63.7500012159348,8|0,3:2|3:2,0:0:0:0:
411,145,10973,2,0,L|406:90,3,31.8750006079674,10|0|0|0,3:2|3:2|3:2|3:2,0:0:0:0:
438,87,11320,2,0,L|441:18,1,63.7500012159348,8|0,3:2|3:2,0:0:0:0:
357,23,11667,6,0,P|326:34|227:24,1,127.50000243187,6|8,1:2|0:0,0:0:0:0:
144,12,12187,2,0,L|157:153,1,127.50000243187,6|8,1:2|0:0,0:0:0:0:
233,184,12708,2,0,L|226:263,1,63.7500012159348,6|0,1:2|0:0,0:0:0:0:
219,333,13054,5,2,3:2:0:0:
219,333,13228,2,0,L|144:327,1,63.7500012159348,2|8,3:2|0:0,0:0:0:0:
141,239,13575,2,0,L|77:244,1,63.7500012159348,2|8,3:2|0:0,0:0:0:0:
2,202,13921,1,2,0:0:0:0:
16,114,14095,1,2,0:0:0:0:
104,104,14268,6,0,P|151:115|237:95,1,127.50000243187,6|0,0:0|3:2,0:0:0:0:
292,47,14788,2,0,B|309:91|309:91|287:174,1,127.50000243187,10|0,0:0|0:0,0:0:0:0:
255,252,15309,2,0,L|398:244,1,127.50000243187,2|0,1:2|3:2,0:0:0:0:
409,323,15829,6,0,L|317:328,1,63.7500012159348,2|10,3:2|0:0,0:0:0:0:
268,372,16176,2,0,L|204:368,1,63.7500012159348,10|10,3:2|0:0,0:0:0:0:
133,313,16523,1,10,3:2:0:0:
133,313,16696,1,10,0:0:0:0:
97,61,17216,6,0,P|148:76|234:60,1,127.50000243187,6|0,3:2|3:2,0:0:0:0:
301,45,17736,1,2,0:0:0:0:
301,45,17910,2,0,L|293:177,1,127.50000243187,0|0,3:2|3:2,0:0:0:0:
287,255,18430,1,2,0:0:0:0:
287,255,18603,6,0,L|380:246,1,63.7500012159348,2|0,3:2|0:0,0:0:0:0:
388,322,18950,2,0,L|324:328,1,63.7500012159348,2|0,3:2|0:0,0:0:0:0:
248,362,19297,2,0,P|203:372|110:353,1,127.50000243187,2|0,3:2|3:2,0:0:0:0:
72,293,19817,1,2,0:0:0:0:
119,224,19991,6,0,L|115:143,1,63.7500012159348,2|0,3:2|0:0,0:0:0:0:
191,126,20338,2,0,L|194:189,1,63.7500012159348,2|0,3:2|0:0,0:0:0:0:
272,215,20684,2,0,L|268:151,2,63.7500012159348,2|2|2,3:2|0:0|3:2,0:0:0:0:
330,274,21205,6,0,P|362:278|393:271,1,63.7500012159348,2|0,0:0|3:2,0:0:0:0:
448,210,21551,2,0,P|452:178|445:147,1,63.7500012159348,2|0,0:0|3:2,0:0:0:0:
384,91,21898,2,0,L|298:82,1,63.7500012159348,0|0,0:0|3:2,0:0:0:0:
242,55,22245,2,0,L|178:61,1,63.7500012159348,0|0,0:0|3:2,0:0:0:0:
126,126,22592,1,2,0:0:0:0:
159,201,22765,6,0,B|196:167|196:167|284:184,1,127.50000243187,6|0,3:2|3:2,0:0:0:0:
351,207,23286,1,2,0:0:0:0:
351,207,23459,2,0,L|343:69,1,127.50000243187,2|0,3:2|3:2,0:0:0:0:
341,0,23979,1,2,0:0:0:0:
341,0,24153,6,0,L|429:5,1,63.7500012159348,2|0,3:2|0:0,0:0:0:0:
407,83,24499,2,0,L|343:79,1,63.7500012159348,2|0,3:2|0:0,0:0:0:0:
260,70,24846,2,0,P|214:57|120:77,1,127.50000243187,2|0,3:2|3:2,0:0:0:0:
62,107,25366,1,2,0:0:0:0:
89,185,25540,6,0,L|89:261,1,63.7500012159348,2|0,3:2|0:0,0:0:0:0:
125,323,25887,2,0,P|168:328|211:315,1,63.7500012159348,2|0,3:2|0:0,0:0:0:0:
251,271,26234,2,0,L|336:275,2,63.7500012159348,2|2|2,3:2|0:0|3:2,0:0:0:0:
211,200,26754,6,0,P|207:160|218:116,1,63.7500012159348,2|0,0:0|3:2,0:0:0:0:
275,84,27101,2,0,P|315:80|359:91,1,63.7500012159348,0|0,0:0|3:2,0:0:0:0:
408,126,27447,1,0,0:0:0:0:
381,204,27621,2,0,L|374:343,1,127.50000243187,0|8,3:2|3:2,0:0:0:0:
298,364,28141,1,2,0:0:0:0:
246,291,28314,6,0,L|255:152,1,127.50000243187,6|8,1:2|0:0,0:0:0:0:
260,73,28835,1,2,0:0:0:0:
260,73,29008,2,0,B|216:54|216:54|129:75,1,127.50000243187,2|8,0:0|0:0,0:0:0:0:
58,95,29528,1,2,0:0:0:0:
58,95,29702,6,0,L|62:180,1,63.7500012159348,2|0,1:2|0:0,0:0:0:0:
134,196,30049,2,0,L|131:260,1,63.7500012159348,10|0,0:0|0:0,0:0:0:0:
198,306,30395,1,2,0:0:0:0:
270,264,30569,2,0,P|330:248|391:266,1,127.50000243187,0|2,1:2|0:0,0:0:0:0:
466,302,31089,6,0,L|471:225,1,63.7500012159348,2|0,1:2|0:0,0:0:0:0:
410,179,31436,2,0,L|405:102,1,63.7500012159348,10|0,0:0|0:0,0:0:0:0:
468,60,31783,1,2,0:0:0:0:
410,0,31956,1,2,1:2:0:0:
410,0,32129,1,10,0:0:0:0:
333,32,32303,6,0,L|246:31,1,63.7500012159348,2|0,1:2|0:0,0:0:0:0:
186,37,32650,2,0,P|181:73|193:116,1,63.7500012159348,2|8,1:2|0:0,0:0:0:0:
235,166,32997,2,0,P|240:197|235:228,1,63.7500012159348,0|0,1:2|0:0,0:0:0:0:
221,310,33343,2,0,L|284:309,1,63.7500012159348,0|8,1:2|0:0,0:0:0:0:
346,252,33690,1,2,0:0:0:0:
427,236,33864,6,0,L|413:387,1,127.50000243187,6|8,1:2|0:0,0:0:0:0:
333,364,34384,1,2,0:0:0:0:
333,364,34557,2,0,P|272:349|206:364,1,127.50000243187,2|8,0:0|0:0,0:0:0:0:
146,298,35077,1,2,0:0:0:0:
146,298,35251,6,0,L|151:230,1,63.7500012159348,2|0,1:2|0:0,0:0:0:0:
230,193,35598,2,0,L|225:125,1,63.7500012159348,10|0,0:0|0:0,0:0:0:0:
175,55,35945,1,2,0:0:0:0:
247,3,36118,2,0,L|383:8,1,127.50000243187,0|2,1:2|0:0,0:0:0:0:
446,61,36638,6,0,P|449:107|439:141,1,63.7500012159348,2|0,1:2|0:0,0:0:0:0:
370,173,36985,2,0,P|367:219|377:253,1,63.7500012159348,10|0,0:0|0:0,0:0:0:0:
408,317,37332,1,2,0:0:0:0:
342,377,37505,1,2,1:2:0:0:
342,377,37679,1,8,0:0:0:0:
269,324,37852,6,0,L|186:330,1,63.7500012159348,2|0,1:2|0:0,0:0:0:0:
167,247,38199,2,0,L|230:242,1,63.7500012159348,0|8,1:2|0:0,0:0:0:0:
304,191,38546,1,0,1:2:0:0:
264,111,38719,2,0,L|267:25,1,63.7500012159348,8|0,2:3|3:2,0:0:0:0:
355,40,39066,2,0,P|396:50|458:43,1,95.6250018239022,0|0,3:2|0:0,0:0:0:0:
485,41,39413,6,0,L|476:167,1,112.500004291535,6|2,1:2|0:0,0:0:0:0:
375,274,40106,2,0,L|385:143,1,112.500004291535,10|2,0:0|0:0,0:0:0:0:
391,82,40627,1,8,3:2:0:0:
391,82,40713,1,8,3:2:0:0:
391,82,40800,6,0,L|474:86,2,56.2500021457673,2|8|0,3:2|3:2|1:2,0:0:0:0:
241,32,41494,2,0,P|193:24|114:37,1,112.500004291535,8|0,0:0|0:0,0:0:0:0:
67,79,42014,1,8,3:2:0:0:
67,79,42101,1,8,3:2:0:0:
67,79,42187,6,0,L|70:157,1,56.2500021457673,2|8,3:2|0:0,0:0:0:0:
100,290,42708,1,2,1:2:0:0:
159,238,42881,2,0,B|199:218|199:218|283:248,1,112.500004291535,10|2,0:0|0:0,0:0:0:0:
323,190,43401,1,8,2:3:0:0:
323,190,43488,1,8,2:3:0:0:
323,190,43575,6,0,L|320:110,2,56.2500021457673,2|8|0,1:2|0:0|1:2,0:0:0:0:
363,258,44095,2,0,P|425:273|481:255,1,112.500004291535,0|0,0:0|1:2,0:0:0:0:
505,189,44615,2,0,L|500:112,1,56.2500021457673,8|0,0:0|0:0,0:0:0:0:
497,50,44962,6,0,P|462:45|419:56,1,63.7500012159348,6|0,3:2|0:0,0:0:0:0:
366,98,45309,2,0,P|334:102|303:97,1,63.7500012159348,0|2,3:2|0:0,0:0:0:0:
248,35,45655,2,0,L|170:38,1,63.7500012159348,2|0,3:2|0:0,0:0:0:0:
110,76,46002,1,2,3:2:0:0:
110,76,46176,1,2,0:0:0:0:
154,145,46349,6,0,L|157:224,1,63.7500012159348,2|0,3:2|0:0,0:0:0:0:
82,247,46696,2,0,L|79:183,1,63.7500012159348,2|0,3:2|0:0,0:0:0:0:
8,138,47043,2,0,P|-5:83|12:14,1,127.50000243187,2|0,3:2|3:2,0:0:0:0:
93,5,47563,1,2,0:0:0:0:
148,66,47736,5,6,3:2:0:0:
215,15,47910,1,0,3:2:0:0:
215,15,47997,1,0,3:2:0:0:
215,15,48083,2,0,L|246:17,3,31.8750006079674,10|0|0|2,3:2|3:2|3:2|3:2,0:0:0:0:
281,41,48430,2,0,L|312:38,3,31.8750006079674,8|0|2|0,3:2|3:2|3:2|3:2,0:0:0:0:
350,20,48777,2,0,L|345:110,1,63.7500012159348,8|2,3:2|3:2,0:0:0:0:
327,164,49124,6,0,L|331:225,3,31.8750006079674,12|0|0|0,3:2|3:2|3:2|3:2,0:0:0:0:
353,230,49471,2,0,L|350:261,3,31.8750006079674,8|0|0|0,3:2|3:2|3:2|3:2,0:0:0:0:
327,296,49817,2,0,L|329:327,3,31.8750006079674,8|0|2|0,3:2|3:2|3:2|3:2,0:0:0:0:
348,365,50164,2,0,L|258:360,1,63.7500012159348,10|0,3:2|3:2,0:0:0:0:
201,355,50511,6,0,P|198:312|211:267,1,63.7500012159348,12|8,3:2|3:2,0:0:0:0:
248,224,50858,2,0,P|252:192|248:160,1,63.7500012159348,8|8,3:2|3:2,0:0:0:0:
213,85,51205,1,8,3:2:0:0:
213,85,51378,1,8,3:2:0:0:
416,35,51725,6,0,B|398:75|411:114|418:107|431:149|403:207,1,150,4|0,3:2|3:2,0:0:0:0:
357,271,52245,2,0,L|257:263,1,75,10|0,0:0|0:0,0:0:0:0:
234,171,52592,2,0,L|159:176,1,75,2|0,0:0|1:2,0:0:0:0:
73,238,52939,1,8,0:0:0:0:
19,147,53112,6,0,P|11:106|27:59,1,75,2|0,0:0|3:2,0:0:0:0:
107,18,53459,2,0,P|148:10|195:26,1,75,2|8,0:0|0:0,0:0:0:0:
251,94,53806,2,0,P|296:115|412:78,1,150,2|0,0:0|3:2,0:0:0:0:
475,33,54326,1,8,0:0:0:0:
509,131,54499,6,0,L|504:290,1,150,2|2,0:0|0:0,0:0:0:0:
443,367,55020,1,10,0:0:0:0:
443,367,55193,1,2,0:0:0:0:
367,294,55366,2,0,L|268:289,1,75,2|0,0:0|3:2,0:0:0:0:
198,339,55713,1,10,0:0:0:0:
155,242,55887,6,0,L|158:148,1,75,2|0,0:0|3:2,0:0:0:0:
249,115,56234,2,0,L|246:189,1,75,2|8,0:0|0:0,0:0:0:0:
350,204,56580,2,0,P|408:213|449:198,1,75,2|0,0:0|0:0,0:0:0:0:
474,117,56927,2,0,P|416:108|375:123,1,75,2|8,3:2|0:0,0:0:0:0:
316,48,57274,6,0,B|264:68|264:68|147:32,1,150,2|2,0:0|0:0,0:0:0:0:
73,7,57794,1,10,0:0:0:0:
7,89,57968,2,0,L|21:253,1,150,2|0,0:0|3:2,0:0:0:0:
59,336,58488,1,8,0:0:0:0:
153,289,58661,6,0,P|228:271|327:307,1,150,2|2,0:0|0:0,0:0:0:0:
397,252,59182,1,10,0:0:0:0:
386,147,59355,2,0,P|328:164|230:139,1,150,2|0,0:0|3:2,0:0:0:0:
173,65,59875,1,8,0:0:0:0:
260,6,60049,1,2,0:0:0:0:
260,6,60222,6,0,L|432:15,1,150,2|8,3:2|0:0,0:0:0:0:
494,75,60742,1,2,0:0:0:0:
451,171,60916,2,0,P|446:215|463:269,1,75,2|0,0:0|3:2,0:0:0:0:
492,341,61262,1,8,0:0:0:0:
392,374,61436,6,0,L|309:370,1,75,2|0,1:2|0:0,0:0:0:0:
278,272,61783,1,2,1:2:0:0:
278,272,61956,1,10,0:0:0:0:
360,207,62129,2,0,P|378:141|354:54,1,150,2|0,1:2|3:2,0:0:0:0:
260,25,62650,1,8,0:0:0:0:
260,25,62736,1,0,1:2:0:0:
260,25,62823,6,0,B|220:7|181:20|188:27|146:40|88:12,1,150,4|0,3:2|3:2,0:0:0:0:
24,79,63343,2,0,L|36:186,1,75,14|0,0:0|0:0,0:0:0:0:
50,257,63690,2,0,P|94:265|152:248,1,75,2|0,0:0|3:2,0:0:0:0:
204,193,64037,1,8,0:0:0:0:
302,228,64210,6,0,L|295:135,1,75,2|0,0:0|3:2,0:0:0:0:
364,72,64557,1,2,0:0:0:0:
364,72,64731,1,10,0:0:0:0:
464,101,64904,2,0,B|492:151|492:151|454:271,1,150,2|0,0:0|3:2,0:0:0:0:
441,343,65424,1,8,0:0:0:0:
335,339,65598,6,0,P|279:323|183:339,1,150,2|2,0:0|0:0,0:0:0:0:
91,298,66118,1,10,0:0:0:0:
91,298,66291,1,2,0:0:0:0:
138,203,66465,2,0,L|143:97,1,75,2|0,0:0|3:2,0:0:0:0:
83,40,66812,1,10,0:0:0:0:
180,1,66985,6,0,L|285:8,1,75,2|0,0:0|3:2,0:0:0:0:
309,96,67332,2,0,L|234:91,1,75,2|8,0:0|0:0,0:0:0:0:
215,194,67679,2,0,P|210:258|225:297,1,75,2|0,0:0|0:0,0:0:0:0:
278,348,68025,1,2,3:2:0:0:
360,312,68199,1,8,0:0:0:0:
436,356,68372,1,8,3:2:0:0:
506,301,68546,5,6,3:2:0:0:
506,301,68719,2,0,L|500:161,1,127.50000243187,0|0,3:2|3:2,0:0:0:0:
493,84,69239,2,0,P|453:101|352:68,1,127.50000243187,8|0,0:0|0:0,0:0:0:0:
282,87,69760,1,8,0:0:0:0:
282,87,69846,1,8,0:0:0:0:
282,87,69933,6,0,L|287:163,1,63.7500012159348,2|8,3:2|0:0,0:0:0:0:
208,195,70280,2,0,L|203:131,1,63.7500012159348,0|0,3:2|0:0,0:0:0:0:
124,88,70627,2,0,P|89:83|47:90,1,63.7500012159348,8|0,0:0|3:2,0:0:0:0:
1,152,70973,1,2,0:0:0:0:
57,234,71147,1,8,0:0:0:0:
57,234,71234,1,8,0:0:0:0:
57,234,71320,6,0,L|61:317,1,63.7500012159348,2|8,3:2|0:0,0:0:0:0:
224,367,71840,1,0,3:2:0:0:
293,311,72014,2,0,L|369:315,1,63.7500012159348,8|0,0:0|0:0,0:0:0:0:
423,256,72361,2,0,P|429:205|422:176,1,63.7500012159348,2|0,0:0|3:2,0:0:0:0:
351,144,72708,6,0,P|345:93|352:64,1,63.7500012159348,2|8,0:0|0:0,0:0:0:0:
290,12,73054,1,2,3:2:0:0:
290,12,73228,1,0,3:2:0:0:
212,56,73401,2,0,L|218:133,1,63.7500012159348,10|0,0:0|3:2,0:0:0:0:
270,191,73748,2,0,L|264:268,1,63.7500012159348,2|8,3:2|0:0,0:0:0:0:
180,317,74095,6,0,L|98:320,2,75,6|2|8,3:2|0:0|0:0,0:0:0:0:
272,366,74615,2,0,L|354:369,1,75,6|2,3:2|0:0,0:0:0:0:
391,273,74962,1,10,0:0:0:0:
495,281,75135,2,0,L|486:177,1,75,6|0,3:2|0:0,0:0:0:0:
398,150,75482,5,0,0:0:0:0:
398,150,75655,2,0,L|407:46,1,75,0|8,3:2|0:0,0:0:0:0:
327,4,76002,2,0,P|283:14|234:6,1,75,0|8,0:0|0:0,0:0:0:0:
173,78,76349,2,0,P|135:76|99:85,2,75,0|0|2,3:2|3:2|3:2,0:0:0:0:
257,141,76869,5,6,3:2:0:0:
256,192,76956,12,8,79297,0:0:0:0:
86,120,79644,6,0,L|80:13,2,75,6|2|10,3:2|0:0|0:0,0:0:0:0:
167,186,80164,2,0,L|162:260,2,75,6|2|10,3:2|0:0|0:0,0:0:0:0:
256,130,80684,2,0,L|253:40,1,75,6|0,3:2|0:0,0:0:0:0:
350,13,81031,5,2,3:2:0:0:
350,13,81205,1,2,3:2:0:0:
441,64,81378,2,0,P|448:111|430:169,1,75,8|2,0:0|3:2,0:0:0:0:
361,203,81725,2,0,P|356:240|363:276,1,75,8|2,0:0|0:0,0:0:0:0:
388,379,82072,2,0,L|294:374,1,75,2|10,0:0|0:0,0:0:0:0:
237,302,82418,6,0,L|162:305,2,75,6|2|10,3:2|0:0|0:0,0:0:0:0:
285,207,82939,2,0,L|359:210,2,75,6|2|10,3:2|0:0|0:0,0:0:0:0:
237,112,83459,2,0,L|162:115,2,75,6|2|10,3:2|0:0|0:0,0:0:0:0:
285,17,83979,2,0,L|359:20,2,75,6|10|10,3:2|2:3|3:2,0:0:0:0:
179,13,84499,1,10,0:0:0:0:
179,13,84673,1,10,0:0:0:0:
55,228,85193,6,0,P|37:286|55:360,1,127.50000243187,6|8,3:2|0:0,0:0:0:0:
131,367,85713,1,2,0:0:0:0:
131,367,85887,2,0,L|262:360,1,127.50000243187,2|8,0:0|0:0,0:0:0:0:
341,356,86407,1,2,0:0:0:0:
341,356,86580,6,0,L|334:278,1,63.7500012159348,2|0,3:2|0:0,0:0:0:0:
272,238,86927,2,0,L|279:160,1,63.7500012159348,10|2,0:0|0:0,0:0:0:0:
337,117,87274,1,2,0:0:0:0:
281,56,87447,2,0,B|326:28|326:28|414:56,1,127.50000243187,0|2,3:2|0:0,0:0:0:0:
464,99,87968,6,0,P|470:145|457:180,1,63.7500012159348,2|0,3:2|0:0,0:0:0:0:
387,188,88314,2,0,P|382:219|389:250,1,63.7500012159348,8|0,0:0|0:0,0:0:0:0:
445,311,88661,1,2,0:0:0:0:
399,380,88835,1,2,3:2:0:0:
399,380,89008,1,8,0:0:0:0:
323,344,89182,6,0,L|248:339,1,63.7500012159348,2|0,3:2|0:0,0:0:0:0:
229,262,89528,2,0,L|165:266,1,63.7500012159348,2|8,3:2|0:0,0:0:0:0:
106,207,89875,2,0,P|102:166|113:129,1,63.7500012159348,0|0,0:0|3:2,0:0:0:0:
183,111,90222,2,0,P|187:152|176:189,1,63.7500012159348,0|8,3:2|0:0,0:0:0:0:
264,188,90569,1,2,0:0:0:0:
325,133,90742,6,0,P|374:117|453:141,1,127.50000243187,2|12,3:2|0:0,0:0:0:0:
498,199,91262,1,2,0:0:0:0:
498,199,91436,2,0,L|490:330,1,127.50000243187,2|8,0:0|0:0,0:0:0:0:
414,359,91956,1,2,0:0:0:0:
414,359,92129,6,0,L|331:355,1,63.7500012159348,2|0,3:2|0:0,0:0:0:0:
299,289,92476,2,0,L|235:292,1,63.7500012159348,10|2,0:0|0:0,0:0:0:0:
162,332,92823,1,2,0:0:0:0:
96,280,92997,2,0,B|76:233|76:233|110:136,1,127.50000243187,0|2,3:2|0:0,0:0:0:0:
137,85,93517,5,6,3:2:0:0:
137,85,93690,2,0,L|279:92,1,127.50000243187,8|2,0:0|3:2,0:0:0:0:
329,143,94210,1,10,0:0:0:0:
329,143,94384,1,2,3:2:0:0:
400,100,94557,1,10,0:0:0:0:
459,158,94731,6,0,P|465:202|455:246,1,63.7500012159348,6|0,3:2|0:0,0:0:0:0:
411,286,95077,2,0,P|367:292|323:282,1,63.7500012159348,8|0,0:0|3:2,0:0:0:0:
284,235,95424,1,0,3:2:0:0:
217,285,95598,2,0,P|201:240|247:158,1,127.50000243187,8|8,0:0|0:0,0:0:0:0:
297,120,96118,1,8,0:0:0:0:
297,120,96291,6,0,L|177:125,1,112.500004291535,6|2,3:2|0:0,0:0:0:0:
62,24,96985,2,0,L|174:19,1,112.500004291535,10|2,0:0|0:0,0:0:0:0:
260,45,97505,1,8,3:2:0:0:
260,45,97592,1,8,3:2:0:0:
260,45,97679,6,0,L|332:46,1,56.2500021457673,2|8,3:2|3:2,0:0:0:0:
390,19,98025,1,0,1:2:0:0:
474,151,98372,2,0,B|497:190|497:190|473:274,1,112.500004291535,8|0,0:0|0:0,0:0:0:0:
441,327,98892,1,8,3:2:0:0:
441,327,98979,1,8,3:2:0:0:
441,327,99066,6,0,L|361:329,1,56.2500021457673,2|8,3:2|3:2,0:0:0:0:
227,335,99586,1,2,1:2:0:0:
265,266,99760,2,0,P|271:222|265:186,1,56.2500021457673,10|0,0:0|0:0,0:0:0:0:
216,152,100106,2,0,P|210:108|216:72,1,56.2500021457673,2|8,0:0|3:2,0:0:0:0:
273,48,100453,6,0,L|371:54,2,84.3750032186509,2|0|0,3:2|0:0|3:2,0:0:0:0:
199,18,101147,2,0,P|149:32|82:12,1,112.500004291535,8|0,0:0|3:2,0:0:0:0:
25,62,101667,1,8,3:2:0:0:
63,135,101840,6,0,L|69:217,1,63.7500012159348,6|0,3:2|0:0,0:0:0:0:
144,229,102187,2,0,L|138:311,1,63.7500012159348,0|0,3:2|0:0,0:0:0:0:
104,368,102534,2,0,P|145:375|184:364,1,63.7500012159348,2|0,3:2|0:0,0:0:0:0:
239,331,102881,1,2,3:2:0:0:
239,331,103054,1,2,0:0:0:0:
320,347,103228,6,0,L|316:267,1,63.7500012159348,6|0,3:2|0:0,0:0:0:0:
260,222,103575,2,0,L|264:142,1,63.7500012159348,2|0,3:2|0:0,0:0:0:0:
296,82,103921,2,0,P|264:78|232:81,2,63.7500012159348,2|8|0,3:2|0:0|3:2,0:0:0:0:
370,119,104442,1,10,2:3:0:0:
445,85,104615,5,2,0:0:0:0:
499,161,104788,1,0,3:2:0:0:
499,161,104875,1,0,3:2:0:0:
499,161,104962,2,0,L|494:212,3,31.8750006079674,10|0|2|0,3:2|3:2|3:2|3:2,0:0:0:0:
465,219,105309,2,0,L|470:270,3,31.8750006079674,8|0|2|0,3:2|3:2|3:2|3:2,0:0:0:0:
503,272,105655,2,0,L|500:354,1,63.7500012159348,8|2,3:2|3:2,0:0:0:0:
418,346,106002,6,0,L|367:351,3,31.8750006079674,12|0|0|0,3:2|3:2|3:2|3:2,0:0:0:0:
360,380,106349,2,0,L|309:375,3,31.8750006079674,8|0|0|0,3:2|3:2|3:2|3:2,0:0:0:0:
302,346,106696,2,0,L|251:351,3,31.8750006079674,8|0|2|0,3:2|3:2|3:2|3:2,0:0:0:0:
249,384,107043,2,0,L|167:381,1,63.7500012159348,10|0,3:2|3:2,0:0:0:0:
118,331,107390,6,0,P|115:290|126:246,1,63.7500012159348,14|8,3:2|3:2,0:0:0:0:
183,217,107736,2,0,P|187:185|183:153,1,63.7500012159348,8|8,3:2|3:2,0:0:0:0:
148,78,108083,1,8,3:2:0:0:
148,78,108257,1,8,3:2:0:0:
324,5,108603,6,0,B|349:44|349:44|329:160,1,150,4|0,3:2|3:2,0:0:0:0:
317,251,109124,2,0,L|420:245,1,75,10|0,0:0|0:0,0:0:0:0:
459,327,109471,2,0,L|384:331,1,75,2|0,0:0|1:2,0:0:0:0:
290,378,109817,1,8,0:0:0:0:
207,312,109991,6,0,P|202:260|216:215,1,75,2|0,0:0|3:2,0:0:0:0:
274,157,110338,2,0,P|279:120|273:83,1,75,2|8,0:0|0:0,0:0:0:0:
193,15,110684,2,0,P|120:35|43:9,1,150,2|0,0:0|3:2,0:0:0:0:
2,108,111205,1,8,0:0:0:0:
84,172,111378,6,0,B|100:214|100:214|68:315,1,150,2|2,0:0|0:0,0:0:0:0:
157,370,111898,1,10,0:0:0:0:
157,370,112072,1,2,0:0:0:0:
237,302,112245,2,0,P|278:295|329:309,1,75,2|0,0:0|3:2,0:0:0:0:
410,333,112592,1,10,0:0:0:0:
448,235,112765,6,0,L|442:142,1,75,2|0,0:0|3:2,0:0:0:0:
354,103,113112,2,0,L|358:177,1,75,2|8,0:0|0:0,0:0:0:0:
268,231,113459,2,0,P|213:237|169:223,1,75,2|0,0:0|0:0,0:0:0:0:
139,142,113806,2,0,P|133:87|147:43,1,75,2|8,3:2|0:0,0:0:0:0:
227,14,114153,6,0,P|269:29|381:4,1,150,2|2,0:0|0:0,0:0:0:0:
474,26,114673,1,10,0:0:0:0:
508,124,114846,2,0,L|498:281,1,150,2|0,0:0|3:2,0:0:0:0:
421,345,115366,1,8,0:0:0:0:
338,279,115540,6,0,L|347:129,1,150,2|2,0:0|0:0,0:0:0:0:
407,42,116060,1,10,0:0:0:0:
309,0,116234,2,0,B|260:24|260:24|149:-1,1,150,2|0,0:0|3:2,0:0:0:0:
71,47,116754,1,8,0:0:0:0:
107,145,116927,1,2,0:0:0:0:
107,145,117101,6,0,L|109:303,1,150,2|8,3:2|0:0,0:0:0:0:
194,356,117621,1,2,0:0:0:0:
280,296,117794,2,0,L|277:200,1,75,2|0,0:0|3:2,0:0:0:0:
226,129,118141,1,8,0:0:0:0:
297,52,118314,6,0,P|340:46|403:62,1,75,2|0,1:2|0:0,0:0:0:0:
440,129,118661,1,2,1:2:0:0:
440,129,118835,1,10,0:0:0:0:
394,223,119008,2,0,B|351:194|351:194|245:217,1,150,2|0,1:2|3:2,0:0:0:0:
152,190,119528,1,8,0:0:0:0:
152,190,119615,1,0,1:2:0:0:
152,190,119702,6,0,P|128:114|151:35,1,150,4|0,3:2|3:2,0:0:0:0:
245,18,120222,2,0,L|241:106,1,75,14|0,0:0|0:0,0:0:0:0:
328,152,120569,2,0,L|331:77,1,75,2|0,0:0|3:2,0:0:0:0:
411,8,120916,1,8,0:0:0:0:
491,75,121089,6,0,P|498:127|482:173,1,75,2|0,0:0|3:2,0:0:0:0:
423,227,121436,1,2,0:0:0:0:
423,227,121609,1,10,0:0:0:0:
493,305,121783,2,0,P|441:279|338:301,1,150,2|0,0:0|3:2,0:0:0:0:
248,305,122303,1,8,0:0:0:0:
183,222,122476,6,0,B|222:189|222:189|354:208,1,150,2|2,0:0|0:0,0:0:0:0:
408,145,122997,1,10,0:0:0:0:
408,145,123170,1,2,0:0:0:0:
501,191,123343,2,0,L|494:100,1,75,2|0,0:0|3:2,0:0:0:0:
448,21,123690,1,10,0:0:0:0:
348,56,123864,6,0,P|306:62|260:49,1,75,2|0,0:0|3:2,0:0:0:0:
182,7,124210,2,0,P|145:0|108:6,1,75,2|8,0:0|0:0,0:0:0:0:
68,103,124557,2,0,L|74:195,1,75,2|0,0:0|0:0,0:0:0:0:
1,255,124904,1,2,3:2:0:0:
43,333,125077,1,8,0:0:0:0:
131,319,125251,1,8,3:2:0:0:
151,232,125424,5,6,3:2:0:0:
151,232,125598,2,0,P|219:216|288:227,1,127.50000243187,0|0,3:2|3:2,0:0:0:0:
362,244,126118,2,0,P|425:250|486:234,1,127.50000243187,8|0,0:0|0:0,0:0:0:0:
485,145,126638,1,8,0:0:0:0:
485,145,126725,1,8,0:0:0:0:
485,145,126812,6,0,L|397:153,1,63.7500012159348,2|8,3:2|0:0,0:0:0:0:
341,111,127158,2,0,L|277:105,1,63.7500012159348,0|0,3:2|0:0,0:0:0:0:
196,67,127505,2,0,P|188:124|196:152,1,63.7500012159348,8|0,0:0|3:2,0:0:0:0:
217,214,127852,1,2,0:0:0:0:
192,299,128025,1,8,0:0:0:0:
192,299,128112,1,8,0:0:0:0:
192,299,128199,6,0,L|271:298,1,63.7500012159348,2|8,3:2|0:0,0:0:0:0:
404,199,128719,1,0,3:2:0:0:
346,131,128892,2,0,P|341:91|349:55,1,63.7500012159348,8|0,0:0|0:0,0:0:0:0:
405,1,129239,2,0,P|445:-4|481:4,1,63.7500012159348,2|0,0:0|3:2,0:0:0:0:
500,83,129586,6,0,L|496:171,1,63.7500012159348,2|8,0:0|0:0,0:0:0:0:
508,235,129933,1,2,3:2:0:0:
508,235,130106,1,0,3:2:0:0:
433,285,130280,2,0,L|351:281,1,63.7500012159348,10|0,0:0|3:2,0:0:0:0:
287,317,130627,2,0,L|223:320,1,63.7500012159348,2|8,3:2|0:0,0:0:0:0:
133,374,130973,6,0,L|46:370,2,75,6|2|8,3:2|0:0|0:0,0:0:0:0:
223,319,131494,2,0,P|218:281|224:245,1,75,6|2,3:2|0:0,0:0:0:0:
162,160,131840,1,10,0:0:0:0:
245,95,132014,2,0,P|251:47|238:0,1,75,6|0,3:2|0:0,0:0:0:0:
146,2,132361,5,0,0:0:0:0:
146,2,132534,2,0,L|55:9,1,75,0|8,3:2|0:0,0:0:0:0:
27,103,132881,2,0,L|101:97,1,75,0|8,3:2|0:0,0:0:0:0:
156,187,133228,2,0,P|161:244|150:275,2,75,0|0|2,3:2|3:2|3:2,0:0:0:0:
246,132,133748,5,6,3:2:0:0:
256,192,133835,12,8,136176,0:0:0:0:
422,188,136523,6,0,P|432:253|412:328,2,127.50000243187,6|10|2,3:2|0:0|0:0,0:0:0:0:
344,143,137390,2,0,L|348:55,1,63.7500012159348,2|8,3:2|0:0,0:0:0:0:
276,24,137736,6,0,P|248:28|195:16,1,63.7500012159348,2|0,0:0|3:2,0:0:0:0:
136,69,138083,2,0,P|104:64|73:68,1,63.7500012159348,2|8,0:0|0:0,0:0:0:0:
29,146,138430,2,0,B|54:185|54:185|32:289,1,127.50000243187,2|2,0:0|3:2,0:0:0:0:
21,352,138950,2,0,L|111:348,1,63.7500012159348,10|0,0:0|0:0,0:0:0:0:
162,305,139297,6,0,L|302:309,2,127.50000243187,2|10|2,3:2|0:0|0:0,0:0:0:0:
114,228,140164,2,0,L|122:144,1,63.7500012159348,2|10,3:2|0:0,0:0:0:0:
130,75,140511,6,0,P|193:90|263:75,1,127.50000243187,2|2,0:0|0:0,0:0:0:0:
330,44,141031,1,10,0:0:0:0:
379,118,141205,2,0,L|373:268,1,127.50000243187,2|0,0:0|3:2,0:0:0:0:
367,334,141725,2,0,L|274:328,1,63.7500012159348,10|0,0:0|0:0,0:0:0:0:
234,273,142072,6,0,P|177:258|98:272,2,127.50000243187,6|8|2,3:2|0:0|0:0,0:0:0:0:
283,198,142939,1,0,3:2:0:0:
283,198,143112,2,0,L|278:124,1,63.7500012159348,8|0,0:0|0:0,0:0:0:0:
273,44,143459,6,0,P|330:29|409:43,2,127.50000243187,2|8|2,3:2|0:0|0:0,0:0:0:0:
203,100,144326,1,0,3:2:0:0:
203,100,144499,2,0,L|120:96,1,63.7500012159348,8|0,0:0|0:0,0:0:0:0:
84,167,144846,6,0,B|64:206|64:206|73:310,2,127.50000243187,6|8|0,0:0|0:0|0:0,0:0:0:0:
152,224,145713,1,2,3:2:0:0:
152,224,145887,1,10,0:0:0:0:
232,186,146060,6,0,P|302:173|376:200,1,127.50000243187,6|2,0:0|3:2,0:0:0:0:
439,218,146580,1,8,0:0:0:0:
439,218,146754,2,0,L|434:76,1,127.50000243187,2|8,0:0|0:0,0:0:0:0:
365,33,147274,1,8,2:3:0:0:
290,81,147447,1,0,0:0:0:0:
220,24,147621,6,0,L|89:28,2,127.50000243187,6|8|2,3:2|0:0|0:0,0:0:0:0:
290,81,148488,1,2,3:2:0:0:
238,153,148661,2,0,P|229:210|245:269,1,95.6250018239022,10|0,0:0|0:0,0:0:0:0:
238,291,149008,6,0,L|150:288,2,63.7500012159348,2|0|8,3:2|0:0|0:0,0:0:0:0:
317,332,149528,2,0,P|376:317|452:341,1,127.50000243187,2|0,0:0|3:2,0:0:0:0:
499,266,150049,2,0,L|495:194,1,63.7500012159348,8|0,0:0|0:0,0:0:0:0:
435,136,150395,6,0,L|442:5,2,127.50000243187,2|8|2,3:2|0:0|0:0,0:0:0:0:
364,190,151262,1,2,3:2:0:0:
293,135,151436,2,0,P|244:126|181:141,1,95.6250018239022,10|0,0:0|0:0,0:0:0:0:
155,141,151783,6,0,L|159:65,2,63.7500012159348,2|0|8,3:2|0:0|0:0,0:0:0:0:
91,204,152303,2,0,P|75:259|90:337,1,127.50000243187,2|0,0:0|3:2,0:0:0:0:
161,374,152823,2,0,L|245:369,1,63.7500012159348,8|0,0:0|0:0,0:0:0:0:
274,296,153170,6,0,L|410:304,2,127.50000243187,6|8|2,3:2|0:0|0:0,0:0:0:0:
211,232,154037,1,2,3:2:0:0:
271,166,154210,2,0,P|280:120|270:60,1,95.6250018239022,10|0,0:0|0:0,0:0:0:0:
260,29,154557,6,0,L|351:32,1,63.7500012159348,2|2,3:2|0:0,0:0:0:0:
399,79,154904,1,10,0:0:0:0:
473,31,155077,2,0,B|492:76|492:76|466:177,1,127.50000243187,2|0,0:0|3:2,0:0:0:0:
405,213,155598,2,0,L|410:288,1,63.7500012159348,8|0,0:0|0:0,0:0:0:0:
339,332,155945,6,0,P|280:316|208:332,1,127.50000243187,2|8,3:2|0:0,0:0:0:0:
130,355,156465,2,0,L|139:211,1,127.50000243187,2|0,0:0|3:2,0:0:0:0:
198,161,156985,1,10,0:0:0:0:
146,88,157158,1,8,0:0:0:0:
146,88,157245,1,8,0:0:0:0:
146,88,157332,6,0,B|185:65|185:65|274:87,1,127.50000243187,6|10,3:2|0:0,0:0:0:0:
321,154,157852,2,0,P|345:110|324:26,1,127.50000243187,2|0,0:0|3:2,0:0:0:0:
415,4,158372,2,0,L|506:9,1,63.7500012159348,8|0,0:0|0:0,0:0:0:0:
511,90,158719,6,0,L|505:233,2,127.50000243187,4|8|0,3:2|0:0|0:0,0:0:0:0:
423,110,159586,1,0,3:2:0:0:
347,62,159760,1,8,0:0:0:0:
347,62,159933,1,2,0:0:0:0:
276,116,160106,6,0,P|222:107|134:129,2,127.50000243187,6|10|2,3:2|0:0|0:0,0:0:0:0:
343,175,160973,1,0,3:2:0:0:
292,241,161147,1,8,0:0:0:0:
339,308,161320,6,0,B|305:339|305:339|209:326,1,127.50000243187,4|8,3:2|0:0,0:0:0:0:
139,376,161840,2,0,P|91:381|51:365,1,75,8|8,3:2|0:0,0:0:0:0:
3,298,162187,2,0,P|-2:250|14:210,1,75,8|8,3:2|0:0,0:0:0:0:
69,150,162534,1,8,3:2:0:0:
69,150,162708,1,8,0:0:0:0:
159,184,162881,5,4,3:2:0:0:
263,199,163575,5,4,3:2:0:0:
365,213,164268,5,4,3:2:0:0:
463,180,164788,6,0,L|465:132,2,37.5,10|8|8,0:0|0:0|0:0,0:0:0:0:
436,275,165135,2,0,L|440:359,1,75,8|8,2:3|2:3,0:0:0:0:
334,347,165482,6,0,B|288:378|288:378|190:356,1,150,6|2,3:2|0:0,0:0:0:0:
90,363,166002,1,10,0:0:0:0:
90,363,166176,1,2,0:0:0:0:
49,266,166349,2,0,L|55:165,1,75,2|0,0:0|3:2,0:0:0:0:
110,102,166696,1,10,0:0:0:0:
74,3,166869,6,0,P|124:-3|167:10,1,75,2|0,0:0|3:2,0:0:0:0:
209,87,167216,2,0,P|245:92|282:85,1,75,2|8,0:0|0:0,0:0:0:0:
360,14,167563,2,0,L|448:19,1,75,2|0,0:0|0:0,0:0:0:0:
471,117,167910,2,0,L|396:112,1,75,2|8,3:2|0:0,0:0:0:0:
327,192,168257,6,0,P|307:253|329:347,1,150,2|2,0:0|0:0,0:0:0:0:
223,372,168777,1,10,0:0:0:0:
145,301,168950,2,0,L|155:137,1,150,2|0,0:0|3:2,0:0:0:0:
98,61,169471,1,8,0:0:0:0:
191,12,169644,6,0,B|236:38|236:38|355:18,1,150,2|2,0:0|0:0,0:0:0:0:
414,88,170164,1,10,0:0:0:0:
498,24,170338,2,0,P|516:88|474:190,1,150,2|0,0:0|3:2,0:0:0:0:
410,231,170858,1,8,0:0:0:0:
459,323,171031,1,2,0:0:0:0:
459,323,171205,6,0,L|289:317,1,150,2|8,3:2|0:0,0:0:0:0:
220,260,171725,1,2,0:0:0:0:
122,299,171898,2,0,L|132:193,1,75,2|0,0:0|3:2,0:0:0:0:
185,135,172245,1,8,0:0:0:0:
128,46,172418,6,0,P|85:39|39:48,1,75,2|0,1:2|0:0,0:0:0:0:
2,135,172765,1,2,1:2:0:0:
2,135,172939,1,10,0:0:0:0:
84,199,173112,2,0,B|133:172|133:172|247:201,1,150,2|0,1:2|3:2,0:0:0:0:
323,161,173632,1,8,0:0:0:0:
323,161,173719,1,0,1:2:0:0:
323,161,173806,6,0,L|316:-1,1,150,4|0,3:2|3:2,0:0:0:0:
411,56,174326,2,0,L|415:144,1,75,14|0,0:0|0:0,0:0:0:0:
477,215,174673,2,0,L|473:303,1,75,2|0,0:0|3:2,0:0:0:0:
393,357,175020,1,8,0:0:0:0:
302,305,175193,6,0,P|298:265|307:218,1,75,2|0,0:0|3:2,0:0:0:0:
346,134,175540,1,2,0:0:0:0:
346,134,175713,1,10,0:0:0:0:
276,55,175887,2,0,P|216:70|129:49,1,150,2|0,0:0|3:2,0:0:0:0:
42,105,176407,1,8,0:0:0:0:
97,193,176580,6,0,L|101:364,1,150,2|2,0:0|0:0,0:0:0:0:
202,372,177101,1,14,0:0:0:0:
202,372,177274,1,2,0:0:0:0:
276,298,177447,2,0,P|316:292|362:305,1,75,2|0,0:0|3:2,0:0:0:0:
452,319,177794,1,10,0:0:0:0:
469,215,177968,6,0,L|462:115,1,75,2|0,0:0|3:2,0:0:0:0:
366,100,178314,2,0,L|371:174,1,75,2|8,0:0|0:0,0:0:0:0:
271,207,178661,2,0,P|226:214|185:205,1,75,2|0,0:0|0:0,0:0:0:0:
108,152,179008,1,2,3:2:0:0:
103,257,179182,1,8,0:0:0:0:
15,199,179355,1,8,3:2:0:0:
18,301,179528,5,6,3:2:0:0:
18,301,179702,2,0,B|85:347|85:347|151:334,1,127.50000243187,0|0,3:2|3:2,0:0:0:0:
212,303,180222,2,0,P|272:317|343:297,1,127.50000243187,8|0,0:0|0:0,0:0:0:0:
399,239,180742,1,8,0:0:0:0:
399,239,180829,1,8,0:0:0:0:
399,239,180916,6,0,L|405:152,1,63.7500012159348,2|8,3:2|0:0,0:0:0:0:
446,97,181262,2,0,L|440:10,1,63.7500012159348,0|0,3:2|0:0,0:0:0:0:
355,9,181609,2,0,P|321:16|273:5,1,63.7500012159348,8|0,0:0|3:2,0:0:0:0:
203,3,181956,1,2,0:0:0:0:
167,84,182129,1,8,0:0:0:0:
167,84,182216,1,8,0:0:0:0:
167,84,182303,6,0,L|171:170,1,63.7500012159348,2|8,3:2|0:0,0:0:0:0:
205,322,182823,1,0,3:2:0:0:
124,362,182997,2,0,P|85:365|45:355,1,63.7500012159348,8|0,0:0|0:0,0:0:0:0:
30,277,183343,2,0,P|69:274|109:284,1,63.7500012159348,2|0,0:0|3:2,0:0:0:0:
161,220,183690,6,0,L|250:216,1,63.7500012159348,2|8,0:0|0:0,0:0:0:0:
302,269,184037,1,2,3:2:0:0:
302,269,184210,1,0,3:2:0:0:
379,223,184384,2,0,L|370:136,1,63.7500012159348,10|0,0:0|3:2,0:0:0:0:
303,102,184731,2,0,L|310:14,1,63.7500012159348,2|8,3:2|0:0,0:0:0:0:
407,4,185077,6,0,L|511:1,2,75,6|2|8,3:2|0:0|0:0,0:0:0:0:
308,38,185598,2,0,L|233:35,1,75,6|2,3:2|0:0,0:0:0:0:
133,0,185945,1,10,0:0:0:0:
73,86,186118,2,0,L|81:184,1,75,6|0,3:2|0:0,0:0:0:0:
169,214,186465,5,0,0:0:0:0:
169,214,186638,2,0,L|160:315,1,75,0|8,3:2|0:0,0:0:0:0:
239,360,186985,2,0,P|289:368|331:356,1,75,0|8,3:2|0:0,0:0:0:0:
370,275,187332,2,0,P|407:270|443:278,2,75,0|0|2,3:2|3:2|3:2,0:0:0:0:
289,206,187852,5,6,3:2:0:0:
256,192,187939,12,0,190280,0:0:0:0:
102,261,190627,6,0,L|106:345,2,63.7500012159348,6|2|10,3:2|0:0|0:0,0:0:0:0:
174,208,191147,6,0,L|177:144,2,63.7500012159348,6|2|10,3:2|0:0|0:0,0:0:0:0:
246,260,191667,5,6,3:2:0:0:
246,260,191840,2,0,L|250:344,1,63.7500012159348,2|10,0:0|0:0,0:0:0:0:
326,215,192187,5,6,3:2:0:0:
326,215,192361,2,0,L|330:131,1,63.7500012159348,2|10,0:0|0:0,0:0:0:0:
401,264,192708,6,0,P|445:269|486:259,1,63.7500012159348,6|10,3:2|0:0,0:0:0:0:
505,187,193054,2,0,P|510:143|500:102,1,63.7500012159348,10|2,0:0|3:2,0:0:0:0:
450,54,193401,5,6,3:2:0:0:
256,192,193488,12,0,196176,0:0:0:0:
