osu file format v14

[General]
AudioFilename: audio.mp3
AudioLeadIn: 0
PreviewTime: 51812
Countdown: 0
SampleSet: Soft
StackLeniency: 0.7
Mode: 0
LetterboxInBreaks: 0
WidescreenStoryboard: 1

[Editor]
DistanceSpacing: 1
BeatDivisor: 4
GridSize: 16
TimelineZoom: 2

[Metadata]
Title:blooming
TitleUnicode:blooming
Artist:Yasuda Rei
ArtistUnicode:安田レイ
Creator:Glaceon
Version:Easy
Source:レイトン ミステリー探偵社 ~カトリーのナゾトキファイル~
Tags:japanese female vocals rachel rhodes Layton Mystery Tanteisha: Katri no Nazotoki File opening op op2 agatsu tomadoi shiinoha kotone
BeatmapID:1959273
BeatmapSetID:937782

[Difficulty]
HPDrainRate:2
CircleSize:2
OverallDifficulty:2
ApproachRate:3
SliderMultiplier:0.899999999999999
SliderTickRate:1

[Events]
//Background and Video events
0,0,"meowuwu.jpg",0,0
//Break Periods
2,163081,164042
//Storyboard Layer 0 (Background)
//Storyboard Layer 1 (Fail)
//Storyboard Layer 2 (Pass)
//Storyboard Layer 3 (Foreground)
//Storyboard Sound Samples

[TimingPoints]
-818,346.820809248555,4,2,22,80,1,0
569,-100,4,2,22,80,0,0
6031,-100,4,2,22,5,0,0
6118,-100,4,2,22,80,0,0
17216,-100,4,2,22,55,0,0
28314,-100,4,2,22,65,0,0
39326,-100,4,2,22,5,0,0
39413,-100,4,2,22,65,0,0
44962,-100,4,2,22,75,0,0
51378,-100,4,2,22,75,0,0
51725,-100,4,2,22,80,0,1
62476,-100,4,2,22,80,0,0
62823,-100,4,2,22,80,0,1
68199,-100,4,2,22,80,0,1
68459,-100,4,2,22,5,0,1
68546,-100,4,2,22,80,0,0
74095,-100,4,2,22,80,0,1
76869,-100,4,2,22,80,0,0
77563,-100,4,2,22,50,0,0
78257,-100,4,2,22,50,0,0
78950,-100,4,2,22,50,0,0
79124,-100,4,2,22,65,0,0
79557,-100,4,2,22,5,0,0
79644,-100,4,2,22,80,0,0
85193,-100,4,2,22,65,0,0
96291,-100,4,2,22,65,0,0
101840,-100,4,2,22,75,0,0
108257,-100,4,2,22,75,0,0
108603,-100,4,2,22,80,0,1
119355,-100,4,2,22,80,0,0
119702,-100,4,2,22,80,0,1
125077,-100,4,2,22,80,0,1
125338,-100,4,2,22,5,0,1
125424,-100,4,2,22,80,0,0
130973,-100,4,2,22,80,0,1
133748,-100,4,2,22,80,0,0
134442,-100,4,2,22,50,0,0
135135,-100,4,2,22,50,0,0
135829,-100,4,2,22,50,0,0
136002,-100,4,2,22,65,0,0
136436,-100,4,2,22,5,0,0
136523,-100,4,2,22,80,0,0
161840,-100,4,2,22,80,0,0
164788,-100,4,2,22,80,0,0
165482,-100,4,2,22,80,0,1
173459,-100,4,2,22,80,0,0
173806,-100,4,2,22,80,0,1
179528,-100,4,2,22,80,0,0
185077,-100,4,2,22,80,0,1
187852,-100,4,2,22,80,0,0
189239,-100,4,2,22,80,0,0
189933,-100,4,2,22,50,0,0
190106,-100,4,2,22,80,0,0
190540,-100,4,2,22,5,0,0
190627,-100,4,2,22,80,0,0
195829,-100,4,2,22,10,0,0
196002,-100,4,2,22,80,0,0

[Colours]
Combo1 : 255,79,79
Combo2 : 255,168,211
Combo3 : 117,255,117
Combo4 : 185,185,221

[HitObjects]
94,185,569,6,0,P|61:226|222:238,1,360,6|6,1:2|1:2,0:0:0:0:
503,18,3343,2,0,L|497:253,1,225,6|0,1:2|3:2,0:0:0:0:
397,334,4731,2,0,P|359:315|222:332,1,180,6|2,1:2|0:0,0:0:0:0:
152,379,5771,1,10,0:0:0:0:
85,318,6118,6,0,L|90:218,1,89.9999999999999,6|8,3:2|3:2,0:0:0:0:
164,177,6812,2,0,L|159:77,1,89.9999999999999,8|8,3:2|3:2,0:0:0:0:
111,11,7505,2,0,P|158:-1|214:13,1,89.9999999999999,10|8,3:2|3:2,0:0:0:0:
263,68,8199,2,0,P|307:74|350:62,1,89.9999999999999,8|8,3:2|3:2,0:0:0:0:
418,2,8892,6,0,B|441:55|441:55|410:194,1,180,10|10,3:2|3:2,0:0:0:0:
379,257,9933,1,8,3:2:0:0:
291,234,10280,2,0,P|215:253|108:221,1,180,10|10,3:2|3:2,0:0:0:0:
28,226,11320,1,8,3:2:0:0:
14,136,11667,6,0,L|23:-8,2,135,6|6|6,1:2|1:2|1:2,0:0:0:0:
28,226,13054,2,0,L|34:363,1,135,2|2,3:2|3:2,0:0:0:0:
120,335,13921,1,2,0:0:0:0:
203,368,14268,1,6,0:0:0:0:
307,282,14788,6,0,L|311:181,1,89.9999999999999,10|0,0:0|0:0,0:0:0:0:
312,101,15482,1,8,0:0:0:0:
239,47,15829,2,0,P|189:38|144:47,1,89.9999999999999,2|10,3:2|3:2,0:0:0:0:
73,91,16523,2,0,L|80:149,1,45,10|10,3:2|0:0,0:0:0:0:
97,269,17216,6,0,L|197:274,1,89.9999999999999,6|0,3:2|3:2,0:0:0:0:
253,213,17910,2,0,L|342:208,1,89.9999999999999,0|0,3:2|3:2,0:0:0:0:
422,250,18603,1,2,3:2:0:0:
493,194,18950,1,2,3:2:0:0:
461,109,19297,2,0,P|424:101|358:113,1,89.9999999999999,2|0,3:2|3:2,0:0:0:0:
284,128,19991,6,0,L|185:123,1,89.9999999999999,2|2,3:2|3:2,0:0:0:0:
104,122,20684,1,2,3:2:0:0:
50,246,21205,2,0,L|153:241,1,89.9999999999999,2|2,0:0|0:0,0:0:0:0:
209,299,21898,2,0,L|298:303,1,89.9999999999999,0|0,0:0|0:0,0:0:0:0:
423,356,22765,6,0,P|431:309|419:253,1,89.9999999999999,6|0,3:2|3:2,0:0:0:0:
347,219,23459,2,0,P|340:174|348:130,1,89.9999999999999,2|0,3:2|3:2,0:0:0:0:
396,54,24153,1,2,3:2:0:0:
321,3,24499,1,2,3:2:0:0:
249,59,24846,2,0,L|144:61,1,89.9999999999999,2|0,3:2|3:2,0:0:0:0:
137,148,25540,6,0,L|226:146,1,89.9999999999999,2|2,3:2|3:2,0:0:0:0:
301,197,26234,2,0,P|313:262|296:340,1,135,2|2,3:2|0:0,0:0:0:0:
226,379,27101,1,0,0:0:0:0:
97,337,27621,2,0,L|96:239,1,89.9999999999999,0|8,3:2|3:2,0:0:0:0:
92,157,28314,6,0,P|135:147|182:157,1,89.9999999999999,6|8,1:2|0:0,0:0:0:0:
254,206,29008,2,0,L|361:202,1,89.9999999999999,2|8,0:0|0:0,0:0:0:0:
425,240,29702,1,2,1:2:0:0:
492,180,30049,1,10,0:0:0:0:
442,105,30395,2,0,P|399:113|346:102,1,89.9999999999999,2|8,0:0|0:0,0:0:0:0:
283,49,31089,6,0,L|185:54,1,89.9999999999999,2|10,1:2|0:0,0:0:0:0:
102,58,31783,1,2,0:0:0:0:
25,169,32303,2,0,L|28:267,1,89.9999999999999,2|2,1:2|1:2,0:0:0:0:
33,349,32997,2,0,P|69:358|134:344,1,89.9999999999999,0|0,1:2|1:2,0:0:0:0:
237,282,33864,6,0,L|241:172,1,89.9999999999999,6|8,1:2|0:0,0:0:0:0:
247,102,34557,2,0,P|290:95|344:109,1,89.9999999999999,2|8,0:0|0:0,0:0:0:0:
387,178,35251,1,2,1:2:0:0:
467,138,35598,1,10,0:0:0:0:
508,217,35945,2,0,L|503:318,1,89.9999999999999,2|8,0:0|0:0,0:0:0:0:
426,353,36638,6,0,P|382:361|323:347,1,89.9999999999999,2|10,1:2|0:0,0:0:0:0:
272,291,37332,2,0,L|129:294,1,135,2|2,0:0|1:2,0:0:0:0:
47,298,38199,2,0,B|30:247|30:247|59:163,1,135,0|8,1:2|2:3,0:0:0:0:
91,87,39066,1,0,3:2:0:0:
179,104,39413,6,0,L|275:102,2,89.9999999999999,6|2|10,1:2|0:0|0:0,0:0:0:0:
145,187,40453,1,2,0:0:0:0:
215,242,40800,2,0,L|311:240,1,89.9999999999999,2|0,3:2|1:2,0:0:0:0:
395,236,41494,1,8,0:0:0:0:
510,98,42187,6,0,P|463:90|406:103,1,89.9999999999999,2|0,3:2|0:0,0:0:0:0:
346,146,42881,2,0,P|301:152|257:144,1,89.9999999999999,10|2,0:0|0:0,0:0:0:0:
170,121,43575,2,0,L|177:264,1,135,2|0,1:2|0:0,0:0:0:0:
90,359,44615,1,8,0:0:0:0:
31,290,44962,6,0,L|36:192,1,89.9999999999999,6|0,3:2|3:2,0:0:0:0:
42,110,45655,2,0,P|92:103|134:112,1,89.9999999999999,2|2,3:2|3:2,0:0:0:0:
205,161,46349,2,0,P|249:168|293:161,1,89.9999999999999,2|2,3:2|3:2,0:0:0:0:
361,102,47043,1,2,3:2:0:0:
441,141,47390,1,0,3:2:0:0:
421,228,47736,6,0,L|418:336,2,89.9999999999999,6|10|8,3:2|3:2|3:2,0:0:0:0:
332,245,48777,1,8,3:2:0:0:
293,161,49124,2,0,L|187:165,1,89.9999999999999,12|8,3:2|3:2,0:0:0:0:
113,168,49817,2,0,P|102:117|116:67,1,89.9999999999999,8|10,3:2|3:2,0:0:0:0:
191,43,50511,2,0,L|292:37,1,89.9999999999999,12|8,3:2|3:2,0:0:0:0:
357,85,51205,2,0,L|407:88,1,45,8|8,3:2|3:2,0:0:0:0:
490,70,51725,5,4,3:2:0:0:
507,203,52245,2,0,L|502:310,1,89.9999999999999,10|2,0:0|0:0,0:0:0:0:
383,356,53112,2,0,B|331:372|331:372|250:344,1,135,2|8,0:0|0:0,0:0:0:0:
171,310,53979,1,0,0:0:0:0:
238,193,54499,6,0,P|252:127|242:51,1,135,2|10,0:0|0:0,0:0:0:0:
166,15,55366,1,2,0:0:0:0:
47,80,55887,2,0,L|53:175,1,89.9999999999999,2|2,0:0|0:0,0:0:0:0:
138,198,56580,2,0,L|132:293,1,89.9999999999999,2|2,0:0|3:2,0:0:0:0:
208,336,57274,6,0,P|267:350|348:333,1,135,2|10,0:0|0:0,0:0:0:0:
420,298,58141,2,0,L|415:239,1,45,0|0,0:0|3:2,0:0:0:0:
353,188,58661,2,0,L|360:48,1,135,2|10,0:0|0:0,0:0:0:0:
280,10,59528,2,0,L|177:15,1,89.9999999999999,0|8,0:0|0:0,0:0:0:0:
111,58,60222,6,0,P|84:117|104:238,1,180,2|2,3:2|0:0,0:0:0:0:
217,291,61436,2,0,L|220:185,1,89.9999999999999,2|2,1:2|1:2,0:0:0:0:
225,111,62129,2,0,P|275:104|317:115,1,89.9999999999999,2|0,1:2|3:2,0:0:0:0:
389,160,62823,5,4,3:2:0:0:
402,294,63343,2,0,L|299:290,1,89.9999999999999,14|2,0:0|0:0,0:0:0:0:
203,209,64210,2,0,P|151:224|62:205,1,135,2|10,0:0|0:0,0:0:0:0:
15,140,65077,1,0,0:0:0:0:
109,42,65598,6,0,L|247:48,1,135,2|10,0:0|0:0,0:0:0:0:
314,104,66465,2,0,L|452:98,1,135,2|2,0:0|0:0,0:0:0:0:
508,165,67332,1,2,0:0:0:0:
461,242,67679,2,0,L|457:342,1,89.9999999999999,2|2,0:0|3:2,0:0:0:0:
325,300,68546,6,0,P|244:269|107:311,1,225,6|2,3:2|0:0,0:0:0:0:
13,215,69933,2,0,L|22:110,1,89.9999999999999,2|0,3:2|3:2,0:0:0:0:
27,35,70627,2,0,P|76:27|125:42,1,89.9999999999999,8|2,0:0|0:0,0:0:0:0:
182,96,71320,6,0,B|229:127|229:127|368:112,1,180,2|8,3:2|0:0,0:0:0:0:
429,66,72361,1,2,0:0:0:0:
488,133,72708,2,0,L|483:228,1,89.9999999999999,2|2,0:0|3:2,0:0:0:0:
471,312,73401,2,0,P|427:319|369:304,1,89.9999999999999,10|2,0:0|3:2,0:0:0:0:
314,250,74095,6,0,L|167:261,2,135,6|6|6,3:2|3:2|3:2,0:0:0:0:
374,183,75482,2,0,P|385:129|363:42,1,135,0|0,0:0|0:0,0:0:0:0:
289,8,76349,1,0,3:2:0:0:
256,192,76869,12,2,78257,0:0:0:0:
349,73,79644,6,0,L|492:68,2,135,6|6|6,3:2|3:2|3:2,0:0:0:0:
274,123,81031,2,0,P|207:138|128:116,1,135,2|2,3:2|3:2,0:0:0:0:
54,111,81898,2,0,L|61:170,1,45,2|2,0:0|0:0,0:0:0:0:
113,227,82418,6,0,L|101:369,2,135,6|6|6,3:2|3:2|3:2,0:0:0:0:
218,154,83979,1,6,3:2:0:0:
310,251,84499,2,0,L|372:247,1,45,10|10,0:0|0:0,0:0:0:0:
468,103,85193,6,0,P|421:95|369:106,1,89.9999999999999,6|8,3:2|0:0,0:0:0:0:
307,156,85887,2,0,P|262:162|218:154,1,89.9999999999999,2|8,0:0|0:0,0:0:0:0:
172,77,86580,1,2,3:2:0:0:
82,90,86927,1,10,0:0:0:0:
70,179,87274,2,0,L|74:278,1,89.9999999999999,2|8,0:0|0:0,0:0:0:0:
143,325,87968,6,0,L|232:328,1,89.9999999999999,2|8,3:2|0:0,0:0:0:0:
322,331,88661,2,0,P|329:309|321:198,1,135,2|2,0:0|3:2,0:0:0:0:
267,127,89528,1,2,3:2:0:0:
304,45,89875,2,0,L|403:51,1,89.9999999999999,0|0,0:0|3:2,0:0:0:0:
497,137,90742,6,0,L|492:238,1,89.9999999999999,2|12,3:2|0:0,0:0:0:0:
486,316,91436,2,0,P|438:323|384:308,1,89.9999999999999,2|8,0:0|0:0,0:0:0:0:
342,243,92129,1,2,3:2:0:0:
263,286,92476,1,10,0:0:0:0:
204,217,92823,2,0,L|198:108,1,89.9999999999999,2|8,0:0|0:0,0:0:0:0:
193,36,93517,6,0,P|143:30|93:42,1,89.9999999999999,6|0,3:2|0:0,0:0:0:0:
41,101,94210,1,10,0:0:0:0:
121,209,94731,2,0,L|114:301,1,89.9999999999999,6|8,3:2|0:0,0:0:0:0:
173,366,95424,2,0,L|227:362,1,45,0|8,3:2|0:0,0:0:0:0:
284,302,95945,1,8,0:0:0:0:
372,318,96291,6,0,L|365:220,2,89.9999999999999,6|2|10,3:2|0:0|0:0,0:0:0:0:
451,360,97332,1,2,0:0:0:0:
500,284,97679,2,0,L|491:174,1,89.9999999999999,2|0,3:2|1:2,0:0:0:0:
484,104,98372,1,8,0:0:0:0:
309,59,99066,6,0,P|299:106|309:155,1,89.9999999999999,2|0,3:2|0:0,0:0:0:0:
364,215,99760,2,0,P|374:262|364:311,1,89.9999999999999,10|2,0:0|0:0,0:0:0:0:
285,340,100453,2,0,L|187:337,1,89.9999999999999,2|0,3:2|3:2,0:0:0:0:
136,268,101147,1,8,0:0:0:0:
54,306,101494,1,0,3:2:0:0:
19,223,101840,6,0,L|27:106,1,89.9999999999999,6|0,3:2|3:2,0:0:0:0:
28,42,102534,2,0,P|90:36|140:56,1,89.9999999999999,2|2,3:2|3:2,0:0:0:0:
183,103,103228,1,6,3:2:0:0:
258,53,103575,1,2,3:2:0:0:
326,111,103921,2,0,L|318:213,1,89.9999999999999,2|0,3:2|3:2,0:0:0:0:
248,256,104615,6,0,L|256:358,2,89.9999999999999,2|10|8,0:0|3:2|3:2,0:0:0:0:
318,200,105655,1,8,3:2:0:0:
383,261,106002,2,0,P|430:269|484:257,1,89.9999999999999,12|8,3:2|3:2,0:0:0:0:
495,174,106696,2,0,L|500:65,1,89.9999999999999,8|10,3:2|3:2,0:0:0:0:
432,23,107390,2,0,P|385:15|331:27,1,89.9999999999999,14|8,3:2|3:2,0:0:0:0:
269,72,108083,2,0,L|192:66,1,45,8|8,3:2|3:2,0:0:0:0:
134,61,108603,5,4,3:2:0:0:
28,145,109124,2,0,L|33:260,1,89.9999999999999,10|2,0:0|0:0,0:0:0:0:
123,334,109991,2,0,P|174:310|269:320,1,135,2|8,0:0|0:0,0:0:0:0:
339,332,110858,1,0,0:0:0:0:
449,255,111378,6,0,L|440:109,1,135,2|10,0:0|0:0,0:0:0:0:
433,30,112245,1,2,0:0:0:0:
310,87,112765,2,0,P|254:97|203:81,1,89.9999999999999,2|2,0:0|0:0,0:0:0:0:
133,71,113459,2,0,L|142:177,1,89.9999999999999,2|2,0:0|3:2,0:0:0:0:
149,250,114153,6,0,P|85:266|-6:232,1,135,2|10,0:0|0:0,0:0:0:0:
5,160,115020,2,0,L|9:96,1,45,0|0,0:0|3:2,0:0:0:0:
13,25,115540,2,0,L|161:33,1,135,2|10,0:0|0:0,0:0:0:0:
215,91,116407,2,0,L|327:86,1,89.9999999999999,0|8,0:0|0:0,0:0:0:0:
374,29,117101,6,0,B|399:77|399:77|361:220,1,180,2|2,3:2|0:0,0:0:0:0:
287,307,118314,2,0,L|190:300,1,89.9999999999999,2|2,1:2|1:2,0:0:0:0:
107,295,119008,2,0,P|106:238|133:177,1,89.9999999999999,2|0,1:2|3:2,0:0:0:0:
163,130,119702,5,4,3:2:0:0:
291,172,120222,2,0,L|414:166,1,89.9999999999999,14|2,0:0|0:0,0:0:0:0:
456,55,121089,2,0,L|296:45,1,135,2|10,0:0|0:0,0:0:0:0:
231,38,121956,1,0,0:0:0:0:
117,110,122476,6,0,P|97:164|118:270,1,135,2|10,0:0|0:0,0:0:0:0:
157,312,123343,2,0,L|325:305,1,135,2|2,0:0|0:0,0:0:0:0:
371,263,124210,1,2,0:0:0:0:
459,280,124557,2,0,L|460:153,1,89.9999999999999,2|2,0:0|3:2,0:0:0:0:
460,54,125424,6,0,P|394:77|232:42,1,225,6|2,3:2|0:0,0:0:0:0:
113,17,126812,2,0,L|118:122,1,89.9999999999999,2|0,3:2|3:2,0:0:0:0:
197,148,127505,2,0,L|192:253,1,89.9999999999999,8|2,0:0|0:0,0:0:0:0:
239,315,128199,6,0,B|281:357|281:357|438:323,1,180,2|8,3:2|0:0,0:0:0:0:
486,309,129239,1,2,0:0:0:0:
455,224,129586,2,0,P|449:172|461:121,1,89.9999999999999,2|2,0:0|3:2,0:0:0:0:
473,46,130280,2,0,L|355:52,1,89.9999999999999,10|2,0:0|3:2,0:0:0:0:
313,107,130973,6,0,L|166:99,2,135,6|6|6,3:2|3:2|3:2,0:0:0:0:
386,158,132361,2,0,P|396:229|377:303,1,135,0|0,0:0|3:2,0:0:0:0:
329,362,133228,1,0,3:2:0:0:
256,192,133748,12,2,135135,0:0:0:0:
458,25,136523,6,0,L|454:121,1,89.9999999999999,6|10,3:2|0:0,0:0:0:0:
445,204,137216,2,0,P|385:216|284:177,1,135,2|2,0:0|0:0,0:0:0:0:
260,126,138083,1,2,0:0:0:0:
170,138,138430,2,0,L|176:296,1,135,2|10,0:0|0:0,0:0:0:0:
182,362,139297,6,0,P|125:369|63:348,1,89.9999999999999,2|10,3:2|0:0,0:0:0:0:
21,308,139991,2,0,L|30:140,1,135,2|2,0:0|0:0,0:0:0:0:
33,83,140858,2,0,L|153:91,1,89.9999999999999,2|2,0:0|0:0,0:0:0:0:
246,34,141725,1,10,0:0:0:0:
316,89,142072,6,0,P|335:170|279:268,2,180,6|2|2,3:2|0:0|3:2,0:0:0:0:
246,34,143806,1,8,0:0:0:0:
174,88,144153,2,0,L|175:213,1,89.9999999999999,2|8,0:0|0:0,0:0:0:0:
177,267,144846,6,0,B|234:313|234:313|413:267,1,225,6|2,0:0|3:2,0:0:0:0:
469,256,146060,2,0,L|472:131,1,89.9999999999999,6|2,0:0|3:2,0:0:0:0:
476,75,146754,2,0,P|415:62|316:81,1,135,2|8,0:0|2:3,0:0:0:0:
283,138,147621,6,0,L|90:128,1,180,6|2,3:2|0:0,0:0:0:0:
27,177,148661,1,10,0:0:0:0:
48,264,149008,2,0,P|106:280|179:270,1,135,2|2,3:2|0:0,0:0:0:0:
306,223,150049,1,8,0:0:0:0:
394,240,150395,6,0,L|388:55,1,180,2|2,3:2|0:0,0:0:0:0:
301,87,151436,1,10,0:0:0:0:
228,33,151783,2,0,P|173:22|83:36,1,135,2|2,3:2|0:0,0:0:0:0:
0,125,152823,1,8,0:0:0:0:
73,177,153170,6,0,L|79:370,1,180,6|2,3:2|0:0,0:0:0:0:
166,337,154210,1,10,0:0:0:0:
252,361,154557,2,0,P|325:373|403:355,1,135,2|2,3:2|0:0,0:0:0:0:
498,289,155598,1,8,0:0:0:0:
465,204,155945,6,0,L|458:54,2,135,2|2|10,3:2|0:0|0:0,0:0:0:0:
385,245,157332,2,0,P|324:231|233:254,1,135,6|2,3:2|0:0,0:0:0:0:
131,301,158372,1,8,0:0:0:0:
67,236,158719,6,0,L|82:37,1,180,4|0,3:2|0:0,0:0:0:0:
165,86,159760,1,8,0:0:0:0:
233,28,160106,2,0,L|353:24,1,89.9999999999999,6|10,3:2|0:0,0:0:0:0:
398,73,160800,2,0,P|412:132|388:228,1,135,2|4,0:0|3:2,0:0:0:0:
285,275,161840,6,0,L|282:364,2,89.9999999999999,8|8|8,3:2|3:2|3:2,0:0:0:0:
237,198,162881,1,4,3:2:0:0:
62,54,165482,6,0,P|117:68|222:43,1,135,6|10,3:2|0:0,0:0:0:0:
279,29,166349,1,2,0:0:0:0:
385,112,166869,2,0,L|393:217,1,89.9999999999999,2|2,0:0|0:0,0:0:0:0:
324,261,167563,2,0,L|316:366,1,89.9999999999999,2|2,0:0|3:2,0:0:0:0:
226,352,168257,6,0,B|200:316|200:316|88:333,1,135,2|10,0:0|0:0,0:0:0:0:
30,288,169124,2,0,L|40:202,1,45,0|0,0:0|3:2,0:0:0:0:
95,176,169644,2,0,L|88:27,1,135,2|10,0:0|0:0,0:0:0:0:
177,56,170511,2,0,P|230:63|295:44,1,89.9999999999999,0|8,0:0|0:0,0:0:0:0:
352,31,171205,6,0,L|365:217,1,180,2|2,3:2|0:0,0:0:0:0:
265,301,172418,2,0,L|258:175,1,89.9999999999999,2|2,1:2|1:2,0:0:0:0:
203,141,173112,2,0,P|153:136|86:153,1,89.9999999999999,2|0,1:2|3:2,0:0:0:0:
38,191,173806,5,4,3:2:0:0:
84,317,174326,2,0,L|205:313,1,89.9999999999999,14|2,0:0|0:0,0:0:0:0:
308,304,175193,2,0,B|340:265|340:265|322:142,1,135,2|10,0:0|0:0,0:0:0:0:
315,92,176060,1,0,0:0:0:0:
438,38,176580,6,0,L|445:187,1,135,2|14,0:0|0:0,0:0:0:0:
448,262,177447,2,0,P|384:279|297:256,1,135,2|2,0:0|0:0,0:0:0:0:
243,214,178314,1,2,0:0:0:0:
164,257,178661,2,0,L|34:250,1,89.9999999999999,2|2,0:0|3:2,0:0:0:0:
41,120,179528,6,0,P|149:97|268:133,1,225,6|2,3:2|0:0,0:0:0:0:
388,158,180916,2,0,L|381:53,1,89.9999999999999,2|0,3:2|3:2,0:0:0:0:
469,47,181609,2,0,L|474:136,1,89.9999999999999,8|2,0:0|0:0,0:0:0:0:
478,227,182303,6,0,B|434:266|434:266|288:244,1,180,2|8,3:2|0:0,0:0:0:0:
241,194,183343,1,2,0:0:0:0:
170,250,183690,2,0,L|54:245,1,89.9999999999999,2|2,0:0|3:2,0:0:0:0:
61,157,184384,2,0,L|150:160,1,89.9999999999999,10|2,0:0|3:2,0:0:0:0:
219,103,185077,6,0,L|385:97,2,135,6|6|6,3:2|3:2|3:2,0:0:0:0:
156,37,186465,2,0,P|86:26|4:50,1,135,0|0,0:0|3:2,0:0:0:0:
1,127,187332,1,0,3:2:0:0:
256,192,187852,12,6,189239,3:2:0:0:
430,322,190627,6,0,L|420:184,1,135,6|6,3:2|3:2,0:0:0:0:
405,53,191667,2,0,P|330:39|252:67,1,135,6|6,3:2|3:2,0:0:0:0:
202,168,192708,2,0,L|96:164,1,89.9999999999999,6|10,3:2|0:0,0:0:0:0:
46,102,193401,5,6,3:2:0:0:
256,192,193575,12,0,196176,0:0:0:0:
