osu file format v14

[General]
AudioFilename: audio.mp3
AudioLeadIn: 0
PreviewTime: 45988
Countdown: 0
SampleSet: Normal
StackLeniency: 0.7
Mode: 2
LetterboxInBreaks: 0
WidescreenStoryboard: 0

[Editor]
Bookmarks: 8703,42988
DistanceSpacing: 1.3
BeatDivisor: 4
GridSize: 4
TimelineZoom: 1

[Metadata]
Title:Passcode 4854 -TV edit-
TitleUnicode:パスコード4854 -TV edit-
Artist:Yasuda Rei
ArtistUnicode:安田レイ
Creator:alienflybot
Version:Nely's Salad
Source:金田一少年の事件簿R
Tags:Yuta Yoneyama 玉井 健二 矢田 亨 釣 俊輔 Rachel Rhodes The Kindaichi Case Files of Young Shounen no Jikenbo Ritanzu Returns Ending ED Will Xinely Ascendance AFB
BeatmapID:1035320
BeatmapSetID:481845

[Difficulty]
HPDrainRate:5
CircleSize:3.2
OverallDifficulty:6.6
ApproachRate:6.6
SliderMultiplier:1.4
SliderTickRate:2

[Events]
//Background and Video events
0,0,"girl.jpg",0,0
//Break Periods
//Storyboard Layer 0 (Background)
//Storyboard Layer 1 (Fail)
//Storyboard Layer 2 (Pass)
//Storyboard Layer 3 (Foreground)
//Storyboard Sound Samples

[TimingPoints]
1846,428.571428571429,4,2,10,15,1,0
2060,-100,4,2,10,25,0,0
2274,-100,4,2,10,15,0,0
2488,-100,4,2,10,25,0,0
2917,-100,4,2,10,15,0,0
3131,-100,4,2,10,25,0,0
3346,-100,4,2,10,15,0,0
3560,-100,4,2,10,25,0,0
3988,-100,4,2,10,15,0,0
4203,-100,4,2,10,25,0,0
4631,-100,4,2,10,15,0,0
4846,-100,4,2,10,25,0,0
5060,-100,4,2,10,15,0,0
5274,-100,4,2,1,50,0,0
8596,-100,4,2,1,25,0,0
8810,-100,4,2,1,50,0,0
9346,-100,4,2,1,25,0,0
9560,-100,4,2,1,50,0,0
22310,-100,4,2,1,25,0,0
22524,-100,4,2,1,50,0,0
23060,-100,4,2,1,25,0,0
23274,-100,4,2,1,50,0,0
36024,-100,4,2,1,25,0,0
36560,-100,4,2,1,50,0,0
42988,-100,4,2,0,20,0,0
46203,-100,4,1,0,70,0,1
46417,-100,4,1,1,70,0,1
46846,-100,4,1,1,50,0,1
47060,-100,4,1,1,70,0,1
47703,-100,4,1,1,50,0,1
47917,-100,4,1,1,70,0,1
48560,-100,4,1,1,50,0,1
48774,-100,4,1,1,70,0,1
49417,-100,4,1,1,50,0,1
49631,-100,4,1,0,70,0,1
49846,-100,4,1,1,70,0,1
50274,-100,4,1,1,50,0,1
50488,-100,4,1,1,70,0,1
51131,-100,4,1,1,50,0,1
51346,-100,4,1,1,70,0,1
51988,-100,4,1,1,50,0,1
52203,-100,4,1,1,70,0,1
52846,-100,4,1,1,50,0,1
53274,-100,4,1,0,50,0,1
53488,-100,4,1,1,60,0,1
53703,-100,4,1,1,30,0,1
53917,-100,4,1,1,60,0,1
54560,-100,4,1,1,30,0,1
54774,-100,4,1,1,60,0,1
55417,-100,4,1,1,30,0,1
55631,-100,4,1,1,60,0,1
56274,-100,4,1,1,30,0,1
56488,-100,4,1,1,60,0,1
56703,-100,4,1,0,70,0,1
56917,-100,4,1,1,60,0,1
57131,-100,4,1,1,30,0,1
57346,-100,4,1,1,60,0,1
57988,-100,4,1,1,30,0,1
58203,-100,4,1,1,60,0,1
58417,-100,4,1,1,40,0,1
58631,-100,4,1,1,50,0,1
58846,-100,4,1,1,60,0,1
59274,-100,4,2,5,35,0,1
59381,-100,4,2,5,30,0,1
59488,-100,4,2,5,25,0,1
59703,-100,4,2,1,50,0,0
59917,-100,4,1,0,70,0,1
60131,-100,4,1,1,70,0,1
60560,-100,4,1,1,50,0,1
60988,-100,4,1,1,70,0,1
61417,-100,4,1,1,50,0,1
61631,-100,4,1,1,70,0,1
62274,-100,4,1,1,50,0,1
62488,-100,4,1,1,70,0,1
63131,-100,4,1,1,50,0,1
63346,-100,4,1,0,70,0,1
63560,-100,4,1,1,70,0,1
63988,-100,4,1,1,50,0,1
64203,-100,4,1,1,70,0,1
64846,-100,4,1,1,50,0,1
65060,-100,4,1,1,70,0,1
65703,-100,4,1,1,50,0,1
65917,-100,4,1,1,70,0,1
66560,-100,4,1,1,50,0,1
66774,-100,4,1,1,70,0,1
66988,-100,4,1,0,70,0,1
67203,-100,4,1,1,60,0,1
67417,-100,4,1,1,30,0,1
67631,-100,4,1,1,60,0,1
68274,-100,4,1,1,30,0,1
68488,-100,4,1,1,60,0,1
69131,-100,4,1,1,30,0,1
69346,-100,4,1,1,60,0,1
69988,-100,4,1,1,30,0,1
70203,-100,4,1,1,60,0,1
70417,-100,4,1,0,70,0,1
70631,-100,4,1,1,60,0,1
70846,-100,4,1,1,30,0,1
71060,-100,4,1,1,60,0,1
71703,-100,4,1,1,30,0,1
71917,-100,4,1,1,60,0,1
72131,-100,4,1,1,40,0,1
72346,-100,4,1,1,50,0,1
72560,-100,4,1,1,30,0,1
72988,-100,4,1,1,70,0,1
73417,-100,4,1,1,50,0,1
73631,-100,4,1,0,70,0,1
73846,-100,4,1,1,20,0,1
74060,-100,4,1,1,70,0,1
74274,-100,4,1,1,40,0,1
74703,-100,4,1,1,70,0,1
75131,-100,4,1,1,40,0,1
75346,-100,4,1,0,70,0,1
75560,-100,4,1,1,20,0,1
75774,-100,4,1,1,80,0,1
75988,-100,4,1,1,50,0,1
76203,-100,4,1,1,80,0,1
76631,-100,4,2,5,70,0,1
76738,-100,4,2,5,65,0,1
76846,-100,4,1,1,50,0,1
77060,-100,4,2,5,50,0,0
77274,-100,4,1,0,60,0,1
77488,-100,4,1,0,30,0,0
78131,-100,4,2,1,25,0,0
78560,-100,4,2,1,20,0,0
78774,-100,4,2,1,50,0,0
79846,-100,4,2,5,40,0,0
79953,-100,4,2,5,35,0,0
80060,-100,4,2,5,30,0,0
80167,-100,4,2,5,25,0,0
80274,-100,4,2,5,20,0,0
80488,-100,4,2,0,50,0,0
80703,-100,4,2,1,50,0,0
85846,-100,4,2,1,45,0,0
86060,-100,4,2,1,40,0,0
86274,-100,4,2,1,45,0,0
86488,-100,4,2,1,50,0,0
86703,-100,4,2,1,55,0,0
86917,-100,4,2,1,60,0,0
87560,-100,4,1,60,20,0,0

[Colours]
Combo1 : 138,64,208
Combo2 : 44,181,255
Combo3 : 211,107,141

[HitObjects]
120,240,1846,6,0,P|168:272|252:248,1,140,2|2,0:0|0:0,0:0:0:0:
380,220,2703,2,0,L|456:208,2,70,0|2|0,0:0|0:0|0:0,0:0:0:0:
300,188,3346,6,0,B|252:160|252:160|164:196,1,140,2|0,0:0|0:0,0:0:0:0:
244,208,3988,2,0,L|396:208,1,140,2|0,0:0|0:0,0:0:0:0:
456,208,4631,2,0,L|504:136,2,70,2|0|0,0:0|0:0|0:0,0:0:0:0:
280,280,5274,5,2,0:0:0:0:
140,276,5703,1,10,0:0:0:0:
300,204,6131,2,0,L|388:204,2,70,0|2|8,0:0|0:0|0:0,0:0:0:0:
160,204,6988,6,0,L|68:200,2,70,0|0|10,0:0|0:0|0:0,0:0:0:0:
220,240,7631,2,0,L|360:176,1,140,0|2,0:0|0:0,0:0:0:0:
420,176,8274,1,8,0:0:0:0:
144,152,8703,5,6,0:0:0:0:
252,240,9131,2,0,P|312:244|376:188,1,140,8|2,0:0|0:0,0:0:0:0:
300,196,9774,2,0,P|240:176|176:228,1,140,0|0,0:0|0:0,0:0:0:0:
40,228,10631,6,0,P|28:162|84:126,1,140
228,112,11488,2,0,L|280:48,1,70,0|8,0:0|0:0,0:0:0:0:
448,172,11917,6,0,P|400:192|312:164,1,140,0|0,0:0|0:0,0:0:0:0:
240,136,12560,2,0,P|172:120|92:152,1,140,8|2,0:0|0:0,0:0:0:0:
44,180,13203,1,0,0:0:0:0:
88,240,13417,1,8,0:0:0:0:
264,204,13631,6,0,L|416:200,1,140
268,136,14488,1,0,0:0:0:0:
404,72,14917,1,0,0:0:0:0:
103,315,15346,6,0,P|104:215|188:160,1,210,0|8,0:0|0:0,0:0:0:0:
332,172,16417,2,0,L|428:176,2,70,2|0|8,0:0|0:0|0:0,0:0:0:0:
264,184,17060,6,0,L|112:188,1,140
248,124,17917,2,0,L|380:40,1,140,0|0,0:0|0:0,0:0:0:0:
492,196,18774,1,0,0:0:0:0:
316,220,18988,6,0,P|232:196|156:200,1,140,2|8,0:0|0:0,0:0:0:0:
40,184,19846,1,2,0:0:0:0:
64,108,20060,1,0,0:0:0:0:
128,60,20274,1,8,0:0:0:0:
267,196,20703,6,0,P|316:200|376:128,1,140,2|8,0:0|0:0,0:0:0:0:
496,72,21560,2,0,L|352:48,1,140,2|8,0:0|0:0,0:0:0:0:
104,92,22417,5,6,0:0:0:0:
240,124,22845,2,0,P|280:184|224:216,1,140,8|2,0:0|0:0,0:0:0:0:
168,204,23488,2,0,P|96:196|20:228,1,140
196,248,24345,6,0,P|236:260|332:328,1,140
468,264,25202,2,0,L|400:228,1,70,0|8,0:0|0:0,0:0:0:0:
216,264,25631,6,0,P|168:284|80:256,1,140,8|0,0:0|0:0,0:0:0:0:
20,236,26274,1,8,0:0:0:0:
168,200,26703,2,0,L|248:164,2,70,2|0|8,0:0|0:0|0:0,0:0:0:0:
344,232,27346,6,0,L|392:76,1,140
228,100,28202,2,0,L|64:100,1,140
360,48,29060,6,0,P|389:111|370:177,1,140
276,232,29703,2,0,L|432:232,1,140,8|2,0:0|0:0,0:0:0:0:
320,288,30346,1,0,0:0:0:0:
184,288,30774,6,0,L|116:164,1,140,0|0,0:0|0:0,0:0:0:0:
280,180,31631,2,0,L|448:184,1,140,0|0,0:0|0:0,0:0:0:0:
336,296,32488,1,0,0:0:0:0:
160,312,32702,6,0,P|76:288|0:292,1,140,2|8,0:0|0:0,0:0:0:0:
200,232,33560,2,0,L|270:232,2,70,2|0|8,0:0|0:0|0:0,0:0:0:0:
340,240,34417,6,0,P|416:248|492:224,1,140,2|8,0:0|0:0,0:0:0:0:
344,180,35274,1,2,0:0:0:0:
252,196,35488,2,0,L|108:172,1,140,0|0,0:0|0:0,0:0:0:0:
16,128,36131,5,6,0:0:0:0:
168,116,36560,1,8,0:0:0:0:
320,140,36988,2,0,L|388:126,2,70,2|0|8,0:0|0:0|0:0,0:0:0:0:
207,184,37631,6,0,P|109:158|60:68,1,210,0|8,0:0|0:0,0:0:0:0:
140,56,38488,1,0,0:0:0:0:
284,160,38917,1,0,0:0:0:0:
140,264,39346,1,0,0:0:0:0:
244,268,39560,6,0,L|344:164,1,140,2|8,0:0|0:0,0:0:0:0:
272,160,40203,2,0,P|210:127|141:115,1,140,0|0,0:0|0:0,0:0:0:0:
76,136,40846,1,8,0:0:0:0:
208,180,41274,6,0,L|280:148,2,70,2|0|8,0:0|0:0|0:0,0:0:0:0:
68,188,42131,2,0,L|80:120,1,70
196,88,42560,1,8,0:0:0:0:
256,192,42988,12,0,45774,0:0:0:0:
184,304,46203,6,0,P|264:312|336:268,1,140,4|0,2:0|0:0,0:0:0:0:
408,276,46846,1,8,0:0:0:0:
252,184,47274,2,0,L|168:148,1,70,2|0,0:0|0:0,0:0:0:0:
100,140,47703,2,0,L|32:176,1,70,8|0,0:0|0:0,0:0:0:0:
128,196,48131,6,0,L|276:196,1,140,2|8,0:0|0:0,0:0:0:0:
448,176,48988,2,0,L|496:228,2,70,2|0|8,0:0|0:0|0:0,0:0:0:0:
256,120,49631,6,0,L|108:132,1,140,4|0,2:0|0:0,0:0:0:0:
32,164,50274,1,8,0:0:0:0:
268,288,50703,2,0,P|336:288|392:224,1,140,2|8,0:0|0:0,0:0:0:0:
476,260,51346,1,0,0:0:0:0:
388,236,51560,6,0,P|320:224|232:252,1,140,2|8,0:0|0:0,0:0:0:0:
72,260,52417,2,0,L|2:250,2,70,2|0|8,0:0|0:0|0:0,0:0:0:0:
360,304,53274,6,0,L|451:198,1,140,4|8,0:0|0:0,0:0:0:0:
272,184,54131,2,0,L|112:172,1,140,2|8,0:0|0:0,0:0:0:0:
44,200,54774,1,0,0:0:0:0:
188,248,54988,6,0,L|314:188,1,140,2|8,0:0|0:0,0:0:0:0:
500,244,55846,2,0,L|433:220,1,70,2|0,0:0|0:0,0:0:0:0:
344,200,56274,2,0,L|268:212,1,70,8|0,0:0|0:0,0:0:0:0:
76,204,56703,6,0,P|28:164|84:132,1,140,4|8,2:0|0:0,0:0:0:0:
244,200,57560,2,0,P|280:172|388:184,1,140,2|8,0:0|0:0,0:0:0:0:
476,176,58203,6,0,L|336:176,1,140
244,184,58846,1,12,0:2:0:0:
60,144,59274,2,0,L|112:196,1,70
196,212,59702,1,2,0:0:0:0:
392,272,59917,6,0,P|472:280|492:224,1,140,4|0,2:0|0:0,0:0:0:0:
404,212,60560,1,8,0:0:0:0:
252,176,60988,2,0,L|168:140,1,70,2|0,0:0|0:0,0:0:0:0:
100,144,61417,2,0,L|32:180,1,70,8|0,0:0|0:0,0:0:0:0:
160,192,61845,6,0,P|227:185|296:240,1,140,2|8,0:0|0:0,0:0:0:0:
480,208,62702,2,0,L|400:216,2,70,2|0|8,0:0|0:0|0:0,0:0:0:0:
304,152,63345,6,0,L|156:164,1,140,4|0,2:0|0:0,0:0:0:0:
72,164,63988,1,8,0:0:0:0:
248,288,64417,2,0,P|308:288|380:224,1,140,2|8,0:0|0:0,0:0:0:0:
288,200,65060,1,0,0:0:0:0:
196,196,65274,6,0,P|128:184|40:212,1,140,2|8,0:0|0:0,0:0:0:0:
256,248,66131,2,0,L|352:232,1,70,2|0,0:0|0:0,0:0:0:0:
416,216,66560,2,0,L|512:200,1,70,8|0,0:0|0:0,0:0:0:0:
296,192,66988,6,0,P|226:184|159:202,1,140,4|8,2:0|0:0,0:0:0:0:
8,272,67845,2,0,L|147:282,1,140,2|8,0:0|0:0,0:0:0:0:
236,304,68488,1,0,0:0:0:0:
328,296,68702,6,0,L|397:299,2,70,2|0|8,0:0|0:0|0:0,0:0:0:0:
147,282,69560,2,0,P|108:280|80:258,1,70,2|0,0:0|0:0,0:0:0:0:
172,236,69988,2,0,L|252:228,1,70,8|0,0:0|0:0,0:0:0:0:
432,232,70417,6,0,P|480:200|424:160,1,140,4|8,2:0|0:0,0:0:0:0:
256,108,71274,2,0,P|226:170|144:204,1,140,2|8,0:0|0:0,0:0:0:0:
48,152,71917,6,0,L|120:148,1,70,0|2,0:0|0:0,0:0:0:0:
204,120,72346,1,0,0:0:0:0:
296,128,72560,1,8,0:0:0:0:
132,204,72988,1,2,0:0:0:0:
224,208,73202,2,0,L|324:224,1,70,2|10,0:0|0:0,0:0:0:0:
476,296,73631,6,0,P|424:288|328:312,1,140,4|0,2:0|0:0,0:0:0:0:
252,324,74274,1,8,0:0:0:0:
76,276,74703,2,0,L|44:204,2,70,2|2|10,0:0|0:0|0:0,0:0:0:0:
264,268,75346,6,0,L|428:272,1,140,4|0,2:0|0:0,0:0:0:0:
484,252,75988,1,8,0:0:0:0:
384,200,76203,2,0,B|332:196|324:160|324:160|296:200|244:192,1,140,0|0,0:0|0:0,0:0:0:0:
184,208,76846,1,8,0:0:0:0:
412,300,77274,5,4,2:0:0:0:
256,192,77488,12,4,80488,0:0:0:0:
384,256,81131,5,8,0:0:0:0:
204,272,81560,2,0,L|124:276,2,70,0|0|8,0:0|0:0|0:0,0:0:0:0:
372,204,82417,6,0,L|452:204,2,70,0|0|8,0:0|0:0|0:0,0:0:0:0:
288,172,83060,2,0,L|128:172,1,140
60,152,83703,1,8,0:0:0:0:
292,56,84131,6,0,L|440:56,1,140,0|8,0:0|0:0,0:0:0:0:
284,168,84988,2,0,L|184:156,2,70,0|0|8,0:0|0:0|0:0,0:0:0:0:
436,272,85846,2,0,L|504:255,2,70,0|0|8,0:0|0:0|0:0,0:0:0:0:
344,284,86488,2,0,L|274:274,2,70,0|0|8,0:0|0:0|0:0,0:0:0:0:
436,220,87131,1,8,0:0:0:0:
240,192,87346,6,0,L|236:122,1,70
