osu file format v14

[General]
AudioFilename: audio.mp3
AudioLeadIn: 0
PreviewTime: 45988
Countdown: 0
SampleSet: Normal
StackLeniency: 0.7
Mode: 2
LetterboxInBreaks: 0
WidescreenStoryboard: 0

[Editor]
Bookmarks: 36131
DistanceSpacing: 1
BeatDivisor: 4
GridSize: 4
TimelineZoom: 1

[Metadata]
Title:Passcode 4854 -TV edit-
TitleUnicode:パスコード4854 -TV edit-
Artist:Yasuda Rei
ArtistUnicode:安田レイ
Creator:alienflybot
Version:Decoded Message
Source:金田一少年の事件簿R
Tags:Yuta Yoneyama 玉井 健二 矢田 亨 釣 俊輔 Rachel Rhodes The Kindaichi Case Files of Young Shounen no Jikenbo Ritanzu Returns Ending ED Will Xinely Ascendance AFB
BeatmapID:1028287
BeatmapSetID:481845

[Difficulty]
HPDrainRate:7
CircleSize:4
OverallDifficulty:8.8
ApproachRate:8.8
SliderMultiplier:2
SliderTickRate:2

[Events]
//Background and Video events
0,0,"girl.jpg",0,0
//Break Periods
//Storyboard Layer 0 (Background)
//Storyboard Layer 1 (Fail)
//Storyboard Layer 2 (Pass)
//Storyboard Layer 3 (Foreground)
//Storyboard Sound Samples

[TimingPoints]
1846,428.571428571429,4,2,10,15,1,0
2060,-100,4,2,10,25,0,0
2274,-100,4,2,10,15,0,0
2488,-100,4,2,10,25,0,0
2917,-100,4,2,10,15,0,0
3131,-100,4,2,10,25,0,0
3346,-100,4,2,10,15,0,0
3560,-100,4,2,10,25,0,0
3988,-100,4,2,10,15,0,0
4203,-100,4,2,10,25,0,0
4631,-100,4,2,10,15,0,0
4846,-100,4,2,10,25,0,0
5060,-100,4,2,10,15,0,0
5274,-100,4,2,1,50,0,0
8596,-100,4,2,1,25,0,0
8810,-100,4,2,1,50,0,0
9346,-100,4,2,1,25,0,0
9560,-100,4,2,1,50,0,0
22310,-100,4,2,1,25,0,0
22524,-100,4,2,1,50,0,0
23060,-100,4,2,1,25,0,0
23274,-100,4,2,1,50,0,0
36024,-100,4,2,1,25,0,0
36560,-100,4,2,1,50,0,0
42988,-100,4,2,0,20,0,0
43203,-100,4,2,1,25,0,0
43631,-100,4,2,1,50,0,0
43846,-100,4,2,1,25,0,0
44274,-100,4,2,1,50,0,0
44488,-100,4,2,1,25,0,0
44703,-100,4,2,1,50,0,0
44917,-100,4,2,5,20,0,0
45024,-100,4,2,5,25,0,0
45131,-100,4,2,5,30,0,0
45238,-100,4,2,5,35,0,0
45346,-100,4,2,5,40,0,0
45453,-100,4,2,5,45,0,0
45560,-100,4,2,1,50,0,0
45774,-100,4,2,1,35,0,0
45988,-100,4,2,1,20,0,0
46203,-90.9090909090909,4,1,0,30,0,1
46417,-90.9090909090909,4,1,1,70,0,1
46846,-90.9090909090909,4,1,1,50,0,1
47060,-90.9090909090909,4,1,1,70,0,1
47703,-90.9090909090909,4,1,1,50,0,1
47917,-90.9090909090909,4,1,1,70,0,1
48560,-90.9090909090909,4,1,1,50,0,1
48774,-90.9090909090909,4,1,1,70,0,1
49417,-90.9090909090909,4,1,1,50,0,1
49631,-90.9090909090909,4,1,0,30,0,1
49846,-90.9090909090909,4,1,1,70,0,1
50274,-90.9090909090909,4,1,1,50,0,1
50488,-90.9090909090909,4,1,1,70,0,1
51131,-90.9090909090909,4,1,1,50,0,1
51346,-90.9090909090909,4,1,1,70,0,1
51988,-90.9090909090909,4,1,1,50,0,1
52203,-90.9090909090909,4,1,1,70,0,1
52846,-90.9090909090909,4,1,1,50,0,1
53060,-90.9090909090909,4,1,1,70,0,1
53274,-90.9090909090909,4,1,0,25,0,1
53488,-90.9090909090909,4,1,1,60,0,1
53703,-90.9090909090909,4,1,1,30,0,1
53917,-90.9090909090909,4,1,1,60,0,1
54560,-90.9090909090909,4,1,1,30,0,1
54774,-90.9090909090909,4,1,1,60,0,1
55417,-90.9090909090909,4,1,1,30,0,1
55631,-90.9090909090909,4,1,1,60,0,1
56274,-90.9090909090909,4,1,1,30,0,1
56488,-90.9090909090909,4,1,1,60,0,1
56703,-90.9090909090909,4,1,0,25,0,1
56917,-90.9090909090909,4,1,1,60,0,1
57131,-90.9090909090909,4,1,1,30,0,1
57346,-90.9090909090909,4,1,1,60,0,1
57988,-90.9090909090909,4,1,1,30,0,1
58203,-90.9090909090909,4,1,1,60,0,1
58417,-90.9090909090909,4,1,1,40,0,1
58631,-90.9090909090909,4,1,1,50,0,1
58846,-90.9090909090909,4,1,1,30,0,1
59060,-90.9090909090909,4,1,1,60,0,1
59274,-90.9090909090909,4,2,5,35,0,1
59381,-90.9090909090909,4,2,5,30,0,1
59488,-90.9090909090909,4,2,5,25,0,1
59596,-90.9090909090909,4,2,5,20,0,1
59703,-90.9090909090909,4,2,1,50,0,0
59917,-90.9090909090909,4,1,0,30,0,1
60131,-90.9090909090909,4,1,1,70,0,1
60560,-90.9090909090909,4,1,1,50,0,1
60774,-90.9090909090909,4,1,1,25,0,1
60988,-90.9090909090909,4,1,1,70,0,1
61417,-90.9090909090909,4,1,1,50,0,1
61631,-90.9090909090909,4,1,1,70,0,1
62274,-90.9090909090909,4,1,1,50,0,1
62488,-90.9090909090909,4,1,1,70,0,1
63131,-90.9090909090909,4,1,1,50,0,1
63346,-90.9090909090909,4,1,0,30,0,1
63560,-90.9090909090909,4,1,1,70,0,1
63988,-90.9090909090909,4,1,1,50,0,1
64203,-90.9090909090909,4,1,1,70,0,1
64846,-90.9090909090909,4,1,1,50,0,1
65060,-90.9090909090909,4,1,1,70,0,1
65703,-90.9090909090909,4,1,1,50,0,1
65917,-90.9090909090909,4,1,1,70,0,1
66560,-90.9090909090909,4,1,1,50,0,1
66774,-90.9090909090909,4,1,1,70,0,1
66988,-90.9090909090909,4,1,0,25,0,1
67203,-90.9090909090909,4,1,1,60,0,1
67417,-90.9090909090909,4,1,1,30,0,1
67631,-90.9090909090909,4,1,1,60,0,1
68274,-90.9090909090909,4,1,1,30,0,1
68488,-90.9090909090909,4,1,1,60,0,1
69131,-90.9090909090909,4,1,1,30,0,1
69346,-90.9090909090909,4,1,1,60,0,1
69988,-90.9090909090909,4,1,1,30,0,1
70203,-90.9090909090909,4,1,1,60,0,1
70417,-90.9090909090909,4,1,0,25,0,1
70631,-90.9090909090909,4,1,1,60,0,1
70846,-90.9090909090909,4,1,1,30,0,1
71060,-90.9090909090909,4,1,1,60,0,1
71703,-90.9090909090909,4,1,1,30,0,1
71917,-90.9090909090909,4,1,1,60,0,1
72131,-90.9090909090909,4,1,1,40,0,1
72346,-90.9090909090909,4,1,1,50,0,1
72560,-90.9090909090909,4,1,1,30,0,1
72774,-90.9090909090909,4,1,1,60,0,1
72988,-90.9090909090909,4,1,1,70,0,1
73417,-90.9090909090909,4,1,1,50,0,1
73631,-90.9090909090909,4,1,0,30,0,1
73846,-90.9090909090909,4,1,1,20,0,1
74060,-90.9090909090909,4,1,1,70,0,1
74274,-90.9090909090909,4,1,1,40,0,1
74488,-90.9090909090909,4,1,1,20,0,1
74703,-90.9090909090909,4,1,1,70,0,1
75131,-90.9090909090909,4,1,1,40,0,1
75346,-90.9090909090909,4,1,0,40,0,1
75560,-90.9090909090909,4,1,1,20,0,1
75774,-90.9090909090909,4,1,1,80,0,1
75988,-90.9090909090909,4,1,1,50,0,1
76203,-90.9090909090909,4,1,1,80,0,1
76631,-90.9090909090909,4,2,5,70,0,1
76738,-90.9090909090909,4,2,5,65,0,1
76846,-90.9090909090909,4,1,1,50,0,1
76953,-90.9090909090909,4,2,5,55,0,1
77060,-90.9090909090909,4,2,5,50,0,0
77167,-90.9090909090909,4,2,5,45,0,0
77274,-100,4,1,0,30,0,1
77488,-100,4,1,0,30,0,0
78131,-100,4,2,1,25,0,0
78560,-100,4,2,1,20,0,0
78774,-100,4,2,1,50,0,0
79846,-100,4,2,5,40,0,0
79953,-100,4,2,5,35,0,0
80060,-100,4,2,5,30,0,0
80167,-100,4,2,5,25,0,0
80274,-100,4,2,5,20,0,0
80488,-100,4,1,0,30,0,1
80703,-100,4,2,1,50,0,0
85846,-100,4,2,1,45,0,0
86060,-100,4,2,1,40,0,0
86274,-100,4,2,1,45,0,0
86488,-100,4,2,1,50,0,0
86703,-90.9090909090909,4,2,1,55,0,0
86917,-90.9090909090909,4,2,1,60,0,0
87024,-90.9090909090909,4,2,5,40,0,0
87131,-90.9090909090909,4,2,1,60,0,0
87238,-90.9090909090909,4,2,5,40,0,0
87346,-90.9090909090909,4,2,1,60,0,0
87560,-90.9090909090909,4,1,60,20,0,0

[Colours]
Combo1 : 138,64,208
Combo2 : 44,181,255
Combo3 : 211,107,141

[HitObjects]
116,352,1846,5,2,0:0:0:0:
40,304,2061,1,0,0:0:0:0:
16,220,2275,1,2,0:0:0:0:
44,136,2489,1,0,0:0:0:0:
124,96,2703,2,0,P|173:93|223:100,2,100,0|2|0,0:0|0:0|0:0,0:0:0:0:
396,68,3346,6,0,P|455:137|392:203,1,200,2|0,0:0|0:0,0:0:0:0:
216,256,3988,2,0,L|314:275,1,100,2|0,0:0|0:0,0:0:0:0:
484,328,4417,2,0,L|503:230,1,100,0|2,0:0|0:0,0:0:0:0:
404,192,4846,2,0,L|385:94,1,100
108,56,5274,6,0,P|59:53|9:60,2,100,2|0|10,0:0|0:0|0:0,0:0:0:0:
208,72,5917,1,0,0:0:0:0:
32,143,6131,2,0,P|37:193|59:237,1,100,0|2,0:0|0:0,0:0:0:0:
232,288,6560,2,0,L|134:307,1,100,8|2,0:0|0:0,0:0:0:0:
460,236,6988,6,0,L|441:138,1,100
340,152,7417,2,0,L|321:54,1,100,10|0,0:0|0:0,0:0:0:0:
128,44,7846,2,0,P|78:49|34:71,1,100,0|2,0:0|0:0,0:0:0:0:
224,144,8274,2,0,P|274:149|318:171,1,100,8|2,0:0|0:0,0:0:0:0:
24,248,8703,1,4,0:0:0:0:
180,304,9131,6,0,L|208:156,1,150,8|0,0:0|0:0,0:0:0:0:
336,136,9560,2,0,P|386:141|430:163,2,100,2|0|8,0:0|0:0|0:0,0:0:0:0:
24,256,10203,6,0,L|106:200,1,100,0|2,0:0|0:0,0:0:0:0:
288,168,10631,2,0,L|205:112,1,100,0|8,0:0|0:0,0:0:0:0:
488,256,11060,2,0,L|406:200,1,100,0|2,0:0|0:0,0:0:0:0:
224,168,11488,2,0,L|307:112,2,100,0|8|0,0:0|0:0|0:0,0:0:0:0:
504,80,12131,1,2,0:0:0:0:
304,32,12560,6,0,L|285:130,1,100,8|0,0:0|0:0,0:0:0:0:
92,144,12988,2,0,L|111:242,1,100,2|0,0:0|0:0,0:0:0:0:
228,256,13417,1,8,0:0:0:0:
500,256,13631,6,0,L|481:158,1,100,0|2,0:0|0:0,0:0:0:0:
320,188,14060,2,0,L|301:90,1,100,0|8,0:0|0:0,0:0:0:0:
12,256,14488,2,0,L|31:158,1,100,0|2,0:0|0:0,0:0:0:0:
192,188,14917,2,0,L|290:169,2,100,0|8|0,0:0|0:0|0:0,0:0:0:0:
496,236,15560,1,2,0:0:0:0:
308,336,15988,6,0,L|210:317,1,100,8|0,0:0|0:0,0:0:0:0:
16,236,16417,2,0,L|114:217,2,100,2|0|8,0:0|0:0|0:0,0:0:0:0:
384,168,17060,6,0,L|482:149,1,100,0|2,0:0|0:0,0:0:0:0:
308,72,17488,2,0,L|406:53,1,100,0|8,0:0|0:0,0:0:0:0:
128,292,17917,2,0,L|30:273,1,100,0|2,0:0|0:0,0:0:0:0:
204,196,18345,2,0,L|106:177,2,100,0|8|0,0:0|0:0|0:0,0:0:0:0:
480,284,18988,6,0,P|437:196|344:167,1,200,2|8,0:0|0:0,0:0:0:0:
156,228,19631,2,0,L|175:130,1,100,0|2,0:0|0:0,0:0:0:0:
284,116,20060,1,0,0:0:0:0:
456,128,20274,2,0,L|437:30,1,100,8|0,0:0|0:0,0:0:0:0:
244,20,20703,6,0,P|194:25|150:47,1,100,2|0,0:0|0:0,0:0:0:0:
340,120,21131,2,0,P|390:125|434:147,1,100,8|0,0:0|0:0,0:0:0:0:
244,220,21560,1,2,0:0:0:0:
392,292,21774,2,0,L|475:236,2,100,0|8|0,0:0|0:0|0:0,0:0:0:0:
120,204,22417,1,4,0:0:0:0:
244,304,22846,6,0,L|216:156,1,150,8|0,0:0|0:0,0:0:0:0:
88,136,23274,2,0,L|107:38,1,100,2|0,0:0|0:0,0:0:0:0:
224,24,23703,1,8,0:0:0:0:
504,40,23917,6,0,P|459:62|409:67,1,100,0|2,0:0|0:0,0:0:0:0:
232,124,24346,2,0,P|276:146|326:151,1,100,0|8,0:0|0:0,0:0:0:0:
8,344,24774,2,0,P|53:322|103:317,2,100,0|2|0,0:0|0:0|0:0,0:0:0:0:
190,288,25417,2,0,P|146:266|96:261,1,100,8|8,0:0|0:0,0:0:0:0:
368,288,25846,6,0,L|466:307,1,100,2|0,0:0|0:0,0:0:0:0:
296,344,26274,2,0,P|237:275|300:209,1,200,8|2,0:0|0:0,0:0:0:0:
400,192,26917,1,0,0:0:0:0:
212,128,27131,1,8,0:0:0:0:
488,256,27346,6,0,L|406:200,1,100,0|2,0:0|0:0,0:0:0:0:
224,168,27774,2,0,L|307:112,1,100,0|8,0:0|0:0,0:0:0:0:
24,256,28203,2,0,L|106:200,1,100,0|2,0:0|0:0,0:0:0:0:
288,168,28631,2,0,L|205:112,2,100,0|8|0,0:0|0:0|0:0,0:0:0:0:
8,80,29274,6,0,P|13:130|35:174,1,100,2|0,0:0|0:0,0:0:0:0:
224,236,29703,2,0,L|322:255,1,100,8|0,0:0|0:0,0:0:0:0:
132,320,30131,2,0,L|34:301,2,100,2|0|8,0:0|0:0|0:0,0:0:0:0:
428,232,30774,6,0,P|450:187|455:137,1,100,0|2,0:0|0:0,0:0:0:0:
268,76,31203,2,0,L|366:57,1,100,0|8,0:0|0:0,0:0:0:0:
88,316,31631,2,0,P|65:271|60:221,1,100,0|2,0:0|0:0,0:0:0:0:
248,160,32060,2,0,L|150:141,1,100,0|8,0:0|0:0,0:0:0:0:
336,76,32488,1,0,0:0:0:0:
39,151,32703,6,0,P|82:239|175:268,1,200,2|8,0:0|0:0,0:0:0:0:
364,336,33346,2,0,L|383:238,1,100,0|2,0:0|0:0,0:0:0:0:
272,224,33774,1,0,0:0:0:0:
88,236,33988,2,0,L|69:138,1,100,8|0,0:0|0:0,0:0:0:0:
260,40,34417,6,0,P|310:45|354:67,1,100,2|0,0:0|0:0,0:0:0:0:
164,140,34845,2,0,P|114:145|70:167,1,100,8|0,0:0|0:0,0:0:0:0:
260,240,35274,1,2,0:0:0:0:
112,312,35488,2,0,L|29:256,2,100,0|8|0,0:0|0:0|0:0,0:0:0:0:
384,224,36131,6,0,P|360:155|291:131,1,150,4|0,0:0|0:0,0:0:0:0:
229,124,36560,2,0,L|327:105,1,100,8|0,0:0|0:0,0:0:0:0:
504,52,36988,2,0,L|406:33,2,100,2|0|8,0:0|0:0|0:0,0:0:0:0:
212,60,37631,5,0,0:0:0:0:
136,108,37846,1,2,0:0:0:0:
112,192,38060,1,0,0:0:0:0:
140,276,38274,1,8,0:0:0:0:
220,316,38488,2,0,P|269:319|319:312,1,100,0|2,0:0|0:0,0:0:0:0:
132,116,38917,2,0,P|83:113|33:120,2,100,0|8|0,0:0|0:0|0:0,0:0:0:0:
464,224,39560,6,0,L|267:185,1,200,2|8,0:0|0:0,0:0:0:0:
444,120,40203,2,0,P|439:70|417:26,1,100,0|2,0:0|0:0,0:0:0:0:
320,36,40631,1,0,0:0:0:0:
132,56,40846,2,0,P|137:106|159:150,1,100,8|0,0:0|0:0,0:0:0:0:
348,236,41274,2,0,L|250:255,2,100,2|0|8,0:0|0:0|0:0,0:0:0:0:
152,340,42131,6,0,L|171:242,1,100,2|0,0:0|0:0,0:0:0:0:
340,268,42560,2,0,L|321:170,1,100,8|0,0:0|0:0,0:0:0:0:
256,160,42881,1,0,0:0:0:0:
60,148,42988,6,0,P|103:60|196:31,1,200,4|0,0:0|0:0,0:0:0:0:
368,208,43631,2,0,P|325:120|232:91,1,200
400,312,44274,2,0,P|468:287|491:218,1,150
300,208,44703,1,2,0:0:0:0:
172,312,44917,5,0,0:0:0:0:
144,272,45024,1,0,0:0:0:0:
136,224,45131,1,0,0:0:0:0:
152,176,45238,1,0,0:0:0:0:
188,140,45346,1,0,0:0:0:0:
236,124,45453,1,0,0:0:0:0:
284,128,45560,1,2,0:0:0:0:
12,23,45774,2,0,P|3:73|10:122,1,100,0|2,0:0|0:0,0:0:0:0:
284,344,46203,6,0,L|499:301,1,220.000006713867,4|0,0:0|0:0,0:0:0:0:
336,244,46846,2,0,L|174:210,1,165.000005035401,8|0,0:0|0:0,0:0:0:0:
236,164,47275,1,2,0:0:0:0:
336,96,47489,1,0,0:0:0:0:
224,48,47703,1,8,0:0:0:0:
496,40,47917,6,0,L|474:148,1,110.000003356934,0|2,0:0|0:0,0:0:0:0:
348,176,48346,1,0,0:0:0:0:
52,236,48560,2,0,L|74:344,1,110.000003356934,8|0,0:0|0:0,0:0:0:0:
368,264,48988,1,2,0:0:0:0:
237,156,49202,1,0,0:0:0:0:
397,96,49417,1,8,0:0:0:0:
48,160,49631,6,0,P|93:63|197:43,1,220.000006713867,4|0,0:0|0:0,0:0:0:0:
360,52,50274,2,0,L|382:160,1,110.000003356934,8|0,0:0|0:0,0:0:0:0:
204,192,50703,1,2,0:0:0:0:
336,224,50917,2,0,L|314:332,1,110.000003356934,0|8,0:0|0:0,0:0:0:0:
20,348,51346,6,0,P|72:324|152:328,1,110.000003356934,0|2,0:0|0:0,0:0:0:0:
298,256,51774,2,0,P|246:232|166:236,1,110.000003356934,0|8,0:0|0:0,0:0:0:0:
476,192,52203,2,0,L|507:146,2,55.0000016784668,0|0|2,0:0|0:0|0:0,0:0:0:0:
316,132,52632,1,0,0:0:0:0:
447,24,52846,2,0,P|393:27|343:50,1,110.000003356934,8|0,0:0|0:0,0:0:0:0:
52,344,53274,6,0,L|30:236,1,110.000003356934,4|0,0:0|0:0,0:0:0:0:
204,244,53703,2,0,L|226:136,1,110.000003356934,8|0,0:0|0:0,0:0:0:0:
116,116,54131,2,0,L|8:94,1,110.000003356934,2|0,0:0|0:0,0:0:0:0:
176,288,54560,2,0,L|284:266,1,110.000003356934,8|0,0:0|0:0,0:0:0:0:
460,344,54988,6,0,L|482:236,1,110.000003356934,2|0,0:0|0:0,0:0:0:0:
308,244,55417,2,0,L|286:136,1,110.000003356934,8|0,0:0|0:0,0:0:0:0:
396,116,55846,1,2,0:0:0:0:
224,72,56060,1,0,0:0:0:0:
396,28,56274,2,0,L|288:6,1,110.000003356934,8|0,0:0|0:0,0:0:0:0:
8,344,56703,6,0,L|116:322,1,110.000003356934,4|0,0:0|0:0,0:0:0:0:
272,260,57131,2,0,L|164:238,1,110.000003356934,8|0,0:0|0:0,0:0:0:0:
320,176,57560,2,0,L|428:154,2,110.000003356934,2|0|8,0:0|0:0|0:0,0:0:0:0:
100,48,58203,2,0,L|90:101,1,55.0000016784668
256,140,58417,5,2,0:0:0:0:
364,192,58631,1,0,0:0:0:0:
204,244,58846,1,8,0:0:0:0:
44,296,59060,1,0,0:0:0:0:
204,348,59274,1,0,0:0:0:0:
240,308,59381,1,0,0:0:0:0:
248,252,59488,1,0,0:0:0:0:
224,204,59596,1,0,0:0:0:0:
176,180,59703,1,2,0:0:0:0:
492,276,59917,6,0,P|447:179|343:159,1,220.000006713867,4|0,0:0|0:0,0:0:0:0:
184,212,60560,2,0,P|129:156|151:81,1,165.000005035401,8|0,0:0|0:0,0:0:0:0:
280,60,60988,2,0,L|388:82,2,110.000003356934,2|0|8,0:0|0:0|0:0,0:0:0:0:
8,344,61631,6,0,L|30:236,1,110.000003356934,0|2,0:0|0:0,0:0:0:0:
156,208,62060,1,0,0:0:0:0:
484,148,62274,2,0,L|462:40,1,110.000003356934,8|0,0:0|0:0,0:0:0:0:
112,124,62703,1,2,0:0:0:0:
243,232,62917,1,0,0:0:0:0:
83,292,63131,1,8,0:0:0:0:
360,340,63346,6,0,P|464:319|509:222,1,220.000006713867,4|0,0:0|0:0,0:0:0:0:
348,168,63988,2,0,L|240:190,1,110.000003356934,8|0,0:0|0:0,0:0:0:0:
404,248,64418,1,2,0:0:0:0:
304,316,64632,1,0,0:0:0:0:
416,364,64846,1,8,0:0:0:0:
144,348,65060,6,0,L|36:326,2,110.000003356934,0|2|0,0:0|0:0|0:0,0:0:0:0:
308,288,65703,1,8,0:0:0:0:
36,192,65917,2,0,L|5:146,2,55.0000016784668,0|0|2,0:0|0:0|0:0,0:0:0:0:
196,132,66346,1,0,0:0:0:0:
65,24,66560,2,0,P|119:27|169:50,1,110.000003356934,8|0,0:0|0:0,0:0:0:0:
440,344,66988,6,0,P|463:294|467:239,1,110.000003356934,4|0,0:0|0:0,0:0:0:0:
292,192,67417,2,0,L|400:170,1,110.000003356934,8|0,0:0|0:0,0:0:0:0:
224,120,67846,1,2,0:0:0:0:
396,132,68060,2,0,P|419:181|423:236,1,110.000003356934,0|8,0:0|0:0,0:0:0:0:
292,268,68488,1,0,0:0:0:0:
72,344,68702,6,0,P|50:294|46:239,1,110.000003356934,2|0,0:0|0:0,0:0:0:0:
220,192,69131,2,0,L|112:170,1,110.000003356934,8|0,0:0|0:0,0:0:0:0:
288,120,69560,1,2,0:0:0:0:
116,132,69774,2,0,P|93:181|89:236,1,110.000003356934,0|8,0:0|0:0,0:0:0:0:
220,268,70202,1,0,0:0:0:0:
504,344,70417,6,0,L|396:322,1,110.000003356934,4|0,0:0|0:0,0:0:0:0:
240,260,70845,2,0,L|348:238,1,110.000003356934,8|0,0:0|0:0,0:0:0:0:
192,176,71274,2,0,L|84:154,2,110.000003356934,2|0|8,0:0|0:0|0:0,0:0:0:0:
412,48,71917,2,0,L|422:101,1,55.0000016784668
256,140,72131,5,2,0:0:0:0:
148,192,72345,1,0,0:0:0:0:
308,244,72560,1,8,0:0:0:0:
468,296,72774,1,0,0:0:0:0:
320,348,72988,2,0,L|212:326,1,110.000003356934,2|2,0:0|0:0,0:0:0:0:
372,272,73417,1,10,0:0:0:0:
100,240,73631,6,0,P|27:209|8:132,1,165.000005035401,4|0,0:0|0:0,0:0:0:0:
72,124,74060,1,0,0:0:0:0:
232,72,74274,2,0,P|287:128|265:203,1,165.000005035401,8|0,0:0|0:0,0:0:0:0:
100,240,74702,1,2,0:0:0:0:
236,292,74917,1,2,0:0:0:0:
372,344,75131,1,10,0:0:0:0:
100,344,75346,6,0,P|119:266|192:235,1,165.000005035401,4|0,0:0|0:0,0:0:0:0:
256,228,75774,1,0,0:0:0:0:
432,280,75988,2,0,L|454:172,1,110.000003356934,8|0,0:0|0:0,0:0:0:0:
300,120,76417,1,2,0:0:0:0:
436,68,76631,6,0,L|491:75,1,55.0000016784668
300,184,76846,2,0,L|246:191,1,55.0000016784668,8|0,0:0|0:0,0:0:0:0:
192,220,77060,2,0,L|247:227,1,55.0000016784668
424,352,77274,6,0,P|500:181|356:64,1,400,4|0,0:0|0:0,0:0:0:0:
116,172,78560,1,0,0:0:0:0:
272,68,78774,6,0,P|331:137|268:203,1,200
112,256,79417,2,0,L|210:275,1,100,8|0,0:0|0:0,0:0:0:0:
364,324,79846,1,0,0:0:0:0:
412,320,79953,1,0,0:0:0:0:
456,296,80061,1,0,0:0:0:0:
484,256,80168,1,0,0:0:0:0:
492,208,80275,1,0,0:0:0:0:
140,16,80488,6,0,P|81:85|144:151,1,200,4|0,0:0|0:0,0:0:0:0:
292,200,81131,2,0,L|273:298,1,100,8|0,0:0|0:0,0:0:0:0:
120,348,81560,2,0,P|71:351|21:344,2,100,0|0|8,0:0|0:0|0:0,0:0:0:0:
448,316,82203,6,0,P|507:247|444:181,1,200
292,128,82846,2,0,L|194:147,1,100,8|0,0:0|0:0,0:0:0:0:
344,200,83274,1,0,0:0:0:0:
196,348,83488,2,0,L|177:250,1,100,0|8,0:0|0:0,0:0:0:0:
60,236,83917,1,0,0:0:0:0:
408,80,84131,6,0,P|458:85|502:107,1,100
364,196,84560,2,0,P|314:201|270:223,1,100,8|0,0:0|0:0,0:0:0:0:
472,332,84988,2,0,L|491:234,1,100
368,168,85417,1,8,0:0:0:0:
500,108,85631,1,0,0:0:0:0:
228,40,85846,5,0,0:0:0:0:
120,92,86060,1,0,0:0:0:0:
284,144,86275,1,8,0:0:0:0:
448,196,86489,1,0,0:0:0:0:
172,248,86703,5,0,0:0:0:0:
64,300,86917,2,0,L|9:307,1,55.0000016784668,8|0,0:0|0:0,0:0:0:0:
64,332,87131,2,0,L|119:339,1,55.0000016784668,8|0,0:0|0:0,0:0:0:0:
356,224,87346,2,0,L|376:116,1,110.000003356934,8|0,0:0|0:0,0:0:0:0:
