osu file format v14

[General]
AudioFilename: audio.mp3
AudioLeadIn: 0
PreviewTime: 45988
Countdown: 0
SampleSet: Normal
StackLeniency: 0.7
Mode: 2
LetterboxInBreaks: 0
WidescreenStoryboard: 0

[Editor]
DistanceSpacing: 1
BeatDivisor: 4
GridSize: 4
TimelineZoom: 1

[Metadata]
Title:Passcode 4854 -TV edit-
TitleUnicode:パスコード4854 -TV edit-
Artist:Yasuda Rei
ArtistUnicode:安田レイ
Creator:alienflybot
Version:Cup
Source:金田一少年の事件簿R
Tags:Yuta Yoneyama 玉井 健二 矢田 亨 釣 俊輔 Rachel Rhodes The Kindaichi Case Files of Young Shounen no Jikenbo Ritanzu Returns Ending ED Will Xinely Ascendance AFB
BeatmapID:1282755
BeatmapSetID:481845

[Difficulty]
HPDrainRate:4
CircleSize:2.8
OverallDifficulty:5.5
ApproachRate:5.5
SliderMultiplier:1.2
SliderTickRate:1

[Events]
//Background and Video events
0,0,"girl.jpg",0,0
//Break Periods
//Storyboard Layer 0 (Background)
//Storyboard Layer 1 (Fail)
//Storyboard Layer 2 (Pass)
//Storyboard Layer 3 (Foreground)
//Storyboard Sound Samples

[TimingPoints]
1846,428.571428571429,4,2,10,15,1,0
2060,-100,4,2,10,25,0,0
2274,-100,4,2,10,15,0,0
2488,-100,4,2,10,25,0,0
3346,-100,4,2,10,15,0,0
3560,-100,4,2,10,25,0,0
3988,-100,4,2,10,15,0,0
4203,-100,4,2,10,25,0,0
4631,-100,4,2,15,15,0,0
4846,-100,4,2,10,25,0,0
5274,-100,4,2,1,50,0,0
6346,-100,4,2,15,50,0,0
6560,-100,4,2,1,50,0,0
8060,-100,4,2,15,50,0,0
8274,-100,4,2,1,50,0,0
8596,-100,4,2,1,25,0,0
8810,-100,4,2,1,50,0,0
9346,-100,4,2,1,25,0,0
9560,-100,4,2,1,50,0,0
10417,-100,4,2,20,50,0,0
10631,-100,4,2,1,50,0,0
11274,-100,4,2,20,50,0,0
11488,-100,4,2,1,50,0,0
13846,-100,4,2,20,50,0,0
14060,-100,4,2,1,50,0,0
14703,-100,4,2,20,50,0,0
14917,-100,4,2,1,50,0,0
15131,-100,4,2,21,50,0,0
15346,-100,4,2,1,50,0,0
17274,-100,4,2,20,50,0,0
17488,-100,4,2,1,50,0,0
18131,-100,4,2,20,50,0,0
18346,-100,4,2,1,50,0,0
18560,-100,4,2,21,50,0,0
18774,-100,4,2,1,50,0,0
19846,-100,4,2,20,50,0,0
20060,-100,4,2,1,50,0,0
22310,-100,4,2,1,25,0,0
22524,-100,4,2,1,50,0,0
24131,-100,4,2,20,50,0,0
24346,-100,4,2,1,50,0,0
24988,-100,4,2,20,50,0,0
25203,-100,4,2,1,50,0,0
25417,-100,4,2,21,50,0,0
25631,-100,4,2,1,50,0,0
27560,-100,4,2,20,50,0,0
27774,-100,4,2,1,50,0,0
28417,-100,4,2,20,50,0,0
28631,-100,4,2,1,50,0,0
28846,-100,4,2,21,50,0,0
29060,-100,4,2,1,50,0,0
30988,-100,4,2,20,50,0,0
31203,-100,4,2,1,50,0,0
36024,-100,4,2,1,25,0,0
36560,-100,4,2,21,50,0,0
36774,-100,4,2,1,50,0,0
38274,-100,4,2,21,50,0,0
38488,-100,4,2,1,50,0,0
42988,-100,4,2,0,20,0,0
43631,-100,4,2,0,30,0,0
44274,-100,4,2,0,40,0,0
44703,-100,4,2,0,20,0,0
45131,-100,4,2,0,35,0,0
45560,-100,4,2,0,50,0,0
45774,-100,4,2,0,20,0,0
46203,-100,4,1,0,30,0,1
46417,-100,4,1,1,70,0,1
46846,-100,4,1,1,50,0,1
47060,-100,4,1,1,70,0,1
47703,-100,4,1,1,50,0,1
47917,-100,4,1,1,70,0,1
48560,-100,4,1,1,50,0,1
48774,-100,4,1,1,70,0,1
48988,-100,4,2,20,70,0,1
49203,-100,4,1,1,70,0,1
49631,-100,4,1,0,30,0,1
49846,-100,4,1,1,70,0,1
50274,-100,4,1,1,50,0,1
50488,-100,4,1,1,70,0,1
51131,-100,4,1,1,50,0,1
51346,-100,4,1,1,70,0,1
51988,-100,4,1,1,50,0,1
52203,-100,4,1,1,70,0,1
52417,-100,4,2,20,70,0,1
52631,-100,4,1,1,70,0,1
53274,-100,4,1,0,25,0,1
53703,-100,4,1,1,30,0,1
53917,-100,4,1,1,60,0,1
54131,-100,4,2,20,60,0,1
54346,-100,4,1,1,60,0,1
54560,-100,4,1,1,30,0,1
54774,-100,4,1,1,60,0,1
55417,-100,4,1,1,30,0,1
55631,-100,4,1,1,60,0,1
55846,-100,4,2,20,60,0,1
56060,-100,4,1,1,60,0,1
56274,-100,4,1,1,30,0,1
56703,-100,4,1,0,25,0,1
56917,-100,4,1,1,60,0,1
57131,-100,4,1,1,30,0,1
57346,-100,4,1,1,60,0,1
57988,-100,4,1,1,30,0,1
58203,-100,4,1,1,60,0,1
58417,-100,4,2,20,40,0,1
58631,-100,4,1,1,50,0,1
58846,-100,4,1,1,30,0,1
59274,-100,4,2,5,35,0,1
59703,-100,4,2,1,50,0,0
59917,-100,4,1,0,30,0,1
60131,-100,4,1,1,70,0,1
60560,-100,4,1,1,50,0,1
60988,-100,4,1,1,70,0,1
61417,-100,4,1,1,50,0,1
61631,-100,4,1,1,70,0,1
62274,-100,4,1,1,50,0,1
62488,-100,4,1,1,70,0,1
62703,-100,4,2,20,70,0,1
62917,-100,4,1,1,70,0,1
63346,-100,4,1,0,30,0,1
63560,-100,4,2,20,70,0,1
63774,-100,4,1,1,70,0,1
63988,-100,4,1,1,50,0,1
64203,-100,4,1,1,70,0,1
64846,-100,4,1,1,50,0,1
65060,-100,4,1,1,70,0,1
65703,-100,4,1,1,50,0,1
65917,-100,4,1,1,70,0,1
66131,-100,4,2,20,70,0,1
66346,-100,4,1,1,70,0,1
66988,-100,4,1,0,25,0,1
67417,-100,4,1,1,30,0,1
67631,-100,4,1,1,60,0,1
67846,-100,4,2,20,60,0,1
68060,-100,4,1,1,60,0,1
68274,-100,4,1,1,30,0,1
68488,-100,4,1,1,60,0,1
69131,-100,4,1,1,30,0,1
69346,-100,4,1,1,60,0,1
69560,-100,4,2,20,60,0,1
69774,-100,4,1,1,60,0,1
69988,-100,4,1,1,30,0,1
70417,-100,4,1,0,25,0,1
70631,-100,4,1,1,60,0,1
70846,-100,4,1,1,30,0,1
71060,-100,4,1,1,60,0,1
71703,-100,4,1,1,30,0,1
71917,-100,4,1,1,60,0,1
72131,-100,4,2,20,40,0,1
72346,-100,4,1,1,50,0,1
72560,-100,4,1,1,30,0,1
72988,-100,4,1,1,70,0,1
73631,-100,4,1,0,30,0,1
74060,-100,4,1,1,70,0,1
74274,-100,4,2,21,40,0,1
74488,-100,4,1,1,20,0,1
74703,-100,4,2,20,70,0,1
74917,-100,4,1,1,70,0,1
75346,-100,4,1,0,40,0,1
75774,-100,4,1,1,80,0,1
75988,-100,4,1,1,50,0,1
76203,-100,4,1,1,80,0,1
76846,-100,4,1,1,50,0,0
77274,-100,4,1,0,30,0,1
77703,-100,4,2,0,20,0,0
78774,-100,4,2,0,30,0,0
79417,-100,4,2,0,40,0,0
79846,-100,4,2,0,50,0,0
80274,-100,4,2,0,40,0,0
80488,-100,4,1,0,30,0,0
80703,-100,4,2,1,50,0,0
85846,-100,4,2,1,45,0,0
86703,-100,4,2,1,55,0,0
87131,-100,4,2,1,60,0,0
87238,-100,4,2,5,40,0,0
87346,-100,4,2,1,60,0,0
87560,-100,4,1,60,20,0,0

[Colours]
Combo1 : 138,64,208
Combo2 : 44,181,255
Combo3 : 211,107,141

[HitObjects]
428,344,1846,6,0,P|464:299|466:240,1,120,2|2,0:0|0:0,0:0:0:0:
328,193,2703,1,0,0:0:0:0:
168,149,3346,6,0,L|347:134,1,180,2|2,0:0|0:0,0:0:0:0:
484,89,4417,2,0,L|364:78,1,120
224,160,5274,5,2,0:0:0:0:
380,240,5703,1,10,0:0:0:0:
240,320,6131,2,0,L|120:309,1,120,0|8,0:0|0:0,0:0:0:0:
260,228,6988,6,0,L|305:188,2,60,0|0|10,0:0|0:0|0:0,0:0:0:0:
104,148,7846,2,0,P|68:103|66:44,1,120,0|8,0:0|0:0,0:0:0:0:
224,72,8703,6,0,L|344:61,2,120,4|8|2,0:0|0:0|0:0,0:0:0:0:
284,80,9774,1,0,0:0:0:0:
424,160,10203,6,0,P|440:217|423:274,1,120
268,352,11060,2,0,P|252:295|269:238,1,120
424,72,11917,1,0,0:0:0:0:
264,28,12560,5,8,0:0:0:0:
124,108,12988,2,0,L|132:167,1,60,2|0,0:0|0:0,0:0:0:0:
272,248,13631,6,0,L|392:237,1,120
236,156,14488,2,0,L|116:145,2,120
396,112,15988,5,8,0:0:0:0:
256,32,16417,2,0,L|196:26,1,60,2|0,0:0|0:0,0:0:0:0:
56,108,17060,6,0,P|57:166|93:213,1,120
248,296,17917,2,0,L|368:285,2,120
188,288,18988,5,2,0:0:0:0:
344,208,19417,1,8,0:0:0:0:
403,200,19631,2,0,P|412:114|342:64,1,180,0|8,0:0|0:0,0:0:0:0:
200,144,20703,6,0,L|155:104,2,60,2|0|8,0:0|0:0|0:0,0:0:0:0:
356,320,21560,2,0,L|476:309,1,120,2|8,0:0|0:0,0:0:0:0:
332,224,22417,5,4,0:0:0:0:
488,144,22846,1,8,0:0:0:0:
344,56,23274,2,0,L|284:62,1,60,2|0,0:0|0:0,0:0:0:0:
144,144,23917,6,0,L|264:155,1,120
118,342,24774,2,0,P|60:250|146:183,1,240,0|8,0:0|0:0,0:0:0:0:
304,148,26060,6,0,L|312:89,1,60,0|8,0:0|0:0,0:0:0:0:
456,52,26703,1,2,0:0:0:0:
300,352,27131,1,8,0:0:0:0:
359,344,27346,6,0,L|239:333,1,120
84,252,28203,2,0,L|204:241,2,120
240,152,29488,6,0,L|232:93,1,60,0|8,0:0|0:0,0:0:0:0:
88,64,30131,2,0,L|96:5,1,60,2|0,0:0|0:0,0:0:0:0:
252,76,30774,6,0,L|372:87,1,120
228,172,31631,1,0,0:0:0:0:
384,252,32060,1,0,0:0:0:0:
240,336,32488,1,0,0:0:0:0:
181,328,32703,6,0,L|301:317,1,120,2|8,0:0|0:0,0:0:0:0:
157,232,33560,2,0,L|112:192,2,60,2|0|8,0:0|0:0|0:0,0:0:0:0:
300,148,34417,5,2,0:0:0:0:
444,64,34846,1,8,0:0:0:0:
288,160,35274,2,0,L|243:120,1,60,2|0,0:0|0:0,0:0:0:0:
392,88,35917,1,2,0:0:0:0:
464,48,36131,6,0,P|463:162|361:213,1,240,4|2,0:0|0:0,0:0:0:0:
216,300,37417,1,8,0:0:0:0:
372,380,37846,6,0,P|474:329|475:215,1,240,2|2,0:0|0:0,0:0:0:0:
332,128,39131,1,8,0:0:0:0:
188,40,39560,6,0,P|172:97|189:154,1,120,2|8,0:0|0:0,0:0:0:0:
332,236,40417,2,0,L|377:196,2,60,2|0|8,0:0|0:0|0:0,0:0:0:0:
176,316,41274,6,0,L|56:305,2,120,2|8|2,0:0|0:0|0:0,0:0:0:0:
320,224,42560,1,8,0:0:0:0:
256,192,42988,12,0,45774,0:0:0:0:
148,336,46203,6,0,L|328:318,1,180,4|8,0:0|0:0,0:0:0:0:
184,232,47274,2,0,L|64:221,1,120,2|8,0:0|0:0,0:0:0:0:
124,212,47917,5,0,0:0:0:0:
268,128,48346,1,0,0:0:0:0:
208,120,48560,1,8,0:0:0:0:
148,112,48774,2,0,P|132:169|149:226,1,120
304,304,49631,6,0,P|373:253|364:168,1,180,4|8,0:0|0:0,0:0:0:0:
220,80,50703,2,0,L|100:69,1,120,2|8,0:0|0:0,0:0:0:0:
160,60,51346,5,0,0:0:0:0:
304,144,51774,1,0,0:0:0:0:
364,168,51988,1,8,0:0:0:0:
424,192,52203,2,0,L|304:203,1,120
148,232,53060,6,0,L|156:173,1,60,0|4,0:0|0:0,0:0:0:0:
300,88,53703,2,0,P|358:180|272:247,1,240,8|8,0:0|0:0,0:0:0:0:
112,324,54988,5,2,0:0:0:0:
256,260,55417,2,0,L|495:281,1,240,8|8,0:0|0:0,0:0:0:0:
336,176,56703,6,0,L|216:165,2,120,4|8|2,0:0|0:0|0:0,0:0:0:0:
496,96,57988,1,8,0:0:0:0:
436,104,58203,6,0,P|426:189|496:239,1,180,0|8,0:0|0:0,0:0:0:0:
376,252,59274,1,0,0:0:0:0:
216,328,59703,1,2,0:0:0:0:
276,320,59917,6,0,L|96:302,1,180,4|8,0:0|0:0,0:0:0:0:
240,216,60988,2,0,L|360:205,1,120,2|8,0:0|0:0,0:0:0:0:
300,196,61631,5,0,0:0:0:0:
156,112,62060,1,0,0:0:0:0:
96,88,62274,1,8,0:0:0:0:
156,64,62488,2,0,L|276:53,1,120
120,348,63346,6,0,P|51:297|60:212,1,180,0|8,0:0|0:0,0:0:0:0:
204,124,64417,2,0,L|324:113,1,120,2|8,0:0|0:0,0:0:0:0:
384,104,65060,5,0,0:0:0:0:
240,188,65489,1,0,0:0:0:0:
180,196,65703,1,8,0:0:0:0:
120,204,65917,2,0,P|104:147|121:90,1,120
276,48,66774,6,0,L|284:107,1,60,0|4,0:0|0:0,0:0:0:0:
140,192,67417,2,0,P|82:100|168:33,1,240,8|8,0:0|0:0,0:0:0:0:
328,112,68703,5,2,0:0:0:0:
156,44,69131,2,0,L|395:23,1,240,8|8,0:0|0:0,0:0:0:0:
236,128,70417,6,0,P|220:185|237:242,1,120,4|8,0:0|0:0,0:0:0:0:
356,252,71274,1,2,0:0:0:0:
196,340,71702,1,8,0:0:0:0:
136,332,71917,6,0,L|315:317,1,180,0|8,0:0|0:0,0:0:0:0:
460,232,72988,2,0,L|452:173,1,60,2|0,0:0|0:0,0:0:0:0:
308,88,73631,5,4,0:0:0:0:
148,4,74060,2,0,P|148:118|250:169,1,240
408,248,75346,5,4,0:0:0:0:
236,180,75774,2,0,L|176:185,1,60,0|8,0:0|0:0,0:0:0:0:
20,264,76417,2,0,L|140:275,2,120,2|0|4,0:0|0:0|0:0,0:0:0:0:
256,192,77703,12,4,80488,0:0:0:0:
256,272,81131,5,8,0:0:0:0:
396,192,81560,2,0,P|395:134|359:87,1,120,0|8,0:0|0:0,0:0:0:0:
212,172,82417,6,0,L|167:132,2,60,0|0|8,0:0|0:0|0:0,0:0:0:0:
368,252,83274,2,0,L|488:241,1,120,0|8,0:0|0:0,0:0:0:0:
328,40,84131,6,0,L|208:29,1,120,0|8,0:0|0:0,0:0:0:0:
64,116,84988,2,0,L|19:76,2,60,0|0|8,0:0|0:0|0:0,0:0:0:0:
208,200,85846,5,0,0:0:0:0:
52,280,86275,1,8,0:0:0:0:
196,324,86703,1,0,0:0:0:0:
340,372,87131,2,0,L|385:332,2,60,8|8|0,0:0|0:0|0:0,0:0:0:0:
