osu file format v14

[General]
AudioFilename: audio.mp3
AudioLeadIn: 0
PreviewTime: 45988
Countdown: 0
SampleSet: Soft
StackLeniency: 0.7
Mode: 2
LetterboxInBreaks: 0
WidescreenStoryboard: 0

[Editor]
Bookmarks: 42988
DistanceSpacing: 1
BeatDivisor: 4
GridSize: 4
TimelineZoom: 1

[Metadata]
Title:Passcode 4854 -TV edit-
TitleUnicode:パスコード4854 -TV edit-
Artist:Yasuda Rei
ArtistUnicode:安田レイ
Creator:alienflybot
Version:Ascendance's Platter
Source:金田一少年の事件簿R
Tags:Yuta Yoneyama 玉井 健二 矢田 亨 釣 俊輔 Rachel Rhodes The Kindaichi Case Files of Young Shounen no Jikenbo Ritanzu Returns Ending ED Will Xinely Ascendance AFB
BeatmapID:1055759
BeatmapSetID:481845

[Difficulty]
HPDrainRate:6
CircleSize:3.6
OverallDifficulty:7.7
ApproachRate:7.7
SliderMultiplier:1.6
SliderTickRate:2

[Events]
//Background and Video events
0,0,"girl.jpg",0,0
//Break Periods
//Storyboard Layer 0 (Background)
//Storyboard Layer 1 (Fail)
//Storyboard Layer 2 (Pass)
//Storyboard Layer 3 (Foreground)
//Storyboard Sound Samples

[TimingPoints]
1846,428.571428571429,4,2,10,15,1,0
2060,-100,4,2,10,25,0,0
2274,-100,4,2,10,15,0,0
2488,-100,4,2,10,25,0,0
2917,-100,4,2,10,15,0,0
3131,-100,4,2,10,25,0,0
3346,-100,4,2,10,15,0,0
3560,-100,4,2,10,25,0,0
3988,-100,4,2,10,15,0,0
4203,-100,4,2,10,25,0,0
4631,-100,4,2,10,15,0,0
4846,-100,4,2,10,25,0,0
5060,-100,4,2,10,15,0,0
5274,-100,4,2,1,50,0,0
8596,-100,4,2,1,25,0,0
8810,-100,4,2,1,50,0,0
9346,-100,4,2,1,25,0,0
9560,-100,4,2,1,50,0,0
22310,-100,4,2,1,25,0,0
22524,-100,4,2,1,50,0,0
23060,-100,4,2,1,25,0,0
23274,-100,4,2,1,50,0,0
36024,-100,4,2,1,25,0,0
36560,-100,4,2,1,50,0,0
42988,-100,4,2,0,20,0,0
43203,-100,4,2,1,25,0,0
43631,-100,4,2,1,50,0,0
43846,-100,4,2,1,25,0,0
44274,-100,4,2,1,50,0,0
44488,-100,4,2,1,25,0,0
44703,-100,4,2,1,50,0,0
44917,-100,4,2,5,20,0,0
45024,-100,4,2,5,25,0,0
45131,-100,4,2,5,30,0,0
45238,-100,4,2,5,35,0,0
45346,-100,4,2,5,40,0,0
45453,-100,4,2,5,45,0,0
45560,-100,4,2,1,50,0,0
45774,-100,4,2,1,35,0,0
45988,-100,4,2,1,20,0,0
46203,-90.9090909090909,4,1,0,30,0,1
46417,-90.9090909090909,4,1,1,70,0,1
46846,-90.9090909090909,4,1,1,50,0,1
47060,-90.9090909090909,4,1,1,70,0,1
47703,-90.9090909090909,4,1,1,50,0,1
47917,-90.9090909090909,4,1,1,70,0,1
48560,-90.9090909090909,4,1,1,50,0,1
48774,-90.9090909090909,4,1,1,70,0,1
49417,-90.9090909090909,4,1,1,50,0,1
49631,-90.9090909090909,4,1,0,30,0,1
49846,-90.9090909090909,4,1,1,70,0,1
50274,-90.9090909090909,4,1,1,50,0,1
50488,-90.9090909090909,4,1,1,70,0,1
51131,-90.9090909090909,4,1,1,50,0,1
51346,-90.9090909090909,4,1,1,70,0,1
51988,-90.9090909090909,4,1,1,50,0,1
52203,-90.9090909090909,4,1,1,70,0,1
52846,-90.9090909090909,4,1,1,50,0,1
53060,-90.9090909090909,4,1,1,70,0,1
53274,-90.9090909090909,4,1,0,25,0,1
53488,-90.9090909090909,4,1,1,60,0,1
53703,-90.9090909090909,4,1,1,30,0,1
53917,-90.9090909090909,4,1,1,60,0,1
54560,-90.9090909090909,4,1,1,30,0,1
54774,-90.9090909090909,4,1,1,60,0,1
55417,-90.9090909090909,4,1,1,30,0,1
55631,-90.9090909090909,4,1,1,60,0,1
56274,-90.9090909090909,4,1,1,30,0,1
56488,-90.9090909090909,4,1,1,60,0,1
56703,-90.9090909090909,4,1,0,25,0,1
56917,-90.9090909090909,4,1,1,60,0,1
57131,-90.9090909090909,4,1,1,30,0,1
57346,-90.9090909090909,4,1,1,60,0,1
57988,-90.9090909090909,4,1,1,30,0,1
58203,-90.9090909090909,4,1,1,60,0,1
58417,-90.9090909090909,4,1,1,40,0,1
58631,-90.9090909090909,4,1,1,50,0,1
58846,-90.9090909090909,4,1,1,30,0,1
59060,-90.9090909090909,4,1,1,60,0,1
59274,-90.9090909090909,4,2,5,35,0,1
59381,-90.9090909090909,4,2,5,30,0,1
59488,-90.9090909090909,4,2,5,25,0,1
59596,-90.9090909090909,4,2,5,20,0,1
59703,-90.9090909090909,4,2,1,50,0,0
59917,-90.9090909090909,4,1,0,30,0,1
60131,-90.9090909090909,4,1,1,70,0,1
60560,-90.9090909090909,4,1,1,50,0,1
60774,-90.9090909090909,4,1,1,25,0,1
60988,-90.9090909090909,4,1,1,70,0,1
61417,-90.9090909090909,4,1,1,50,0,1
61631,-90.9090909090909,4,1,1,70,0,1
62274,-90.9090909090909,4,1,1,50,0,1
62488,-90.9090909090909,4,1,1,70,0,1
63131,-90.9090909090909,4,1,1,50,0,1
63346,-90.9090909090909,4,1,0,30,0,1
63560,-90.9090909090909,4,1,1,70,0,1
63988,-90.9090909090909,4,1,1,50,0,1
64203,-90.9090909090909,4,1,1,70,0,1
64846,-90.9090909090909,4,1,1,50,0,1
65060,-90.9090909090909,4,1,1,70,0,1
65703,-90.9090909090909,4,1,1,50,0,1
65917,-90.9090909090909,4,1,1,70,0,1
66560,-90.9090909090909,4,1,1,50,0,1
66774,-90.9090909090909,4,1,1,70,0,1
66988,-90.9090909090909,4,1,0,25,0,1
67203,-90.9090909090909,4,1,1,60,0,1
67417,-90.9090909090909,4,1,1,30,0,1
67631,-90.9090909090909,4,1,1,60,0,1
68274,-90.9090909090909,4,1,1,30,0,1
68488,-90.9090909090909,4,1,1,60,0,1
69131,-90.9090909090909,4,1,1,30,0,1
69346,-90.9090909090909,4,1,1,60,0,1
69988,-90.9090909090909,4,1,1,30,0,1
70203,-90.9090909090909,4,1,1,60,0,1
70417,-90.9090909090909,4,1,0,25,0,1
70631,-90.9090909090909,4,1,1,60,0,1
70846,-90.9090909090909,4,1,1,30,0,1
71060,-90.9090909090909,4,1,1,60,0,1
71703,-90.9090909090909,4,1,1,30,0,1
71917,-90.9090909090909,4,1,1,60,0,1
72131,-90.9090909090909,4,1,1,40,0,1
72346,-90.9090909090909,4,1,1,50,0,1
72560,-90.9090909090909,4,1,1,30,0,1
72774,-90.9090909090909,4,1,1,60,0,1
72988,-90.9090909090909,4,1,1,70,0,1
73417,-90.9090909090909,4,1,1,50,0,1
73631,-90.9090909090909,4,1,0,30,0,1
73846,-90.9090909090909,4,1,1,20,0,1
74060,-90.9090909090909,4,1,1,70,0,1
74274,-90.9090909090909,4,1,1,40,0,1
74488,-90.9090909090909,4,1,1,20,0,1
74703,-90.9090909090909,4,1,1,70,0,1
75131,-90.9090909090909,4,1,1,40,0,1
75346,-90.9090909090909,4,1,0,40,0,1
75560,-90.9090909090909,4,1,1,20,0,1
75774,-90.9090909090909,4,1,1,80,0,1
75988,-90.9090909090909,4,1,1,50,0,1
76203,-90.9090909090909,4,1,1,80,0,1
76631,-90.9090909090909,4,2,5,70,0,1
76738,-90.9090909090909,4,2,5,65,0,1
76846,-90.9090909090909,4,1,1,50,0,1
76953,-90.9090909090909,4,2,5,55,0,1
77060,-90.9090909090909,4,2,5,50,0,0
77167,-90.9090909090909,4,2,5,45,0,0
77274,-100,4,1,0,30,0,1
77488,-100,4,1,0,30,0,0
78131,-100,4,2,1,25,0,0
78560,-100,4,2,1,20,0,0
78774,-100,4,2,1,50,0,0
79846,-100,4,2,5,40,0,0
79953,-100,4,2,5,35,0,0
80060,-100,4,2,5,30,0,0
80167,-100,4,2,5,25,0,0
80274,-100,4,2,5,20,0,0
80488,-100,4,1,0,30,0,1
80703,-100,4,2,1,50,0,0
85846,-100,4,2,1,45,0,0
86060,-100,4,2,1,40,0,0
86274,-100,4,2,1,45,0,0
86488,-100,4,2,1,50,0,0
86703,-90.9090909090909,4,2,1,55,0,0
86917,-90.9090909090909,4,2,1,60,0,0
87024,-90.9090909090909,4,2,5,40,0,0
87131,-90.9090909090909,4,2,1,60,0,0
87238,-90.9090909090909,4,2,5,40,0,0
87346,-90.9090909090909,4,2,1,60,0,0
87560,-90.9090909090909,4,1,60,20,0,0

[Colours]
Combo1 : 138,64,208
Combo2 : 44,181,255
Combo3 : 211,107,141

[HitObjects]
216,192,1846,6,0,L|32:192,1,160,2|2,0:0|0:0,0:0:0:0:
208,120,2703,2,0,L|304:120,2,80,0|2|0,0:0|0:0|0:0,0:0:0:0:
328,200,3346,6,0,L|520:200,1,160,2|0,0:0|0:0,0:0:0:0:
368,200,3988,1,2,0:0:0:0:
192,136,4417,2,0,L|296:136,1,80,0|2,0:0|0:0,0:0:0:0:
384,208,4846,2,0,L|280:208,1,80,0|0,0:0|0:0,0:0:0:0:
112,296,5274,6,0,L|208:296,1,80,2|0,0:0|0:0,0:0:0:0:
280,296,5703,1,10,0:0:0:0:
128,192,6131,1,0,0:0:0:0:
232,192,6346,2,0,L|128:192,1,80,2|8,0:0|0:0,0:0:0:0:
336,64,6988,6,0,L|424:64,1,80,0|0,0:0|0:0,0:0:0:0:
304,136,7417,2,0,L|208:136,1,80,10|0,0:0|0:0,0:0:0:0:
400,248,8060,2,0,L|488:248,1,80,2|8,0:0|0:0,0:0:0:0:
144,288,8703,6,0,L|56:288,1,80,4|0,0:0|0:0,0:0:0:0:
200,224,9131,2,0,L|368:224,1,160,8|2,0:0|0:0,0:0:0:0:
254,224,9774,1,0,0:0:0:0:
464,144,10203,6,0,L|296:144,1,160
184,144,10846,1,8,0:0:0:0:
384,344,11060,2,0,P|424:280|368:224,1,160
256,224,11703,2,0,L|160:224,1,80,8|0,0:0|0:0,0:0:0:0:
368,56,12131,5,2,0:0:0:0:
192,168,12560,2,0,L|352:168,1,160,8|2,0:0|0:0,0:0:0:0:
248,168,13203,1,0,0:0:0:0:
480,264,13631,6,0,L|304:264,1,160
416,192,14274,1,8,0:0:0:0:
280,192,14488,2,0,L|112:192,2,160,0|0|0,0:0|0:0|0:0,0:0:0:0:
400,192,15560,5,2,0:0:0:0:
176,104,15988,2,0,L|72:104,1,80,8|0,0:0|0:0,0:0:0:0:
256,40,16417,2,0,L|360:40,1,80,2|0,0:0|0:0,0:0:0:0:
136,144,17060,6,0,L|312:144,1,160,0|0,0:0|0:0,0:0:0:0:
384,144,17703,1,8,0:0:0:0:
224,288,17917,2,0,P|184:256|240:168,1,160,0|0,0:0|0:0,0:0:0:0:
336,160,18560,2,0,L|432:160,1,80,8|0,0:0|0:0,0:0:0:0:
72,104,18988,6,0,P|32:160|88:232,1,160,2|8,0:0|0:0,0:0:0:0:
192,256,19631,2,0,L|352:256,1,160
200,256,20274,1,8,0:0:0:0:
440,184,20703,6,0,L|272:184,1,160,2|8,0:0|0:0,0:0:0:0:
168,184,21346,1,0,0:0:0:0:
328,112,21560,2,0,L|160:112,1,160,2|8,0:0|0:0,0:0:0:0:
344,24,22417,6,0,P|392:88|328:144,1,160,4|8,0:0|0:0,0:0:0:0:
208,256,23274,2,0,L|288:256,2,80,2|0|8,0:0|0:0|0:0,0:0:0:0:
320,184,23917,6,0,L|488:184,1,160,0|0,0:0|0:0,0:0:0:0:
256,136,24774,2,0,L|64:136,1,160,0|0,0:0|0:0,0:0:0:0:
192,136,25417,2,0,L|280:136,1,80,8|8,0:0|0:0,0:0:0:0:
400,136,25846,5,2,0:0:0:0:
208,232,26274,2,0,L|376:232,1,160,8|2,0:0|0:0,0:0:0:0:
251,148,26917,2,0,L|155:148,1,80,0|8,0:0|0:0,0:0:0:0:
400,56,27346,6,0,P|448:120|384:176,1,160
288,176,27988,1,8,0:0:0:0:
144,288,28203,2,0,L|312:288,2,160
24,288,29274,5,2,0:0:0:0:
224,248,29703,2,0,L|392:248,1,160,8|2,0:0|0:0,0:0:0:0:
496,248,30346,1,0,0:0:0:0:
232,168,30774,6,0,L|392:168,1,160
160,120,31631,2,0,L|184:296,1,160,0|0,0:0|0:0,0:0:0:0:
344,104,32274,2,0,L|448:104,1,80,8|0,0:0|0:0,0:0:0:0:
128,320,32703,6,0,P|80:264|144:208,1,160,2|8,0:0|0:0,0:0:0:0:
248,208,33346,2,0,L|496:208,1,240,0|8,0:0|0:0,0:0:0:0:
288,120,34417,6,0,L|464:120,1,160,2|8,0:0|0:0,0:0:0:0:
256,224,35274,2,0,L|160:224,2,80,2|0|8,0:0|0:0|0:0,0:0:0:0:
424,224,36131,5,4,0:0:0:0:
224,152,36560,1,8,0:0:0:0:
376,152,36988,2,0,L|456:152,2,80,2|0|8,0:0|0:0|0:0,0:0:0:0:
216,152,37631,6,0,L|400:152,1,160,0|0,0:0|0:0,0:0:0:0:
120,144,38488,2,0,L|296:144,2,160,0|0|0,0:0|0:0|0:0,0:0:0:0:
416,280,39560,6,0,P|456:232|416:144,1,160,2|8,0:0|0:0,0:0:0:0:
280,88,40203,2,0,L|464:88,1,160,0|0,0:0|0:0,0:0:0:0:
336,88,40846,1,8,0:0:0:0:
88,216,41274,6,0,L|248:216,1,160,2|8,0:0|0:0,0:0:0:0:
384,152,42131,2,0,L|296:152,1,80,2|0,0:0|0:0,0:0:0:0:
392,72,42560,2,0,L|488:72,1,80,8|0,0:0|0:0,0:0:0:0:
190,332,42988,6,0,P|154:256|211:194,1,160,4|0,0:0|0:0,0:0:0:0:
303,197,43631,2,0,L|471:197,1,160,0|0,0:0|0:0,0:0:0:0:
312,140,44274,2,0,L|224:140,1,80
408,80,44703,6,0,L|496:80,2,80
224,160,45346,2,0,L|136:160,2,80
360,160,45988,1,2,0:0:0:0:
80,72,46203,6,0,P|24:136|88:200,1,176.000005371094,4|0,0:0|0:0,0:0:0:0:
192,224,46846,2,0,L|296:224,1,88.000002685547,8|0,0:0|0:0,0:0:0:0:
440,224,47274,1,2,0:0:0:0:
248,136,47703,1,8,0:0:0:0:
408,64,47917,6,0,P|448:120|392:208,1,176.000005371094,0|0,0:0|0:0,0:0:0:0:
280,240,48560,1,8,0:0:0:0:
400,304,48774,2,0,L|224:304,1,176.000005371094,0|0,0:0|0:0,0:0:0:0:
112,304,49417,1,8,0:0:0:0:
424,248,49631,6,0,P|472:208|392:128,1,176.000005371094,4|0,0:0|0:0,0:0:0:0:
264,120,50274,2,0,L|168:120,1,88.000002685547,8|0,0:0|0:0,0:0:0:0:
288,40,50703,2,0,L|472:40,1,176.000005371094,2|8,0:0|0:0,0:0:0:0:
284,123,51346,6,0,P|236:171|300:259,1,176.000005371094
442,267,51988,1,8,0:0:0:0:
330,336,52203,2,0,L|146:336,1,176.000005371094
48,336,52846,1,8,0:0:0:0:
388,281,53060,6,0,P|428:201|356:137,1,176.000005371094
228,137,53703,2,0,L|132:137,1,88.000002685547,8|0,0:0|0:0,0:0:0:0:
304,136,54131,2,0,L|400:136,2,88.000002685547,2|0|8,0:0|0:0|0:0,0:0:0:0:
96,176,54774,6,0,L|296:176,1,176.000005371094,0|0,0:0|0:0,0:0:0:0:
364,256,55417,2,0,L|268:256,1,88.000002685547,8|0,0:0|0:0,0:0:0:0:
184,176,55846,2,0,L|206:90,1,88.000002685547,2|0,0:0|0:0,0:0:0:0:
300,12,56274,2,0,L|396:12,1,88.000002685547,8|0,0:0|0:0,0:0:0:0:
88,140,56703,6,0,L|109:54,1,88.000002685547
256,48,57131,2,0,L|360:48,1,88.000002685547,8|0,0:0|0:0,0:0:0:0:
200,144,57560,2,0,L|176:240,1,88.000002685547,2|0,0:0|0:0,0:0:0:0:
328,240,57988,1,8,0:0:0:0:
48,192,58203,6,0,P|16:160|80:64,1,176.000005371094,0|0,0:0|0:0,0:0:0:0:
208,80,58846,2,0,L|312:80,1,88.000002685547,8|0,0:0|0:0,0:0:0:0:
168,160,59274,1,0,0:0:0:0:
264,256,59488,2,0,L|144:256,1,88.000002685547,0|2,0:0|0:0,0:0:0:0:
464,200,59917,6,0,P|496:160|440:56,1,176.000005371094,4|0,0:0|0:0,0:0:0:0:
288,64,60560,2,0,L|176:64,1,88.000002685547,8|0,0:0|0:0,0:0:0:0:
376,160,60988,2,0,L|392:256,1,88.000002685547,2|0,0:0|0:0,0:0:0:0:
240,248,61417,1,8,0:0:0:0:
400,160,61631,6,0,P|328:128|232:160,1,176.000005371094,0|0,0:0|0:0,0:0:0:0:
128,240,62274,1,8,0:0:0:0:
296,296,62488,2,0,P|328:248|280:144,1,176.000005371094,0|0,0:0|0:0,0:0:0:0:
136,120,63131,1,8,0:0:0:0:
424,56,63346,6,0,P|472:112|416:192,1,176.000005371094,4|0,0:0|0:0,0:0:0:0:
288,240,63988,2,0,L|192:240,1,88.000002685547,8|0,0:0|0:0,0:0:0:0:
376,168,64417,2,0,L|192:168,1,176.000005371094,2|8,0:0|0:0,0:0:0:0:
32,168,65060,6,0,L|216:168,1,176.000005371094,0|0,0:0|0:0,0:0:0:0:
336,168,65703,1,8,0:0:0:0:
208,80,65917,1,0,0:0:0:0:
336,244,66131,2,0,L|324:156,1,88.000002685547,2|0,0:0|0:0,0:0:0:0:
168,72,66560,1,8,0:0:0:0:
448,304,66774,6,0,P|488:256|416:160,1,176.000005371094
272,136,67417,2,0,L|260:48,1,88.000002685547,8|0,0:0|0:0,0:0:0:0:
400,56,67846,2,0,L|496:56,2,88.000002685547,2|0|8,0:0|0:0|0:0,0:0:0:0:
212,296,68488,6,0,P|172:240|244:160,1,176.000005371094
332,152,69131,1,8,0:0:0:0:
220,64,69346,2,0,L|124:64,2,88.000002685547,0|2|0,0:0|0:0|0:0,0:0:0:0:
340,64,69988,1,8,0:0:0:0:
180,64,70203,1,0,0:0:0:0:
456,352,70417,6,0,L|488:176,1,176.000005371094,4|8,0:0|0:0,0:0:0:0:
336,200,71060,1,0,0:0:0:0:
456,80,71274,2,0,L|352:80,2,88.000002685547,2|0|8,0:0|0:0|0:0,0:0:0:0:
256,304,71917,6,0,L|240:216,1,88.000002685547,0|2,0:0|0:0,0:0:0:0:
376,200,72346,2,0,L|472:176,1,88.000002685547,0|8,0:0|0:0,0:0:0:0:
296,120,72774,1,0,0:0:0:0:
456,64,72988,2,0,L|352:48,2,88.000002685547,2|2|10,0:0|0:0|0:0,0:0:0:0:
160,296,73631,6,0,P|96:248|152:168,1,176.000005371094,4|0,0:0|0:0,0:0:0:0:
240,160,74274,2,0,L|328:160,1,88.000002685547,8|0,0:0|0:0,0:0:0:0:
144,56,74703,2,0,L|56:56,2,88.000002685547,2|2|10,0:0|0:0|0:0,0:0:0:0:
432,48,75346,6,0,P|472:112|400:176,1,176.000005371094,4|0,0:0|0:0,0:0:0:0:
288,192,75988,2,0,L|192:192,1,88.000002685547,8|0,0:0|0:0,0:0:0:0:
376,112,76417,2,0,L|424:32,1,88.000002685547,2|0,0:0|0:0,0:0:0:0:
272,32,76846,1,8,0:0:0:0:
432,128,77060,1,0,0:0:0:0:
152,280,77274,6,0,P|96:232|176:192,1,160,4|0,0:0|0:0,0:0:0:0:
320,184,78131,1,0,0:0:0:0:
184,128,78560,1,0,0:0:0:0:
352,64,78774,6,0,L|160:64,1,160,0|0,0:0|0:0,0:0:0:0:
80,64,79417,1,8,0:0:0:0:
224,144,79631,2,0,L|400:144,1,160,0|0,0:0|0:0,0:0:0:0:
480,144,80274,1,0,0:0:0:0:
168,288,80488,6,0,P|128:224|192:168,1,160,4|0,0:0|0:0,0:0:0:0:
288,144,81131,2,0,L|376:144,1,80,8|0,0:0|0:0,0:0:0:0:
216,64,81560,2,0,L|128:64,2,80,0|0|8,0:0|0:0|0:0,0:0:0:0:
360,64,82203,6,0,P|400:104|352:192,1,160,0|0,0:0|0:0,0:0:0:0:
248,216,82846,2,0,L|152:216,1,80,8|0,0:0|0:0,0:0:0:0:
360,104,83274,2,0,L|456:104,2,80,0|0|8,0:0|0:0|0:0,0:0:0:0:
192,72,84131,6,0,L|368:72,1,160,0|8,0:0|0:0,0:0:0:0:
168,128,84988,2,0,L|88:128,1,80,0|0,0:0|0:0,0:0:0:0:
192,216,85417,2,0,L|288:216,1,80,8|0,0:0|0:0,0:0:0:0:
88,336,85846,6,0,L|64:248,1,80,0|0,0:0|0:0,0:0:0:0:
264,224,86274,2,0,L|296:136,1,80,8|0,0:0|0:0,0:0:0:0:
104,112,86703,2,0,L|192:112,2,88.000002685547,0|8|8,0:0|0:0|0:0,0:0:0:0:
384,88,87346,2,0,L|472:88,1,88.000002685547,8|0,0:0|0:0,0:0:0:0:
