osu file format v14

[General]
AudioFilename: audio.mp3
AudioLeadIn: 0
PreviewTime: 46096
Countdown: 0
SampleSet: Soft
StackLeniency: 0.7
Mode: 0
LetterboxInBreaks: 0
WidescreenStoryboard: 0

[Editor]
DistanceSpacing: 1.4
BeatDivisor: 4
GridSize: 4
TimelineZoom: 1

[Metadata]
Title:Passcode 4854 -TV edit-
TitleUnicode:パスコード4854 -TV edit-
Artist:Yasuda Rei
ArtistUnicode:安田レイ
Creator:Sotarks
Version:Kalibe's Hard
Source:金田一少年の事件簿R
Tags:Ending Kindaichi Shounen no Jikenbo R Returns リターンズ File of Young akitoshi corinn kalibe
BeatmapID:1561395
BeatmapSetID:740068

[Difficulty]
HPDrainRate:5
CircleSize:3.9
OverallDifficulty:6.5
ApproachRate:7
SliderMultiplier:1.48
SliderTickRate:1

[Events]
//Background and Video events
0,0,"BG.jpg",0,0
Video,0,"video.avi"
//Break Periods
//Storyboard Layer 0 (Background)
//Storyboard Layer 1 (Fail)
//Storyboard Layer 2 (Pass)
//Storyboard Layer 3 (Foreground)
//Storyboard Sound Samples

[TimingPoints]
1846,428.571428571429,4,2,22,32,1,0
1846,-138.888888888889,4,2,22,32,0,0
5274,-121.951219512195,4,2,22,42,0,0
8703,-108.695652173913,4,2,22,42,0,0
42988,-138.888888888889,4,2,22,42,0,0
45560,-192.307692307692,4,2,22,42,0,0
46203,-98.0392156862744,4,2,22,62,0,1
77274,-108.695652173913,4,2,22,52,0,0
80488,-121.951219512195,4,2,22,42,0,0
86917,-121.951219512195,4,2,22,62,0,0

[Colours]
Combo1 : 233,218,171
Combo2 : 155,142,85
Combo3 : 137,116,103
Combo4 : 149,102,102

[HitObjects]
0,86,1846,6,0,L|128:67,1,106.560002601563,2|2,0:0|0:0,0:0:0:0:
159,136,2488,2,0,L|267:154,1,106.560002601563,0|2,0:0|0:0,0:0:0:0:
334,104,3131,1,0,0:0:0:0:
392,166,3346,6,0,P|377:212|360:277,1,106.560002601563,2|2,0:0|0:0,0:0:0:0:
414,335,3988,2,0,P|362:348|311:364,1,106.560002601563,2|2,0:0|0:0,0:0:0:0:
248,307,4631,2,0,L|238:248,2,53.2800013007813,2|0|2,0:0|0:0|0:0,0:0:0:0:
179,375,5274,6,0,P|147:367|109:358,1,60.6800009259033,10|2,0:1|3:2,0:0:0:0:
48,294,5703,2,0,P|61:236|76:161,1,121.360001851807,10|2,0:2|3:2,0:0:0:0:
137,102,6346,1,8,0:1:0:0:
137,102,6560,2,0,L|122:30,1,60.6800009259033,10|0,0:2|3:0,0:0:0:0:
73,175,6988,5,10,0:1:0:0:
158,221,7203,1,8,3:1:0:0:
239,169,7417,1,10,0:0:0:0:
239,169,7631,2,0,P|252:109|266:39,1,121.360001851807,10|10,0:1|0:1,0:0:0:0:
353,12,8274,2,0,P|364:39|365:76,1,60.6800009259033,10|0,0:0|3:0,0:0:0:0:
329,152,8703,5,10,0:1:0:0:
329,152,9131,2,0,P|398:156|456:102,1,136.159995429199,10|2,0:0|3:0,0:0:0:0:
502,195,9774,2,0,L|482:263,1,68.0799977145997,10|8,0:3|0:0,0:0:0:0:
405,203,10203,1,2,3:0:0:0:
388,296,10417,6,0,P|394:329|398:363,2,68.0799977145997,8|10|8,0:1|0:1|0:0,0:0:0:0:
316,232,11060,2,0,P|302:296|284:371,1,136.159995429199,10|10,0:1|0:1,0:0:0:0:
213,301,11703,2,0,P|208:267|202:223,1,68.0799977145997,8|2,0:0|3:0,0:0:0:0:
113,309,12131,6,0,P|81:257|103:182,1,136.159995429199,8|10,0:1|0:0,0:0:0:0:
173,128,12774,1,2,0:0:0:0:
89,82,12988,2,0,P|121:92|154:100,1,68.0799977145997,2|10,3:0|0:3,0:0:0:0:
244,184,13417,2,0,P|251:150|262:118,1,68.0799977145997,8|2,0:0|3:0,0:0:0:0:
326,47,13846,5,8,0:1:0:0:
396,101,14060,1,10,0:1:0:0:
336,189,14274,1,8,0:0:0:0:
336,189,14488,2,0,P|392:152|465:168,1,136.159995429199,10|10,0:1|3:1,0:0:0:0:
512,243,15131,2,0,P|502:271|489:321,1,68.0799977145997,8|2,0:0|3:0,0:0:0:0:
415,384,15560,6,0,L|393:243,1,136.159995429199,8|10,0:1|0:0,0:0:0:0:
320,188,16203,1,2,0:0:0:0:
241,242,16417,2,0,P|229:276|218:327,1,68.0799977145997,2|10,3:0|0:3,0:0:0:0:
128,370,16846,2,0,P|95:358|62:350,1,68.0799977145997,8|2,0:0|3:0,0:0:0:0:
18,266,17274,5,8,0:1:0:0:
81,195,17488,1,10,0:1:0:0:
6,118,17703,1,8,0:0:0:0:
78,55,17917,2,0,P|137:44|217:30,1,136.159995429199,10|10,0:1|0:1,0:0:0:0:
273,104,18560,2,0,P|263:135|253:178,1,68.0799977145997,8|2,0:0|3:0,0:0:0:0:
155,252,18988,6,0,P|122:198|145:129,1,136.159995429199,10|10,0:1|0:0,0:0:0:0:
241,245,19631,2,0,P|245:320|252:384,1,136.159995429199,2|8,0:0|0:3,0:0:0:0:
347,310,20274,2,0,P|355:270|369:221,1,68.0799977145997,8|0,0:0|3:0,0:0:0:0:
313,161,20703,5,8,0:1:0:0:
399,120,20917,1,8,0:1:0:0:
305,66,21131,1,8,0:0:0:0:
305,66,21346,2,0,L|316:144,1,68.0799977145997,8|2,0:1|3:0,0:0:0:0:
426,198,21774,5,10,0:1:0:0:
433,205,21988,2,0,P|399:211|359:222,1,68.0799977145997,8|0,0:0|3:0,0:0:0:0:
238,285,22417,6,0,P|302:296|373:325,1,136.159995429199,8|10,0:1|0:0,0:0:0:0:
455,284,23060,1,0,0:0:0:0:
366,219,23274,2,0,P|356:184|363:142,1,68.0799977145997,2|10,3:0|0:3,0:0:0:0:
433,92,23703,2,0,L|518:107,1,68.0799977145997,8|2,0:0|3:0,0:0:0:0:
361,29,24131,5,8,0:1:0:0:
285,88,24346,1,10,0:1:0:0:
200,44,24560,1,8,0:0:0:0:
200,44,24774,2,0,P|160:100|165:168,1,136.159995429199,10|10,0:1|0:1,0:0:0:0:
90,226,25417,2,0,P|52:231|1:243,1,68.0799977145997,8|2,0:0|3:0,0:0:0:0:
111,314,25846,6,0,P|104:347|99:381,1,68.0799977145997,8|2,0:1|0:0,0:0:0:0:
207,301,26274,2,0,P|198:239|185:154,1,136.159995429199,10|2,0:0|3:0,0:0:0:0:
123,95,26917,1,10,0:3:0:0:
196,34,27131,2,0,L|280:47,1,68.0799977145997,8|2,0:0|3:0,0:0:0:0:
333,130,27560,5,8,0:1:0:0:
423,100,27774,1,10,0:1:0:0:
356,32,27988,1,8,0:0:0:0:
423,100,28203,2,0,P|408:169|394:242,1,136.159995429199,10|10,0:1|3:1,0:0:0:0:
491,318,28846,2,0,P|484:280|478:230,1,68.0799977145997,8|2,0:0|3:0,0:0:0:0:
394,329,29274,6,0,P|342:365|263:353,1,136.159995429199,8|10,0:1|0:0,0:0:0:0:
209,285,29917,1,0,0:0:0:0:
209,285,30131,2,0,P|242:273|288:261,1,68.0799977145997,2|10,3:0|0:3,0:0:0:0:
155,362,30560,2,0,P|122:352|90:341,1,68.0799977145997,8|2,0:0|3:0,0:0:0:0:
39,260,30988,5,8,0:1:0:0:
127,223,31203,1,10,0:1:0:0:
208,271,31417,1,8,0:0:0:0:
295,233,31631,2,0,P|321:169|315:95,1,136.159995429199,10|10,0:1|0:1,0:0:0:0:
244,41,32274,2,0,P|228:73|223:119,1,68.0799977145997,8|2,0:0|3:0,0:0:0:0:
147,206,32703,6,0,L|299:181,1,136.159995429199,10|10,0:1|0:0,0:0:0:0:
371,260,33346,2,0,P|323:305|242:301,1,136.159995429199,2|10,0:0|0:3,0:0:0:0:
150,355,33988,2,0,P|162:323|181:274,1,68.0799977145997,8|2,0:0|3:0,0:0:0:0:
243,224,34417,5,8,0:1:0:0:
152,193,34631,1,8,0:1:0:0:
88,264,34846,1,8,0:0:0:0:
12,194,35060,2,0,L|29:108,1,68.0799977145997,8|2,0:1|3:0,0:0:0:0:
122,79,35488,5,10,3:1:0:0:
129,84,35703,2,0,L|114:9,1,68.0799977145997,8|2,0:0|3:0,0:0:0:0:
214,89,36131,6,0,P|280:98|369:116,1,136.159995429199,8|8,0:1|0:0,0:0:0:0:
412,182,36774,1,2,0:0:0:0:
463,102,36988,2,0,P|453:134|444:178,1,68.0799977145997,0|10,3:0|0:3,0:0:0:0:
497,256,37417,2,0,P|463:263|431:273,1,68.0799977145997,8|2,0:0|3:0,0:0:0:0:
342,351,37846,5,8,0:1:0:0:
276,282,38060,1,10,0:1:0:0:
349,221,38274,1,8,0:0:0:0:
268,172,38488,2,0,P|190:182|113:193,1,136.159995429199,10|10,0:1|0:1,0:0:0:0:
50,238,39131,2,0,P|40:207|45:165,1,68.0799977145997,8|2,0:0|3:0,0:0:0:0:
4,84,39560,6,0,L|83:69,1,68.0799977145997,8|0,0:1|3:0,0:0:0:0:
149,18,39988,1,10,0:0:0:0:
215,93,40203,2,0,P|198:157|179:247,1,136.159995429199,2|8,0:0|0:3,0:0:0:0:
129,304,40846,2,0,P|95:311|49:323,1,68.0799977145997,8|0,0:0|3:0,0:0:0:0:
183,225,41274,5,8,0:1:0:0:
264,273,41488,1,8,0:1:0:0:
205,348,41703,1,8,0:0:0:0:
264,273,41917,2,0,B|345:278|306:322|412:325,1,136.159995429199,8|8,0:1|3:1,0:0:0:0:
465,268,42560,1,10,0:0:0:0:
386,214,42774,1,0,3:0:0:0:
386,214,42881,1,0,0:0:0:0:
386,214,42988,6,0,P|396:163|417:107,1,106.560002601563,14|0,0:1|0:0,0:0:0:0:
489,60,43631,2,0,P|439:78|386:88,1,106.560002601563,2|0,0:0|0:0,0:0:0:0:
314,143,44274,2,0,P|261:127|209:118,1,106.560002601563,2|2,0:0|0:0,0:0:0:0:
123,111,44917,5,2,0:0:0:0:
123,111,45131,2,0,L|186:95,1,53.2800013007813,2|2,0:0|0:0,0:0:0:0:
301,36,45560,5,14,0:0:0:0:
332,166,45774,1,10,0:3:0:0:
343,161,46203,6,0,P|324:234|306:315,1,150.960000921387,14|8,0:1|0:1,0:0:0:0:
206,359,46846,2,0,P|162:299|196:224,1,150.960000921387,10|10,0:0|0:1,0:0:0:0:
113,172,47488,2,0,P|76:179|32:187,1,75.4800004606934,8|10,0:1|0:0,0:0:0:0:
111,82,47917,6,0,B|199:89|169:137|252:140,1,150.960000921387,2|10,0:0|0:1,0:0:0:0:
347,88,48560,2,0,P|352:49|366:4,1,75.4800004606934,10|2,0:0|0:0,0:0:0:0:
440,120,48988,2,0,P|450:156|454:193,1,75.4800004606934,8|10,0:1|0:1,0:0:0:0:
380,248,49417,1,8,0:0:0:0:
494,311,49631,6,0,P|437:356|360:343,1,150.960000921387,14|8,0:1|0:1,0:0:0:0:
230,268,50274,2,0,P|302:258|390:246,1,150.960000921387,10|10,0:0|0:1,0:0:0:0:
480,169,50917,2,0,P|431:160|379:149,1,75.4800004606934,8|10,0:1|0:0,0:0:0:0:
336,87,51346,1,2,0:0:0:0:
437,46,51560,6,0,P|400:49|352:67,1,75.4800004606934,8|10,0:1|0:1,0:0:0:0:
271,138,51988,2,0,P|234:135|186:117,1,75.4800004606934,10|2,0:0|0:0,0:0:0:0:
109,45,52417,2,0,P|145:40|185:32,1,75.4800004606934,8|10,0:1|0:1,0:0:0:0:
35,102,52846,2,0,P|30:66|22:26,1,75.4800004606934,8|2,0:0|0:0,0:0:0:0:
118,173,53274,6,0,L|74:328,2,150.960000921387,12|8|8,0:1|0:0|0:1,0:0:0:0:
197,123,54346,1,8,0:1:0:0:
274,186,54560,2,0,L|352:172,1,75.4800004606934,10|2,0:0|0:0,0:0:0:0:
453,132,54988,6,0,P|443:167|433:211,1,75.4800004606934,8|10,0:1|0:1,0:0:0:0:
359,305,55417,2,0,P|323:238|353:167,1,150.960000921387,8|8,0:0|0:1,0:0:0:0:
429,121,56060,1,8,0:1:0:0:
342,47,56274,2,0,L|247:58,1,75.4800004606934,10|2,0:0|0:0,0:0:0:0:
148,112,56703,6,0,P|142:74|126:24,1,75.4800004606934,12|2,0:1|0:0,0:0:0:0:
228,137,57131,2,0,P|203:202|178:284,1,150.960000921387,8|8,0:0|0:1,0:0:0:0:
93,205,57774,2,0,P|51:193|7:180,1,75.4800004606934,8|8,0:1|0:0,0:0:0:0:
72,319,58203,2,0,L|236:294,1,150.960000921387,2|10,0:0|0:1,0:0:0:0:
313,230,58846,5,10,0:0:0:0:
308,244,59060,1,2,0:0:0:0:
326,360,59274,5,8,0:0:0:0:
412,270,59488,1,10,0:1:0:0:
313,230,59703,1,8,0:3:0:0:
442,171,59917,6,0,P|374:129|287:143,1,150.960000921387,14|8,0:1|0:1,0:0:0:0:
217,49,60560,2,0,P|253:44|292:33,1,75.4800004606934,10|0,0:0|0:0,0:0:0:0:
141,122,60988,2,0,P|136:85|125:47,1,75.4800004606934,10|8,0:1|0:1,0:0:0:0:
227,129,61417,1,10,0:0:0:0:
161,210,61631,6,0,P|168:288|173:368,1,150.960000921387,2|10,0:0|0:1,0:0:0:0:
270,278,62274,1,10,0:0:0:0:
345,339,62488,2,0,P|365:305|362:259,1,75.4800004606934,2|8,0:0|0:1,0:0:0:0:
439,156,62917,2,0,P|455:189|459:227,1,75.4800004606934,10|8,0:1|0:0,0:0:0:0:
311,164,63346,6,0,L|463:142,1,150.960000921387,14|8,0:1|0:1,0:0:0:0:
508,40,63988,2,0,B|409:21|409:21|382:26|386:72,1,150.960000921387,10|10,0:0|0:1,0:0:0:0:
318,151,64631,1,8,0:1:0:0:
318,151,64846,2,0,L|399:137,1,75.4800004606934,10|0,0:0|0:0,0:0:0:0:
254,90,65274,6,0,P|230:119|228:163,1,75.4800004606934,8|10,0:1|0:1,0:0:0:0:
332,238,65703,2,0,P|356:209|358:165,1,75.4800004606934,10|0,0:0|0:0,0:0:0:0:
243,256,66131,2,0,L|256:356,1,75.4800004606934,8|10,0:1|0:1,0:0:0:0:
141,225,66560,2,0,L|154:125,1,75.4800004606934,8|2,0:0|0:0,0:0:0:0:
21,266,66988,6,0,P|77:319|148:308,1,150.960000921387,12|8,0:1|0:0,0:0:0:0:
243,256,67631,1,0,0:0:0:0:
320,304,67846,2,0,P|308:338|291:395,1,75.4800004606934,8|8,0:1|0:1,0:0:0:0:
405,295,68274,2,0,P|439:307|496:324,1,75.4800004606934,10|2,0:0|0:0,0:0:0:0:
392,212,68703,6,0,P|404:178|421:121,1,75.4800004606934,8|10,0:1|0:1,0:0:0:0:
329,25,69131,2,0,P|285:78|297:154,1,150.960000921387,8|8,0:0|0:1,0:0:0:0:
211,226,69774,1,8,0:1:0:0:
218,220,69988,2,0,P|253:227|302:244,1,75.4800004606934,10|2,0:0|0:0,0:0:0:0:
413,317,70417,6,0,B|332:307|348:362|256:352,1,150.960000921387,12|8,0:1|0:0,0:0:0:0:
193,302,71060,1,0,0:0:0:0:
93,356,71274,2,0,P|83:319|90:282,1,75.4800004606934,8|8,0:1|0:1,0:0:0:0:
175,215,71703,1,8,0:0:0:0:
38,179,71917,6,0,P|101:192|199:213,1,150.960000921387,2|10,0:0|0:1,0:0:0:0:
276,141,72560,2,0,P|237:132|190:120,1,75.4800004606934,10|10,0:0|0:1,0:0:0:0:
128,37,72988,1,8,0:0:0:0:
199,99,73203,1,10,0:1:0:0:
292,34,73417,1,8,0:0:0:0:
377,119,73631,6,0,P|432:137|520:93,1,150.960000921387,14|10,0:1|0:1,0:0:0:0:
417,226,74274,2,0,P|335:236|257:253,1,150.960000921387,8|8,0:0|0:1,0:0:0:0:
181,300,74917,2,0,P|169:266|177:216,1,75.4800004606934,8|8,0:1|0:0,0:0:0:0:
246,354,75346,6,0,L|74:330,1,150.960000921387,12|0,0:1|0:0,0:0:0:0:
15,278,75988,1,8,0:0:0:0:
101,193,76203,2,0,B|125:150|125:150|98:52,1,150.960000921387,8|8,0:1|0:1,0:0:0:0:
3,115,76846,2,0,L|94:126,1,75.4800004606934,10|2,0:3|0:0,0:0:0:0:
179,211,77274,6,0,B|294:240|262:160|381:191,1,204.239993143799,14|0,0:1|0:0,0:0:0:0:
376,190,78131,2,0,P|343:132|381:63,1,136.159995429199,0|2,0:0|0:0,0:0:0:0:
435,129,78774,6,0,L|404:274,1,136.159995429199,2|2,0:0|0:0,0:0:0:0:
413,272,79417,2,0,P|448:266|493:260,1,68.0799977145997,2|2,0:0|0:0,0:0:0:0:
360,355,79846,5,8,0:0:0:0:
360,355,80060,1,0,0:0:0:0:
284,280,80274,1,8,0:0:0:0:
197,355,80488,6,0,P|180:301|189:227,1,121.360001851807,10|0,0:1|3:0,0:0:0:0:
225,148,81131,2,0,P|159:162|98:174,1,121.360001851807,10|2,0:0|3:0,0:0:0:0:
37,102,81774,1,10,0:1:0:0:
105,50,81988,2,0,P|134:55|176:70,1,60.6800009259033,8|2,0:0|3:0,0:0:0:0:
225,148,82417,5,8,0:1:0:0:
313,187,82631,1,10,0:1:0:0:
389,126,82846,1,10,0:0:0:0:
295,66,83060,6,0,L|315:201,1,121.360001851807,8|10,0:1|0:1,0:0:0:0:
373,262,83703,2,0,P|403:273|438:279,1,60.6800009259033,10|0,0:0|3:0,0:0:0:0:
316,333,84131,6,0,P|256:340|194:361,1,121.360001851807,10|10,0:1|0:0,0:0:0:0:
122,318,84774,2,0,P|117:288|102:242,1,60.6800009259033,0|2,0:0|3:0,0:0:0:0:
218,197,85203,1,10,0:1:0:0:
213,191,85417,2,0,L|195:260,1,60.6800009259033,8|2,0:0|3:0,0:0:0:0:
111,177,85846,5,10,0:1:0:0:
186,116,86060,1,8,0:1:0:0:
125,39,86274,2,0,L|58:52,1,60.6800009259033,10|8,0:0|0:1,0:0:0:0:
12,132,86703,1,8,0:0:0:0:
111,177,86917,5,10,3:1:0:0:
31,252,87131,1,10,0:0:0:0:
79,325,87346,2,0,L|63:397,1,60.6800009259033,10|0,0:0|0:0,0:0:0:0:
