osu file format v14

[General]
AudioFilename: audio.mp3
AudioLeadIn: 0
PreviewTime: 46096
Countdown: 0
SampleSet: Soft
StackLeniency: 0.7
Mode: 0
LetterboxInBreaks: 0
WidescreenStoryboard: 0

[Editor]
DistanceSpacing: 1.2
BeatDivisor: 4
GridSize: 4
TimelineZoom: 1

[Metadata]
Title:Passcode 4854 -TV edit-
TitleUnicode:パスコード4854 -TV edit-
Artist:Yasuda Rei
ArtistUnicode:安田レイ
Creator:Sotarks
Version:Insane
Source:金田一少年の事件簿R
Tags:Ending Kindaichi Shounen no Jikenbo R Returns リターンズ File of Young akitoshi corinn kalibe
BeatmapID:1561394
BeatmapSetID:740068

[Difficulty]
HPDrainRate:5
CircleSize:3.8
OverallDifficulty:8.2
ApproachRate:8.2
SliderMultiplier:1.62
SliderTickRate:1

[Events]
//Background and Video events
0,0,"BG.jpg",0,0
Video,0,"video.avi"
//Break Periods
//Storyboard Layer 0 (Background)
//Storyboard Layer 1 (Fail)
//Storyboard Layer 2 (Pass)
//Storyboard Layer 3 (Foreground)
//Storyboard Sound Samples

[TimingPoints]
1846,428.571428571429,4,2,22,32,1,0
1846,-161.290322580645,4,2,22,32,0,0
5274,-121.951219512195,4,2,22,42,0,0
8703,-108.695652173913,4,2,22,42,0,0
42988,-192.307692307692,4,2,22,42,0,0
45560,-192.307692307692,4,2,22,42,0,0
46203,-75.7575757575758,4,2,22,62,0,1
46631,-89.2857142857143,4,2,22,62,0,1
49631,-75.7575757575758,4,2,22,62,0,1
50060,-89.2857142857143,4,2,22,62,0,1
59917,-75.7575757575758,4,2,22,62,0,1
60346,-89.2857142857143,4,2,22,62,0,1
63346,-75.7575757575758,4,2,22,62,0,1
63774,-89.2857142857143,4,2,22,62,0,1
73631,-75.7575757575758,4,2,22,62,0,1
74060,-89.2857142857143,4,2,22,62,0,1
75346,-75.7575757575758,4,2,22,62,0,1
75774,-89.2857142857143,4,2,22,62,0,1
77274,-192.307692307692,4,2,22,52,0,0
79846,-98.0392156862745,4,2,22,52,0,0
80488,-121.951219512195,4,2,22,42,0,0
86274,-121.951219512195,4,2,22,52,0,0
86917,-121.951219512195,4,2,22,62,0,0

[Colours]
Combo1 : 233,218,171
Combo2 : 155,142,85
Combo3 : 137,116,103
Combo4 : 149,102,102

[HitObjects]
233,37,1846,6,0,P|251:90|252:100,1,50.2199980076295,2|0,0:0|0:0,0:0:0:0:
338,106,2274,2,0,P|313:156|306:163,1,50.2199980076295,2|0,0:0|0:0,0:0:0:0:
223,165,2703,1,2,0:0:0:0:
321,231,2917,2,0,P|268:248|258:249,1,50.2199980076295,2|0,0:0|0:0,0:0:0:0:
176,182,3346,6,0,P|229:164|238:163,1,50.2199980076295,2|0,0:0|0:0,0:0:0:0:
240,80,3774,1,2,0:0:0:0:
240,80,3988,2,0,P|290:104|297:111,1,50.2199980076295,2|0,0:0|0:0,0:0:0:0:
357,53,4417,1,2,0:0:0:0:
357,53,4631,2,0,P|374:105|375:115,1,50.2199980076295,2|0,0:0|0:0,0:0:0:0:
326,183,5060,1,2,0:0:0:0:
473,132,5274,5,10,0:1:0:0:
416,220,5488,1,2,3:2:0:0:
373,100,5703,2,0,P|331:90|299:91,1,66.4200010134888,10|0,0:2|0:0,0:0:0:0:
326,183,6131,1,2,3:2:0:0:
227,98,6346,1,8,0:1:0:0:
188,249,6560,1,10,0:2:0:0:
245,182,6774,1,0,3:0:0:0:
110,215,6988,5,10,0:1:0:0:
264,288,7203,1,8,3:1:0:0:
168,159,7417,1,10,0:0:0:0:
81,296,7631,2,0,L|0:309,1,66.4200010134888,10|0,0:1|3:0,0:0:0:0:
110,215,8060,1,10,0:1:0:0:
186,355,8274,2,0,L|267:368,1,66.4200010134888,10|0,0:0|3:0,0:0:0:0:
371,312,8703,1,10,0:1:0:0:
371,312,9131,6,0,B|356:229|400:262|379:161,1,149.039994996826,10|2,0:0|3:0,0:0:0:0:
434,81,9774,2,0,P|386:65|354:73,1,74.5199974984132,10|8,0:3|0:0,0:0:0:0:
294,129,10203,1,2,3:0:0:0:
380,166,10417,1,8,0:1:0:0:
363,69,10631,1,10,0:1:0:0:
232,182,10846,1,8,0:0:0:0:
99,78,11060,2,0,P|68:132|67:168,1,74.5199974984132,10|0,0:1|3:0,0:0:0:0:
0,205,11488,2,0,P|16:265|41:291,1,74.5199974984132,10|8,0:1|0:0,0:0:0:0:
113,312,11917,1,2,3:0:0:0:
194,250,12131,1,8,0:1:0:0:
194,250,12560,6,0,P|252:240|283:249,1,74.5199974984132,10|2,0:0|0:0,0:0:0:0:
340,300,12988,1,2,3:0:0:0:
334,203,13203,2,0,P|344:156|366:127,1,74.5199974984132,10|8,0:3|0:0,0:0:0:0:
420,76,13631,1,2,3:0:0:0:
277,102,13846,1,8,0:1:0:0:
434,163,14060,1,10,0:1:0:0:
221,163,14274,1,8,0:0:0:0:
358,134,14488,1,10,0:1:0:0:
269,247,14703,1,0,3:0:0:0:
277,102,14917,1,10,3:1:0:0:
312,313,15131,1,8,0:0:0:0:
221,163,15346,1,2,3:0:0:0:
199,308,15560,1,8,0:1:0:0:
199,308,15988,6,0,P|157:315|105:297,1,74.5199974984132,10|2,0:0|0:0,0:0:0:0:
52,260,16417,1,2,3:0:0:0:
104,187,16631,2,0,P|110:136|98:94,1,74.5199974984132,10|8,0:3|0:0,0:0:0:0:
52,45,17060,2,0,P|101:26|129:27,1,74.5199974984132,2|8,3:0|0:1,0:0:0:0:
205,82,17488,2,0,P|241:79|275:63,1,74.5199974984132,10|8,0:1|0:0,0:0:0:0:
368,12,17917,2,0,L|354:105,1,74.5199974984132,10|0,0:1|3:0,0:0:0:0:
431,142,18346,2,0,L|442:215,1,74.5199974984132,10|8,0:1|0:0,0:0:0:0:
395,298,18774,1,2,3:0:0:0:
316,249,18988,6,0,B|232:250|267:303|167:302,1,149.039994996826,10|10,0:1|0:0,0:0:0:0:
88,266,19631,2,0,P|66:215|71:180,1,74.5199974984132,2|0,0:0|3:0,0:0:0:0:
88,110,20060,1,8,0:3:0:0:
179,217,20274,2,0,P|181:180|200:148,1,74.5199974984132,8|0,0:0|3:0,0:0:0:0:
267,88,20703,1,8,0:1:0:0:
269,209,20917,1,8,0:1:0:0:
182,74,21131,1,8,0:0:0:0:
349,99,21346,1,8,0:1:0:0:
256,128,21560,1,2,3:0:0:0:
325,19,21774,1,10,0:1:0:0:
371,177,21988,2,0,P|372:233|368:277,1,74.5199974984132,8|0,0:0|3:0,0:0:0:0:
324,333,22417,1,8,0:1:0:0:
324,333,22846,6,0,B|237:314|259:369|158:334,1,149.039994996826,10|2,0:0|3:0,0:0:0:0:
117,273,23488,1,10,0:3:0:0:
210,253,23703,1,8,0:0:0:0:
139,188,23917,2,0,P|112:153|105:105,1,74.5199974984132,2|8,3:0|0:1,0:0:0:0:
226,61,24346,2,0,P|199:96|192:144,1,74.5199974984132,10|8,0:1|0:0,0:0:0:0:
311,196,24774,2,0,P|286:155|279:107,2,74.5199974984132,10|0|10,0:1|3:0|0:1,0:0:0:0:
367,127,25417,1,8,0:0:0:0:
407,211,25631,1,2,3:0:0:0:
456,59,25846,1,8,0:1:0:0:
367,127,26060,5,2,0:0:0:0:
407,211,26274,2,0,B|425:296|376:280|398:376,1,149.039994996826,10|2,0:0|3:0,0:0:0:0:
475,323,26917,1,10,0:3:0:0:
327,244,27131,1,8,0:0:0:0:
394,356,27346,1,2,3:0:0:0:
403,204,27560,1,8,0:1:0:0:
308,325,27774,1,10,0:1:0:0:
318,164,27988,1,8,0:0:0:0:
394,312,28203,1,10,0:1:0:0:
391,118,28417,1,0,3:0:0:0:
315,298,28631,1,10,3:1:0:0:
279,97,28846,1,8,0:0:0:0:
387,217,29060,2,0,P|426:213|490:197,1,74.5199974984132,2|8,3:0|0:1,0:0:0:0:
374,127,29488,5,2,0:0:0:0:
274,222,29703,2,0,P|235:218|171:202,1,74.5199974984132,10|0,0:0|0:0,0:0:0:0:
137,138,30131,1,2,3:0:0:0:
98,229,30346,2,0,P|101:293|103:308,1,74.5199974984132,10|8,0:3|0:0,0:0:0:0:
8,218,30774,2,0,P|25:175|49:149,1,74.5199974984132,2|8,3:0|0:1,0:0:0:0:
3,81,31203,2,0,P|46:66|82:68,1,74.5199974984132,10|8,0:1|0:0,0:0:0:0:
128,0,31631,2,0,P|167:24|188:52,1,74.5199974984132,10|0,0:1|3:0,0:0:0:0:
266,25,32060,2,0,P|272:70|264:105,1,74.5199974984132,10|8,0:1|0:0,0:0:0:0:
180,137,32488,1,2,3:0:0:0:
275,225,32703,6,0,L|363:217,1,74.5199974984132,10|0,0:1|3:0,0:0:0:0:
425,261,33131,1,10,0:0:0:0:
354,320,33346,2,0,L|266:312,1,74.5199974984132,2|2,0:0|3:0,0:0:0:0:
203,357,33774,1,10,0:3:0:0:
134,307,33988,2,0,L|146:212,1,74.5199974984132,8|2,0:0|3:0,0:0:0:0:
100,150,34417,1,8,0:1:0:0:
201,159,34631,1,8,0:1:0:0:
61,228,34846,1,8,0:0:0:0:
131,73,35060,1,8,0:1:0:0:
201,159,35274,5,2,3:0:0:0:
20,140,35488,1,10,3:1:0:0:
151,34,35703,1,8,0:0:0:0:
100,150,35917,1,2,3:0:0:0:
273,90,36131,6,0,P|301:54|312:15,2,74.5199974984132,8|0|8,0:1|3:0|0:0,0:0:0:0:
201,159,36774,1,2,0:0:0:0:
280,209,36988,1,0,3:0:0:0:
218,278,37203,1,10,0:3:0:0:
324,360,37417,1,8,0:0:0:0:
231,377,37631,2,0,P|183:375|143:362,2,74.5199974984132,2|8|10,3:0|0:1|0:1,0:0:0:0:
387,300,38274,1,8,0:0:0:0:
307,247,38488,2,0,P|279:193|282:154,1,74.5199974984132,10|0,0:1|3:0,0:0:0:0:
346,113,38917,2,0,P|374:167|371:206,1,74.5199974984132,10|8,0:1|0:0,0:0:0:0:
278,180,39346,1,2,3:0:0:0:
218,251,39560,6,0,L|126:244,1,74.5199974984132,8|0,0:1|3:0,0:0:0:0:
36,191,39988,1,10,0:0:0:0:
104,304,40203,2,0,L|120:123,1,149.039994996826,2|8,0:0|0:3,0:0:0:0:
217,75,40846,2,0,L|230:173,1,74.5199974984132,8|0,0:0|3:0,0:0:0:0:
191,285,41274,1,8,0:1:0:0:
275,233,41488,1,8,0:1:0:0:
344,347,41703,2,0,L|426:333,1,74.5199974984132,8|8,0:0|0:1,0:0:0:0:
470,248,42131,2,0,L|388:234,1,74.5199974984132,2|8,3:0|3:1,0:0:0:0:
335,144,42560,2,0,L|417:130,1,74.5199974984132,10|0,0:0|3:0,0:0:0:0:
412,40,42988,6,0,P|464:56|500:130,2,126.35999922876,14|2|2,0:1|0:0|0:0,0:0:0:0:
189,166,44703,1,2,0:0:0:0:
235,101,44917,1,2,0:0:0:0:
279,169,45131,1,2,0:0:0:0:
189,166,45346,1,2,0:0:0:0:
279,35,45560,5,14,0:0:0:0:
144,234,45774,1,10,0:3:0:0:
144,234,46203,6,0,B|271:208|228:293|360:264,1,213.839999347412,14|8,0:1|0:1,0:0:0:0:
481,223,46846,2,0,P|427:207|389:173,1,90.7200011074219,10|0,0:0|0:0,0:0:0:0:
277,103,47274,2,0,P|304:168|308:211,1,90.7200011074219,10|8,0:1|0:1,0:0:0:0:
382,98,47703,1,10,0:0:0:0:
348,266,47917,2,0,P|283:277|236:259,1,90.7200011074219,2|8,0:0|0:1,0:0:0:0:
174,212,48346,1,10,0:1:0:0:
307,187,48560,1,10,0:0:0:0:
166,127,48774,2,0,P|165:59|177:23,1,90.7200011074219,2|8,0:0|0:1,0:0:0:0:
271,106,49203,1,10,0:1:0:0:
174,213,49417,1,8,0:0:0:0:
382,125,49631,6,0,B|435:239|342:227|407:338,1,213.839999347412,14|8,0:1|0:1,0:0:0:0:
285,364,50274,2,0,P|294:293|280:248,1,90.7200011074219,10|0,0:0|0:0,0:0:0:0:
179,124,50703,2,0,P|170:195|184:240,1,90.7200011074219,10|8,0:1|0:1,0:0:0:0:
212,313,51131,1,10,0:0:0:0:
281,173,51346,2,0,P|350:155|389:156,1,90.7200011074219,2|8,0:0|0:1,0:0:0:0:
450,211,51774,1,10,0:1:0:0:
322,306,51988,1,10,0:0:0:0:
369,154,52203,2,0,P|360:93|343:50,1,90.7200011074219,2|8,0:0|0:1,0:0:0:0:
246,243,52631,2,0,P|232:286|227:331,1,90.7200011074219,10|8,0:1|0:0,0:0:0:0:
166,157,53060,1,2,0:0:0:0:
142,298,53274,5,12,0:1:0:0:
273,166,53488,1,2,0:0:0:0:
310,306,53703,2,0,P|385:298|415:269,1,90.7200011074219,8|0,0:0|0:0,0:0:0:0:
446,134,54131,2,0,P|371:142|341:171,1,90.7200011074219,8|8,0:1|0:1,0:0:0:0:
478,291,54560,1,10,0:0:0:0:
417,213,54774,1,2,0:0:0:0:
378,364,54988,1,8,0:1:0:0:
338,224,55203,1,10,0:1:0:0:
252,361,55417,2,0,P|189:347|148:300,1,90.7200011074219,8|0,0:0|0:0,0:0:0:0:
164,165,55846,2,0,P|227:179|263:228,1,90.7200011074219,8|8,0:1|0:1,0:0:0:0:
76,291,56274,1,10,0:0:0:0:
167,250,56488,1,2,0:0:0:0:
9,213,56703,5,12,0:1:0:0:
98,204,56917,1,2,0:0:0:0:
64,331,57131,2,0,L|39:117,1,181.440002214844,8|8,0:0|0:1,0:0:0:0:
112,76,57774,1,8,0:1:0:0:
200,212,57988,1,8,0:0:0:0:
124,180,58203,1,2,0:0:0:0:
248,136,58417,1,8,0:1:0:0:
200,248,58631,1,10,0:1:0:0:
128,88,58846,5,10,0:0:0:0:
164,174,59060,1,2,0:0:0:0:
41,83,59274,1,8,0:0:0:0:
214,91,59488,1,10,0:1:0:0:
121,240,59703,1,8,0:3:0:0:
126,58,59917,6,0,B|245:20|215:103|337:60,1,213.839999347412,14|8,0:1|0:1,0:0:0:0:
450,111,60560,2,0,P|380:142|355:174,1,90.7200011074219,10|0,0:0|0:0,0:0:0:0:
302,277,60988,2,0,P|372:246|397:214,1,90.7200011074219,10|8,0:1|0:1,0:0:0:0:
331,356,61417,1,10,0:0:0:0:
235,220,61631,2,0,P|174:199|129:202,1,90.7200011074219,2|8,0:0|0:1,0:0:0:0:
226,129,62060,1,10,0:1:0:0:
247,301,62274,1,10,0:0:0:0:
148,198,62488,2,0,P|123:148|133:77,1,90.7200011074219,2|8,0:0|0:1,0:0:0:0:
199,44,62917,2,0,P|221:83|225:128,1,90.7200011074219,10|8,0:1|0:0,0:0:0:0:
48,237,63346,6,0,B|159:203|146:286|262:246,1,213.839999347412,14|8,0:1|0:1,0:0:0:0:
399,292,63988,2,0,P|345:256|327:213,1,90.7200011074219,10|0,0:0|0:0,0:0:0:0:
304,105,64417,2,0,P|343:125|370:162,1,90.7200011074219,10|8,0:1|0:1,0:0:0:0:
327,28,64846,1,10,0:0:0:0:
227,151,65060,2,0,P|156:140|128:110,1,90.7200011074219,2|8,0:0|0:1,0:0:0:0:
206,67,65488,1,10,0:1:0:0:
254,234,65703,1,10,0:0:0:0:
304,105,65917,2,0,P|343:83|387:83,1,90.7200011074219,2|8,0:0|0:1,0:0:0:0:
452,188,66346,2,0,P|407:188|368:166,1,90.7200011074219,10|8,0:1|0:0,0:0:0:0:
479,106,66774,1,2,0:0:0:0:
497,268,66988,5,12,0:1:0:0:
452,188,67203,1,2,0:0:0:0:
374,324,67417,2,0,L|276:308,1,90.7200011074219,8|0,0:0|0:0,0:0:0:0:
162,225,67846,2,0,L|251:210,1,90.7200011074219,8|8,0:1|0:1,0:0:0:0:
133,312,68274,1,10,0:0:0:0:
84,189,68488,1,2,0:0:0:0:
55,322,68703,1,8,0:1:0:0:
162,225,68917,1,10,0:1:0:0:
19,239,69131,2,0,P|-1:187|20:138,1,90.7200011074219,8|0,0:0|0:0,0:0:0:0:
150,140,69560,2,0,P|170:192|149:241,1,90.7200011074219,8|8,0:1|0:1,0:0:0:0:
140,53,69988,1,10,0:0:0:0:
7,154,70203,1,2,0:0:0:0:
150,140,70417,5,12,0:1:0:0:
46,86,70631,1,2,0:0:0:0:
131,234,70846,2,0,L|140:42,1,181.440002214844,8|8,0:0|0:1,0:0:0:0:
228,20,71488,1,8,0:1:0:0:
280,162,71703,1,8,0:0:0:0:
214,102,71917,1,2,0:0:0:0:
352,113,72131,5,8,0:1:0:0:
210,210,72346,1,10,0:1:0:0:
400,178,72560,1,10,0:0:0:0:
280,162,72774,1,10,0:1:0:0:
454,240,72988,5,8,0:0:0:0:
352,113,73203,1,10,0:1:0:0:
371,266,73417,1,8,0:0:0:0:
404,35,73631,6,0,B|284:-1|317:89|194:57,1,213.839999347412,14|10,0:1|0:1,0:0:0:0:
27,179,74274,2,0,B|56:159|96:168|96:168|129:230|193:225,1,181.440002214844,8|8,0:0|0:1,0:0:0:0:
277,182,74917,1,8,0:1:0:0:
180,137,75131,1,8,0:0:0:0:
448,171,75346,6,0,B|324:188|401:266|257:276,1,213.839999347412,12|0,0:1|0:0,0:0:0:0:
112,201,75988,1,8,0:0:0:0:
277,182,76203,1,8,0:1:0:0:
138,295,76417,1,8,0:0:0:0:
180,122,76631,1,8,0:1:0:0:
271,274,76846,1,10,0:3:0:0:
112,201,77060,1,2,0:0:0:0:
277,90,77274,6,0,B|301:359,1,252.71999845752,14|2,0:1|0:0,0:0:0:0:
215,281,78774,2,0,L|121:272,1,84.2399994858398,2|2,0:0|0:0,0:0:0:0:
83,353,79417,2,0,L|32:358,1,42.1199997429199,2|2,0:0|0:0,0:0:0:0:
164,197,79846,5,8,0:0:0:0:
74,175,80060,1,2,3:0:0:0:
161,361,80274,1,8,0:0:0:0:
140,111,80488,6,0,B|219:95|195:145|283:127,1,132.840002026978,10|0,0:1|3:0,0:0:0:0:
390,87,81131,2,0,P|372:146|377:229,1,132.840002026978,10|2,0:0|3:0,0:0:0:0:
417,305,81774,2,0,P|370:310|333:330,1,66.4200010134888,10|8,0:1|0:0,0:0:0:0:
270,256,82203,2,0,P|236:254|205:243,1,66.4200010134888,2|8,3:0|0:1,0:0:0:0:
113,271,82631,1,10,0:1:0:0:
37,135,82846,1,10,0:0:0:0:
119,172,83060,2,0,P|152:170|183:159,1,66.4200010134888,8|0,0:1|3:0,0:0:0:0:
253,97,83488,1,10,0:1:0:0:
361,211,83703,2,0,P|392:221|425:223,1,66.4200010134888,10|0,0:0|3:0,0:0:0:0:
502,147,84131,6,0,L|514:300,2,132.840002026978,10|10|2,0:1|0:0|3:0,0:0:0:0:
446,76,85203,1,10,0:1:0:0:
349,204,85417,2,0,L|271:186,1,66.4200010134888,8|2,0:0|3:0,0:0:0:0:
149,140,85846,5,10,0:1:0:0:
283,99,86060,1,8,0:1:0:0:
68,110,86274,1,10,0:0:0:0:
284,189,86488,1,8,0:1:0:0:
19,191,86703,1,8,0:0:0:0:
363,128,86917,5,10,3:1:0:0:
25,28,87131,1,10,0:0:0:0:
173,317,87346,1,10,0:0:0:0:
