osu file format v14

[General]
AudioFilename: audio.mp3
AudioLeadIn: 0
PreviewTime: 46096
Countdown: 0
SampleSet: Soft
StackLeniency: 0.7
Mode: 0
LetterboxInBreaks: 0
WidescreenStoryboard: 0

[Editor]
DistanceSpacing: 1
BeatDivisor: 4
GridSize: 4
TimelineZoom: 1

[Metadata]
Title:Passcode 4854 -TV edit-
TitleUnicode:パスコード4854 -TV edit-
Artist:Yasuda Rei
ArtistUnicode:安田レイ
Creator:Sotarks
Version:Akitoshi's Normal
Source:金田一少年の事件簿R
Tags:Ending Kindaichi Shounen no Jikenbo R Returns リターンズ File of Young akitoshi corinn kalibe
BeatmapID:1561393
BeatmapSetID:740068

[Difficulty]
HPDrainRate:4
CircleSize:3.3
OverallDifficulty:4
ApproachRate:5
SliderMultiplier:1.05
SliderTickRate:1

[Events]
//Background and Video events
0,0,"BG.jpg",0,0
Video,0,"video.avi"
//Break Periods
2,77474,78646
//Storyboard Layer 0 (Background)
//Storyboard Layer 1 (Fail)
//Storyboard Layer 2 (Pass)
//Storyboard Layer 3 (Foreground)
//Storyboard Sound Samples

[TimingPoints]
1846,428.571428571429,4,2,22,32,1,0
1846,-111.111111111111,4,2,22,32,0,0
5274,-100,4,2,22,42,0,0
42988,-100,4,2,22,42,0,0
45560,-100,4,2,22,42,0,0
46203,-95.2380952380952,4,2,22,62,0,1
77274,-100,4,2,22,52,0,0
80488,-100,4,2,22,42,0,0
86917,-100,4,2,22,62,0,0

[Colours]
Combo1 : 233,218,171
Combo2 : 155,142,85
Combo3 : 137,116,103
Combo4 : 149,102,102

[HitObjects]
409,138,1846,6,0,P|453:132|512:149,2,94.499997116089,2|2|0,0:0|0:0|0:0,0:0:0:0:
370,165,2917,1,2,0:0:0:0:
294,221,3346,2,0,P|220:216|139:211,1,141.749995674133,2|2,0:0|0:0,0:0:0:0:
62,236,4417,1,2,0:0:0:0:
62,236,4631,2,0,P|52:283|65:338,1,94.4999971160889,2|2,0:0|0:0,0:0:0:0:
95,367,5274,5,10,0:1:0:0:
200,371,5703,1,10,0:2:0:0:
294,324,6131,2,0,L|352:328,2,52.5,2|8|10,3:2|0:1|0:2,0:0:0:0:
209,261,6988,2,0,L|151:265,1,52.5,10|8,0:1|3:1,0:0:0:0:
108,271,7417,1,10,0:0:0:0:
108,271,7631,2,0,P|94:218|110:153,1,105,10|10,0:1|0:1,0:0:0:0:
127,123,8274,1,10,0:0:0:0:
220,75,8703,6,0,L|348:84,1,105,10|10,0:1|0:0,0:0:0:0:
406,148,9560,2,0,L|469:143,2,52.5,2|10|8,3:0|0:3|0:0,0:0:0:0:
363,179,10203,2,0,P|349:237|368:292,1,105,2|10,3:0|0:1,0:0:0:0:
382,333,10846,1,8,0:0:0:0:
382,333,11060,2,0,P|324:319|269:338,1,105,10|10,0:1|0:1,0:0:0:0:
237,359,11703,1,8,0:0:0:0:
140,317,12131,6,0,L|143:203,1,105,8|10,0:1|0:0,0:0:0:0:
209,131,12988,2,0,L|207:74,2,52.5,2|10|8,3:0|0:3|0:0,0:0:0:0:
241,172,13631,2,0,P|292:188|359:180,1,105,2|10,3:0|0:1,0:0:0:0:
397,172,14274,1,8,0:0:0:0:
397,172,14488,2,0,L|394:60,1,105,10|10,0:1|3:1,0:0:0:0:
395,14,15131,1,8,0:0:0:0:
291,33,15560,6,0,P|232:37|172:42,1,105,8|10,0:1|0:0,0:0:0:0:
99,100,16417,2,0,L|33:97,2,52.5,2|10|8,3:0|0:3|0:0,0:0:0:0:
138,134,17060,2,0,P|150:180|140:246,1,105,2|10,3:0|0:1,0:0:0:0:
127,289,17703,1,8,0:0:0:0:
127,289,17917,2,0,P|173:277|239:287,1,105,10|10,0:1|0:1,0:0:0:0:
278,302,18560,1,8,0:0:0:0:
371,348,18988,6,0,L|374:234,1,105,10|10,0:1|0:0,0:0:0:0:
406,203,19631,1,2,0:0:0:0:
406,203,19846,2,0,L|403:89,1,105,0|8,3:0|0:0,0:0:0:0:
321,32,20703,2,0,L|251:35,1,52.5,8|8,0:1|0:1,0:0:0:0:
226,65,21131,2,0,L|156:62,1,52.5,8|8,0:0|0:1,0:0:0:0:
122,51,21560,2,0,B|99:83|99:83|109:156,1,105,2|8,3:0|0:0,0:0:0:0:
121,252,22417,5,8,0:1:0:0:
226,256,22846,1,10,0:0:0:0:
310,193,23274,2,0,L|304:124,2,52.5,2|10|8,3:0|0:3|0:0,0:0:0:0:
333,239,23917,2,0,P|391:227|446:240,1,105,2|10,3:0|0:1,0:0:0:0:
483,257,24560,1,8,0:0:0:0:
483,257,24774,2,0,L|477:143,1,105,10|10,0:1|0:1,0:0:0:0:
475,99,25417,1,8,0:0:0:0:
384,46,25846,6,0,P|367:103|384:159,1,105,8|10,0:1|0:0,0:0:0:0:
435,235,26703,2,0,L|506:231,2,52.5,2|10|8,3:0|0:3|0:0,0:0:0:0:
389,260,27346,2,0,P|332:257|262:254,1,105,2|10,3:0|0:1,0:0:0:0:
236,255,27988,1,8,0:0:0:0:
236,255,28203,2,0,P|223:206|241:138,1,105,10|10,0:1|3:1,0:0:0:0:
259,108,28846,1,8,0:0:0:0:
221,10,29274,6,0,P|167:12|100:15,1,105,8|10,0:1|0:0,0:0:0:0:
56,101,30131,2,0,P|29:100|-4:98,2,52.5,2|10|8,3:0|0:3|0:0,0:0:0:0:
93,137,30774,2,0,P|146:157|216:145,1,105,2|10,3:0|0:1,0:0:0:0:
247,140,31417,1,8,0:0:0:0:
247,140,31631,2,0,P|227:193|239:263,1,105,10|10,0:1|0:1,0:0:0:0:
250,288,32274,1,8,0:0:0:0:
331,354,32703,6,0,L|460:341,1,105,10|10,0:1|0:0,0:0:0:0:
485,328,33346,2,0,B|501:257|449:250|472:170,1,157.5,2|8,0:0|0:0,0:0:0:0:
490,71,34417,2,0,L|423:66,1,52.5,8|8,0:1|0:1,0:0:0:0:
387,50,34846,2,0,L|320:55,1,52.5,8|8,0:0|0:1,0:0:0:0:
285,72,35274,2,0,B|248:89|248:89|166:76,1,105,2|8,3:0|0:0,0:0:0:0:
99,16,36131,6,0,P|79:81|90:127,1,105,8|8,0:1|0:0,0:0:0:0:
135,208,36988,2,0,L|128:272,2,52.5,0|10|8,3:0|0:3|0:0,0:0:0:0:
178,178,37631,2,0,P|243:158|289:169,1,105,2|10,3:0|0:1,0:0:0:0:
328,193,38274,1,8,0:0:0:0:
328,193,38488,2,0,L|435:189,1,105,10|10,0:1|0:1,0:0:0:0:
485,189,39131,1,8,0:0:0:0:
512,291,39560,6,0,P|470:306|407:304,1,105,8|10,0:1|0:0,0:0:0:0:
308,278,40417,2,0,L|240:281,2,52.5,2|8|8,3:0|0:3|0:0,0:0:0:0:
382,202,41274,2,0,L|450:205,2,52.5,8|8|8,0:1|0:1|0:0,0:0:0:0:
306,128,42131,1,2,3:0:0:0:
202,107,42560,1,10,0:0:0:0:
105,148,42988,6,0,P|43:141|1:48,2,157.5,14|2|2,0:1|0:0|0:0,0:0:0:0:
202,107,44703,2,0,B|210:148|210:148|203:171|203:171|212:225,1,105,2|2,0:0|0:0,0:0:0:0:
227,317,45560,1,14,0:0:0:0:
227,317,45774,1,10,0:3:0:0:
337,349,46203,6,0,B|374:338|374:338|454:346,1,110.249996635437,14|8,0:1|0:1,0:0:0:0:
500,350,46846,1,10,0:0:0:0:
510,240,47274,2,0,L|502:130,1,110.249996635437,10|10,0:1|0:0,0:0:0:0:
488,76,47917,2,0,P|435:73|373:94,1,110.249996635437,2|10,0:0|0:1,0:0:0:0:
339,126,48560,1,10,0:0:0:0:
339,126,48774,2,0,P|286:109|231:112,1,110.249996635437,2|10,0:0|0:1,0:0:0:0:
184,135,49417,1,8,0:0:0:0:
184,135,49631,6,0,B|142:132|142:132|119:144|119:144|74:140,1,110.249996635437,14|8,0:1|0:1,0:0:0:0:
22,131,50274,1,10,0:0:0:0:
63,28,50703,2,0,P|114:18|183:35,1,110.249996635437,10|10,0:1|0:0,0:0:0:0:
218,56,51346,2,0,P|271:44|325:54,1,110.249996635437,2|10,0:0|0:1,0:0:0:0:
379,82,51988,1,10,0:0:0:0:
379,82,52203,2,0,P|376:147|375:196,1,110.249996635437,2|10,0:0|0:1,0:0:0:0:
333,228,52846,2,0,P|334:260|335:285,1,55.1249983177186,8|2,0:0|0:0,0:0:0:0:
341,337,53274,5,12,0:1:0:0:
236,372,53703,1,8,0:0:0:0:
138,321,54131,2,0,P|139:288|140:264,1,55.1249983177186,8|8,0:1|0:1,0:0:0:0:
145,215,54560,1,10,0:0:0:0:
145,215,54774,2,0,P|190:198|260:206,1,110.249996635437,2|10,0:0|0:1,0:0:0:0:
300,228,55417,1,8,0:0:0:0:
410,227,55846,2,0,L|414:163,1,55.1249983177186,8|8,0:1|0:1,0:0:0:0:
438,122,56274,2,0,L|434:58,1,55.1249983177186,10|2,0:0|0:0,0:0:0:0:
408,18,56703,6,0,B|358:24|358:24|284:31,1,110.249996635437,12|8,0:1|0:0,0:0:0:0:
202,84,57560,2,0,P|177:81|140:77,1,55.1249983177186,8|8,0:1|0:1,0:0:0:0:
97,75,57988,1,8,0:0:0:0:
97,75,58203,2,0,P|80:123|90:187,1,110.249996635437,2|10,0:0|0:1,0:0:0:0:
115,228,58846,1,10,0:0:0:0:
205,291,59274,2,0,L|199:362,2,55.1249983177186,8|10|8,0:0|0:1|0:3,0:0:0:0:
233,243,59917,6,0,B|268:237|268:237|304:257|349:248,1,110.249996635437,14|8,0:1|0:1,0:0:0:0:
395,247,60560,1,10,0:0:0:0:
489,190,60988,2,0,L|479:70,1,110.249996635437,10|10,0:1|0:0,0:0:0:0:
447,35,61631,2,0,P|385:25|326:42,1,110.249996635437,2|10,0:0|0:1,0:0:0:0:
294,64,62274,1,10,0:0:0:0:
294,64,62488,2,0,P|240:53|186:63,1,110.249996635437,2|10,0:0|0:1,0:0:0:0:
149,104,63131,1,8,0:0:0:0:
149,104,63346,6,0,B|142:143|142:143|152:171|152:171|141:227,1,110.249996635437,14|8,0:1|0:1,0:0:0:0:
133,265,63988,1,10,0:0:0:0:
30,305,64417,2,0,L|23:184,1,110.249996635437,10|10,0:1|0:0,0:0:0:0:
20,139,65060,2,0,P|29:83|67:41,1,110.249996635437,2|10,0:0|0:1,0:0:0:0:
117,24,65703,1,10,0:0:0:0:
117,24,65917,2,0,P|163:45|223:40,1,110.249996635437,2|10,0:0|0:1,0:0:0:0:
274,23,66560,2,0,L|332:27,1,55.1249983177186,8|2,0:0|0:0,0:0:0:0:
383,33,66988,5,12,0:1:0:0:
450,120,67417,1,8,0:0:0:0:
409,222,67846,2,0,L|341:224,1,55.1249983177186,8|8,0:1|0:1,0:0:0:0:
305,242,68274,1,10,0:0:0:0:
305,242,68488,2,0,P|252:217|182:223,1,110.249996635437,2|10,0:0|0:1,0:0:0:0:
147,231,69131,1,8,0:0:0:0:
36,227,69560,2,0,L|32:168,1,55.1249983177186,8|8,0:1|0:1,0:0:0:0:
13,120,69988,2,0,L|17:61,1,55.1249983177186,10|2,0:0|0:0,0:0:0:0:
52,22,70417,6,0,B|123:13|123:13|173:32,1,110.249996635437,12|8,0:1|0:0,0:0:0:0:
248,91,71274,2,0,L|242:157,1,55.1249983177186,8|8,0:1|0:1,0:0:0:0:
240,205,71703,1,8,0:0:0:0:
240,205,71917,2,0,P|278:219|356:210,1,110.249996635437,2|10,0:0|0:1,0:0:0:0:
396,190,72560,1,10,0:0:0:0:
453,95,72988,2,0,L|508:98,2,55.1249983177186,8|10|8,0:0|0:1|0:0,0:0:0:0:
403,70,73631,6,0,B|374:55|374:55|294:64,1,110.249996635437,14|10,0:1|0:1,0:0:0:0:
242,74,74274,1,8,0:0:0:0:
154,141,74703,2,0,L|99:138,2,55.1249983177186,8|8|8,0:1|0:1|0:0,0:0:0:0:
201,168,75346,2,0,B|216:197|216:197|207:277,1,110.249996635437,12|0,0:1|0:0,0:0:0:0:
198,328,75988,1,8,0:0:0:0:
306,349,76417,2,0,L|371:352,1,55.1249983177186,8|8,0:0|0:1,0:0:0:0:
410,377,76846,2,0,L|475:374,1,55.1249983177186,10|2,0:3|0:0,0:0:0:0:
506,341,77274,5,14,0:1:0:0:
506,341,79846,6,0,P|503:277|481:237,1,105,8|8,0:0|0:0,0:0:0:0:
437,217,80488,6,0,B|390:233|390:233|270:215,1,157.5,10|10,0:1|0:0,0:0:0:0:
189,168,81560,2,0,P|121:158|75:173,1,105,2|8,3:0|0:0,0:0:0:0:
47,201,82203,1,2,3:0:0:0:
47,201,82417,2,0,L|55:320,2,105,8|8|8,0:1|0:0|0:1,0:0:0:0:
41,96,83703,1,8,0:0:0:0:
124,32,84131,6,0,L|233:40,1,105,8|8,0:1|0:0,0:0:0:0:
321,93,84988,2,0,L|430:85,1,105,2|8,3:0|0:0,0:0:0:0:
480,175,85846,2,0,P|498:214|502:287,1,105,10|10,0:1|0:0,0:0:0:0:
477,320,86488,1,8,0:1:0:0:
477,320,86703,2,0,L|407:315,1,52.5,8|10,0:0|3:1,0:0:0:0:
377,315,87131,1,10,0:0:0:0:
377,315,87346,1,10,0:0:0:0:
