osu file format v14

[General]
AudioFilename: audio.mp3
AudioLeadIn: 0
PreviewTime: 46176
Countdown: 0
SampleSet: Soft
StackLeniency: 0.4
Mode: 0
LetterboxInBreaks: 0
WidescreenStoryboard: 1

[Editor]
DistanceSpacing: 1.1
BeatDivisor: 4
GridSize: 4
TimelineZoom: 1

[Metadata]
Title:Passcode 4854 (TV Size)
TitleUnicode:パスコード4854 (TV Size)
Artist:Yasuda Rei
ArtistUnicode:安田レイ
Creator:Aakki
Version:Hard
Source:金田一少年の事件簿R
Tags:Ending Kindaichi Shounen no Jikenbo R Returns リターンズ File of Young japanese anime pop jpop j-pop kuki1537
BeatmapID:3063098
BeatmapSetID:1494410

[Difficulty]
HPDrainRate:4
CircleSize:3.6
OverallDifficulty:6.4
ApproachRate:7.5
SliderMultiplier:1.4
SliderTickRate:1

[Events]
//Background and Video events
0,0,"BG.jpg",0,0
Video,0,"video.avi"
//Break Periods
//Storyboard Layer 0 (Background)
//Storyboard Layer 1 (Fail)
//Storyboard Layer 2 (Pass)
//Storyboard Layer 3 (Foreground)
//Storyboard Layer 4 (Overlay)
//Storyboard Sound Samples

[TimingPoints]
1846,428.571428571429,4,2,1,30,1,0
1846,-99.9999999999999,4,2,1,30,0,0
5274,-111.111111111111,4,2,1,50,0,0
8703,-111.111111111111,4,2,1,45,0,0
42988,-125,4,2,1,60,0,0
46203,-90.9090909090909,4,2,1,70,0,1
77274,-125,4,2,1,70,0,0
77381,-125,4,2,1,30,0,0
79846,-125,4,2,1,60,0,0
80488,-99.9999999999999,4,2,1,50,0,0
86917,-99.9999999999999,4,2,1,70,0,0

[Colours]
Combo1 : 255,255,128
Combo2 : 87,251,112
Combo3 : 192,192,192

[HitObjects]
21,151,5274,6,0,P|60:142|124:77,1,125.999996154785,2|10,1:2|0:0,0:0:0:0:
258,22,6131,1,2,0:0:0:0:
223,97,6346,1,0,1:0:0:0:
277,162,6560,1,10,0:0:0:0:
364,152,6774,2,0,P|406:137|457:202,1,125.999996154785,2|0,0:0|1:0,0:0:0:0:
470,277,7417,2,0,P|430:278|398:303,1,62.9999980773926,8|2,0:0|1:2,0:0:0:0:
362,354,7846,1,0,0:0:0:0:
285,308,8060,2,0,P|230:297|221:295,2,62.9999980773926,2|10|0,1:2|0:0|0:0,0:0:0:0:
348,251,8703,5,0,1:0:0:0:
275,144,9131,2,0,P|236:137|142:113,1,125.999996154785,10|2,0:0|0:0,0:0:0:0:
76,152,9774,2,0,P|91:187|95:215,1,62.9999980773926,2|8,1:2|0:0,0:0:0:0:
139,288,10203,2,0,P|175:271|248:314,2,125.999996154785,2|2|2,0:0|1:2|1:2,0:0:0:0:
28,359,11488,1,2,1:2:0:0:
28,359,11703,2,0,P|46:320|48:287,1,62.9999980773926,8|2,0:0|0:0,0:0:0:0:
13,227,12131,5,0,1:0:0:0:
168,133,12560,2,0,P|136:122|105:119,1,62.9999980773926,10|2,0:0|0:0,0:0:0:0:
46,59,12988,1,2,0:0:0:0:
46,59,13203,2,0,P|104:41|177:25,1,125.999996154785,2|2,1:2|0:0,0:0:0:0:
242,67,13846,2,0,B|305:52|289:117|361:99,1,125.999996154785,0|8,1:0|0:0,0:0:0:0:
434,132,14488,2,0,P|415:163|402:199,1,62.9999980773926,2|0,1:2|0:0,0:0:0:0:
353,263,14917,2,0,P|340:233|324:207,1,62.9999980773926,2|8,1:2|0:0,0:0:0:0:
245,178,15346,1,2,0:0:0:0:
153,246,15560,6,0,P|166:281|182:376,1,125.999996154785,0|10,1:0|0:0,0:0:0:0:
270,338,16203,1,2,0:0:0:0:
346,373,16417,1,2,0:0:0:0:
346,373,16631,2,0,P|388:363|428:363,1,62.9999980773926,2|8,1:2|0:0,0:0:0:0:
459,300,17060,2,0,P|464:261|485:238,1,62.9999980773926,2|0,0:0|1:0,0:0:0:0:
405,204,17488,2,0,P|400:165|379:142,1,62.9999980773926,2|8,1:2|0:0,0:0:0:0:
301,114,17917,2,0,P|316:72|403:62,1,125.999996154785,2|2,1:2|1:2,0:0:0:0:
503,142,18774,1,2,0:0:0:0:
472,218,18988,6,0,B|410:202|426:258|340:237,1,125.999996154785,2|10,1:2|0:0,0:0:0:0:
277,188,19631,2,0,P|240:173|174:235,1,125.999996154785,2|0,0:0|1:0,0:0:0:0:
151,305,20274,2,0,P|101:296|84:285,1,62.9999980773926,8|0,0:0|0:0,0:0:0:0:
33,226,20703,2,0,P|24:185|12:151,2,62.9999980773926,0|0|8,1:0|1:0|0:0,0:0:0:0:
9,311,21346,1,0,1:0:0:0:
82,362,21560,1,2,0:0:0:0:
82,362,21774,2,0,P|129:353|220:354,1,125.999996154785,2|0,1:2|0:0,0:0:0:0:
287,375,22417,5,0,1:0:0:0:
383,272,22846,2,0,B|351:253|325:273|298:302|253:287,1,125.999996154785,10|2,0:0|0:0,0:0:0:0:
199,238,23488,2,0,P|191:206|199:167,1,62.9999980773926,2|8,1:2|0:0,0:0:0:0:
275,124,23917,2,0,P|317:113|408:91,2,125.999996154785,2|2|2,0:0|1:2|1:2,0:0:0:0:
199,76,24988,1,0,0:0:0:0:
135,138,25203,2,0,P|106:142|63:111,1,62.9999980773926,2|8,1:2|0:0,0:0:0:0:
11,65,25631,1,2,0:0:0:0:
69,9,25846,6,0,P|116:15|147:22,1,62.9999980773926,0|2,1:0|0:0,0:0:0:0:
199,76,26274,2,0,B|269:60|246:115|348:98,1,125.999996154785,10|2,0:0|0:0,0:0:0:0:
386,43,26917,1,2,1:2:0:0:
386,43,27131,1,10,0:0:0:0:
461,90,27346,2,0,P|451:127|443:168,1,62.9999980773926,2|0,0:0|1:0,0:0:0:0:
392,212,27774,2,0,P|400:242|407:273,1,62.9999980773926,2|8,1:2|0:0,0:0:0:0:
357,335,28203,2,0,P|308:347|254:284,1,125.999996154785,2|2,1:2|1:2,0:0:0:0:
222,163,29060,1,2,0:0:0:0:
162,217,29274,6,0,P|116:224|94:233,1,62.9999980773926,0|2,1:0|0:0,0:0:0:0:
18,288,29703,2,0,P|27:234|33:154,1,125.999996154785,10|2,0:0|0:0,0:0:0:0:
15,72,30346,2,0,P|51:65|83:57,1,62.9999980773926,2|8,1:2|0:0,0:0:0:0:
151,99,30774,2,0,B|209:115|209:115|269:77,1,125.999996154785,2|2,0:0|1:2,0:0:0:0:
328,21,31417,1,8,0:0:0:0:
328,21,31631,2,0,P|368:13|459:69,1,125.999996154785,2|2,1:2|1:2,0:0:0:0:
495,184,32488,1,2,0:0:0:0:
439,261,32703,6,0,P|436:313|417:390,1,125.999996154785,2|10,1:2|0:0,0:0:0:0:
319,368,33346,2,0,P|322:316|341:239,1,125.999996154785,2|0,0:0|1:0,0:0:0:0:
404,185,33988,2,0,P|416:151|411:116,1,62.9999980773926,8|0,0:0|0:0,0:0:0:0:
360,58,34417,2,0,P|317:50|284:38,1,62.9999980773926,0|0,1:0|1:0,0:0:0:0:
230,87,34846,2,0,B|197:80|197:80|147:93|147:93|94:78,1,125.999996154785,8|2,0:0|0:0,0:0:0:0:
36,128,35488,1,2,1:2:0:0:
88,197,35703,1,8,0:0:0:0:
68,353,36131,6,0,P|37:348|8:260,2,125.999996154785,0|8|2,1:0|0:0|0:0,0:0:0:0:
130,296,37203,1,2,1:2:0:0:
200,349,37417,1,10,0:0:0:0:
200,349,37631,2,0,P|252:338|280:263,1,125.999996154785,2|0,0:0|1:0,0:0:0:0:
234,200,38274,1,8,0:0:0:0:
234,200,38488,2,0,P|226:145|218:74,2,125.999996154785,2|2|2,1:2|1:2|0:0,0:0:0:0:
324,169,39560,6,0,B|373:160|377:207|452:196,1,125.999996154785,2|10,1:2|0:0,0:0:0:0:
462,109,40203,2,0,B|395:119|391:72|342:81,1,125.999996154785,2|0,0:0|1:0,0:0:0:0:
274,34,40846,2,0,P|239:26|205:18,1,62.9999980773926,8|0,0:0|0:0,0:0:0:0:
136,61,41274,2,0,P|117:97|121:186,1,125.999996154785,0|8,1:0|0:0,0:0:0:0:
262,321,42131,2,0,L|271:245,1,62.9999980773926,2|0,0:0|1:0,0:0:0:0:
179,310,42560,2,0,L|188:234,1,62.9999980773926,10|2,0:0|0:0,0:0:0:0:
225,136,42988,6,0,B|201:118|219:78|134:59|57:103|101:148|94:173|100:196|102:212|113:224|120:232|111:240|83:276|36:266,1,336,2|2,1:2|0:0,0:0:0:0:
23,126,44703,6,0,P|32:97|64:62,2,56,2|2|2,0:0|0:0|0:0,0:0:0:0:
68,196,45346,1,2,0:0:0:0:
135,128,45560,5,8,0:0:0:0:
178,292,45774,1,8,1:2:0:0:
468,134,46203,6,0,P|426:105|316:111,1,154.000004699707,6|0,1:2|1:0,0:0:0:0:
271,199,46846,2,0,B|325:235|325:235|397:232|375:158,1,154.000004699707,10|2,0:0|1:2,0:0:0:0:
261,94,47488,1,0,1:0:0:0:
169,179,47703,1,10,0:0:0:0:
145,74,47917,2,0,B|61:102|86:34|-2:54,1,154.000004699707,2|2,0:0|1:2,0:0:0:0:
54,152,48560,1,10,0:0:0:0:
17,229,48774,2,0,P|6:279|2:314,1,77.0000023498536,2|0,0:0|1:0,0:0:0:0:
117,377,49203,2,0,P|111:338|102:301,1,77.0000023498536,2|8,1:2|0:0,0:0:0:0:
166,188,49631,6,0,B|199:196|235:160|235:160|249:209|299:219,1,154.000004699707,6|0,1:2|1:0,0:0:0:0:
335,310,50274,2,0,B|396:290|398:343|442:364|496:346,1,154.000004699707,10|2,0:0|1:2,0:0:0:0:
441,248,50917,1,0,1:0:0:0:
512,169,51131,1,10,0:0:0:0:
437,102,51346,2,0,P|448:53|459:20,1,77.0000023498536,2|0,0:0|1:0,0:0:0:0:
355,65,51774,1,2,1:2:0:0:
254,31,51988,1,10,0:0:0:0:
187,104,52203,2,0,P|131:104|83:187,1,154.000004699707,2|2,0:0|1:2,0:0:0:0:
285,362,53060,5,2,0:0:0:0:
351,312,53274,2,0,P|308:282|212:324,1,154.000004699707,6|10,1:2|0:0,0:0:0:0:
150,368,53917,1,0,0:0:0:0:
73,317,54131,2,0,P|40:288|36:245,1,77.0000023498536,0|0,1:0|1:0,0:0:0:0:
40,166,54560,1,10,0:0:0:0:
135,125,54774,2,0,B|168:96|206:117|206:117|223:160|276:158,1,154.000004699707,2|2,0:0|1:2,0:0:0:0:
328,89,55417,2,0,P|372:78|489:73,1,154.000004699707,8|0,0:0|1:0,0:0:0:0:
436,172,56060,1,0,1:0:0:0:
491,251,56274,1,10,0:0:0:0:
441,324,56488,5,2,0:0:0:0:
334,272,56703,2,0,B|259:248|254:304|170:315,1,154.000004699707,6|10,1:2|0:0,0:0:0:0:
49,200,57560,2,0,P|26:235|29:279,1,77.0000023498536,0|0,1:0|1:0,0:0:0:0:
106,294,57988,1,8,0:0:0:0:
106,294,58203,2,0,P|129:259|126:215,1,77.0000023498536,2|0,0:0|1:0,0:0:0:0:
155,108,58631,1,2,1:2:0:0:
247,42,58846,1,10,0:0:0:0:
343,96,59060,2,0,B|398:111|431:70|431:70|418:99|443:136,1,154.000004699707,2|10,0:0|0:0,0:0:0:0:
502,208,59703,1,8,3:0:0:0:
450,332,59917,6,0,B|397:306|361:365|297:341,1,154.000004699707,6|0,1:2|1:0,0:0:0:0:
246,254,60560,2,0,P|224:209|296:139,1,154.000004699707,10|2,0:0|1:2,0:0:0:0:
371,153,61203,1,0,1:0:0:0:
351,22,61417,1,10,0:0:0:0:
267,46,61631,2,0,B|228:28|178:40|210:85|143:72|109:53,1,154.000004699707,2|2,0:0|1:2,0:0:0:0:
44,26,62274,1,10,0:0:0:0:
2,96,62488,1,2,0:0:0:0:
41,165,62703,2,0,B|12:242|87:235|56:312,1,154.000004699707,0|8,1:0|0:0,0:0:0:0:
186,379,63346,6,0,P|174:337|283:296,1,154.000004699707,6|0,1:2|1:0,0:0:0:0:
311,210,63988,2,0,P|357:205|386:186,1,77.0000023498536,10|0,0:0|0:0,0:0:0:0:
453,118,64417,2,0,P|407:113|378:94,1,77.0000023498536,2|0,1:2|1:0,0:0:0:0:
320,26,64846,1,10,0:0:0:0:
262,98,65060,2,0,B|206:111|206:111|186:139|186:139|122:126,1,154.000004699707,2|2,0:0|1:2,0:0:0:0:
39,110,65703,1,10,0:0:0:0:
77,26,65917,2,0,L|164:14,1,77.0000023498536,2|0,0:0|1:0,0:0:0:0:
243,15,66346,2,0,L|319:25,1,77.0000023498536,2|8,1:2|0:0,0:0:0:0:
396,45,66774,5,2,0:0:0:0:
458,113,66988,2,0,P|417:139|324:98,1,154.000004699707,6|10,1:2|0:0,0:0:0:0:
249,135,67631,1,0,0:0:0:0:
208,226,67846,2,0,P|224:269|227:308,1,77.0000023498536,0|0,1:0|1:0,0:0:0:0:
162,380,68274,1,10,0:0:0:0:
243,297,68488,2,0,P|285:283|354:357,1,154.000004699707,2|2,0:0|1:2,0:0:0:0:
450,368,69131,2,0,P|461:318|484:291,1,77.0000023498536,8|0,0:0|0:0,0:0:0:0:
512,210,69560,1,0,1:0:0:0:
477,131,69774,1,0,1:0:0:0:
393,138,69988,1,10,0:0:0:0:
380,224,70203,5,2,0:0:0:0:
380,224,70417,2,0,B|307:239|307:239|252:211|288:165,1,154.000004699707,6|10,1:2|0:0,0:0:0:0:
315,103,71060,2,0,B|338:59|288:39|288:39|215:54,1,154.000004699707,0|0,0:0|1:0,0:0:0:0:
140,23,71703,1,8,0:0:0:0:
59,124,71917,2,0,B|109:108|109:108|184:130|132:200,1,154.000004699707,2|2,0:0|1:2,0:0:0:0:
77,277,72560,1,10,0:0:0:0:
136,347,72774,2,0,P|180:353|226:318,1,77.0000023498536,2|0,0:0|1:0,0:0:0:0:
310,257,73203,1,10,0:0:0:0:
222,194,73417,1,8,3:0:0:0:
323,277,73631,6,0,B|394:260|376:319|477:295,1,154.000004699707,6|2,1:2|1:2,0:0:0:0:
511,192,74274,2,0,P|486:156|376:152,1,154.000004699707,10|0,0:0|1:0,0:0:0:0:
265,193,74917,1,2,1:2:0:0:
294,93,75131,1,10,0:0:0:0:
256,222,75346,6,0,B|171:204|203:258|106:231,1,154.000004699707,4|2,1:2|1:2,0:0:0:0:
26,118,75988,1,10,0:0:0:0:
106,55,76203,1,0,0:0:0:0:
184,117,76417,2,0,P|226:125|275:86,1,77.0000023498536,0|8,1:0|3:0,0:0:0:0:
341,34,76846,1,10,0:0:0:0:
403,109,77060,1,6,3:0:0:0:
510,47,77274,6,0,B|484:280|484:280|486:215|440:190,1,336,6|2,1:2|0:0,0:0:0:0:
398,267,78774,6,0,B|343:212|278:234|303:282|227:297|180:243,1,224,2|2,0:0|0:0,0:0:0:0:
108,199,79846,5,8,0:0:0:0:
200,168,80060,1,2,0:0:0:0:
128,100,80274,1,8,0:0:0:0:
37,137,80488,6,0,B|4:189|4:189|21:253|54:330,1,210,6|10,1:2|0:0,0:0:0:0:
211,366,81560,2,0,P|259:371|282:379,1,70,2|0,0:0|1:0,0:0:0:0:
324,315,81988,1,10,0:0:0:0:
394,354,82203,2,0,B|431:360|431:360|491:322|442:265,1,140,2|0,0:0|1:0,0:0:0:0:
381,231,82846,2,0,P|362:193|371:160,1,70,8|2,0:0|1:2,0:0:0:0:
477,127,83274,2,0,P|436:118|372:45,1,140,2|10,0:0|0:0,0:0:0:0:
298,79,83917,1,2,0:0:0:0:
218,34,84131,6,0,B|154:6|154:6|77:68,2,140,2|10|2,1:2|0:0|1:2,0:0:0:0:
285,102,85203,1,0,1:0:0:0:
206,158,85417,2,0,P|186:198|177:243,1,70,10|2,0:0|0:0,0:0:0:0:
238,317,85846,6,0,L|153:302,1,70,0|2,1:0|1:2,0:0:0:0:
120,370,86274,2,0,L|51:382,1,70,10|0,0:0|1:0,0:0:0:0:
18,258,86703,1,8,0:0:0:0:
157,165,86917,5,14,1:2:0:0:
123,289,87131,1,14,1:2:0:0:
48,143,87346,1,14,1:2:0:0:
