osu file format v14

[General]
AudioFilename: audio.mp3
AudioLeadIn: 0
PreviewTime: 376
Countdown: 1
SampleSet: Normal
StackLeniency: 0.7
Mode: 1
LetterboxInBreaks: 0
WidescreenStoryboard: 0

[Editor]
DistanceSpacing: 0.8
BeatDivisor: 4
GridSize: 32
TimelineZoom: 1.8

[Metadata]
Title:Mirror -TV edit-
TitleUnicode:Mirror -TV edit-
Artist:Yasuda Rei
ArtistUnicode:安田レイ
Creator:Lasse
Version:Oni
Source:魔法科高校の劣等生
Tags:林奈津美 Hayashi Natsumi 玉井健二 Tamai Kenji 釣俊輔 Tsuri Shunsuke Mahouka Koukou no Rettousei ending the irregular at magic high school
BeatmapID:1438605
BeatmapSetID:680364

[Difficulty]
HPDrainRate:5
CircleSize:2
OverallDifficulty:5.5
ApproachRate:9
SliderMultiplier:1.4
SliderTickRate:1

[Events]
//Background and Video events
0,0,"bg.jpg",0,50
//Break Periods
//Storyboard Layer 0 (Background)
//Storyboard Layer 1 (Fail)
//Storyboard Layer 2 (Pass)
//Storyboard Layer 3 (Foreground)
//Storyboard Sound Samples

[TimingPoints]
406,472.44094488189,4,1,0,60,1,0
406,-125,4,1,0,60,0,0
7965,-121.951219512195,4,1,0,60,0,0
8437,-119.047619047619,4,1,0,60,0,0
8909,-116.279069767442,4,1,0,60,0,0
9382,-113.636363636364,4,1,0,60,0,0
9854,-111.111111111111,4,1,0,70,0,0
23083,-107.52688172043,4,1,0,70,0,0
24264,-104.166666666667,4,1,0,70,0,0
24972,-100,4,1,0,80,0,0
38909,-100,4,1,0,80,0,0
39382,-100,4,1,0,80,0,0
39618,-100,4,1,0,80,0,0
40091,-100,4,1,0,70,0,0
47650,-100,4,1,0,75,0,0
51429,-100,4,1,0,80,0,0
53319,-100,4,1,0,80,0,0
55209,-100,4,1,0,85,0,0
56626,-95.2380952380952,4,1,0,85,0,0
57098,-95.2380952380952,4,1,0,90,0,1
85209,-100,4,1,0,90,0,1
85445,-100,4,1,0,80,0,0
85917,-103.092783505155,4,1,0,80,0,0
86390,-105.263157894737,4,1,0,80,0,0
87098,-107.52688172043,4,1,0,80,0,0
87335,-111.111111111111,4,1,0,80,0,0
87807,-111.111111111111,4,1,0,70,0,0
88043,-111.111111111111,4,1,0,60,0,0
88280,-111.111111111111,4,1,0,50,0,0
88516,-111.111111111111,4,1,0,45,0,0
88752,-111.111111111111,4,1,0,40,0,0
88988,-111.111111111111,4,1,0,35,0,0
89224,-111.111111111111,4,1,0,30,0,0

[HitObjects]
256,192,2295,5,8,0:0:0:0:
256,192,3004,1,0,0:0:0:0:
256,192,4185,1,8,0:0:0:0:
256,192,4657,1,0,0:0:0:0:
256,192,4894,1,0,0:0:0:0:
256,192,6075,1,8,0:0:0:0:
256,192,6547,1,0,0:0:0:0:
256,192,6783,1,8,0:0:0:0:
256,192,7965,1,8,0:0:0:0:
256,192,8437,1,0,0:0:0:0:
256,192,8909,1,8,0:0:0:0:
256,192,9382,1,0,0:0:0:0:
256,192,9854,5,12,0:0:0:0:
256,192,10091,1,0,0:0:0:0:
256,192,10327,1,8,0:0:0:0:
256,192,10563,1,0,0:0:0:0:
256,192,11035,1,0,0:0:0:0:
256,192,11272,1,8,0:0:0:0:
256,192,11744,1,0,0:0:0:0:
256,192,12098,1,0,0:0:0:0:
256,192,12217,1,8,0:0:0:0:
256,192,12453,1,0,0:0:0:0:
256,192,12925,1,0,0:0:0:0:
256,192,13161,1,8,0:0:0:0:
256,192,13634,1,0,0:0:0:0:
256,192,13988,1,8,0:0:0:0:
256,192,14106,1,8,0:0:0:0:
256,192,14343,1,0,0:0:0:0:
256,192,14815,1,0,0:0:0:0:
256,192,15051,1,8,0:0:0:0:
256,192,15524,1,0,0:0:0:0:
256,192,15760,1,0,0:0:0:0:
256,192,15878,1,0,0:0:0:0:
256,192,15996,1,8,0:0:0:0:
256,192,16232,1,0,0:0:0:0:
256,192,16705,1,0,0:0:0:0:
256,192,16941,1,8,0:0:0:0:
256,192,17059,1,8,0:0:0:0:
256,192,17177,1,8,0:0:0:0:
256,192,17295,1,8,0:0:0:0:
256,192,17413,5,0,0:0:0:0:
256,192,17768,1,8,0:0:0:0:
256,192,17886,1,8,0:0:0:0:
256,192,18122,1,0,0:0:0:0:
256,192,18594,1,0,0:0:0:0:
256,192,18831,1,8,0:0:0:0:
256,192,19303,1,0,0:0:0:0:
256,192,19657,1,0,0:0:0:0:
256,192,19776,1,8,0:0:0:0:
256,192,20012,1,0,0:0:0:0:
256,192,20484,1,0,0:0:0:0:
256,192,20720,1,8,0:0:0:0:
256,192,21193,1,0,0:0:0:0:
256,192,21547,1,8,0:0:0:0:
256,192,21665,1,8,0:0:0:0:
256,192,21902,1,0,0:0:0:0:
256,192,22374,1,8,0:0:0:0:
256,192,22610,1,8,0:0:0:0:
256,192,23083,1,0,0:0:0:0:
256,192,23437,1,0,0:0:0:0:
256,192,23555,1,8,0:0:0:0:
256,192,23791,1,0,0:0:0:0:
256,192,24264,1,0,0:0:0:0:
256,192,24382,1,0,0:0:0:0:
256,192,24500,1,8,0:0:0:0:
256,192,24972,5,4,0:0:0:0:
256,192,25327,1,0,0:0:0:0:
256,192,25445,1,0,0:0:0:0:
256,192,25681,1,8,0:0:0:0:
256,192,26154,1,0,0:0:0:0:
256,192,26390,1,8,0:0:0:0:
256,192,26626,1,0,0:0:0:0:
256,192,26744,1,0,0:0:0:0:
256,192,26862,1,0,0:0:0:0:
256,192,27217,1,8,0:0:0:0:
256,192,27335,1,8,0:0:0:0:
256,192,27571,1,0,0:0:0:0:
256,192,28043,1,0,0:0:0:0:
256,192,28280,1,8,0:0:0:0:
256,192,28398,1,8,0:0:0:0:
256,192,28516,1,0,0:0:0:0:
256,192,28634,1,0,0:0:0:0:
256,192,28752,1,8,0:0:0:0:
256,192,29106,1,0,0:0:0:0:
256,192,29224,1,0,0:0:0:0:
256,192,29461,1,8,0:0:0:0:
256,192,29933,1,0,0:0:0:0:
256,192,30169,1,8,0:0:0:0:
256,192,30406,1,0,0:0:0:0:
256,192,30524,1,0,0:0:0:0:
256,192,30642,1,0,0:0:0:0:
256,192,30996,1,0,0:0:0:0:
256,192,31114,1,8,0:0:0:0:
256,192,31350,1,8,0:0:0:0:
256,192,31823,1,0,0:0:0:0:
256,192,32059,1,8,0:0:0:0:
256,192,32177,1,8,0:0:0:0:
256,192,32295,1,0,0:0:0:0:
256,192,32413,1,0,0:0:0:0:
256,192,32531,5,8,0:0:0:0:
256,192,32886,1,0,0:0:0:0:
256,192,33004,1,0,0:0:0:0:
256,192,33240,1,8,0:0:0:0:
256,192,33713,1,0,0:0:0:0:
256,192,33949,1,8,0:0:0:0:
256,192,34185,1,0,0:0:0:0:
256,192,34303,1,0,0:0:0:0:
256,192,34421,1,0,0:0:0:0:
256,192,34657,1,0,0:0:0:0:
256,192,34776,1,0,0:0:0:0:
256,192,35130,1,8,0:0:0:0:
256,192,35602,1,0,0:0:0:0:
256,192,35839,1,8,0:0:0:0:
256,192,35957,1,8,0:0:0:0:
256,192,36075,1,0,0:0:0:0:
256,192,36193,1,8,0:0:0:0:
256,192,36311,1,0,0:0:0:0:
256,192,36665,1,0,0:0:0:0:
256,192,37020,1,8,0:0:0:0:
256,192,37492,1,0,0:0:0:0:
256,192,37728,1,8,0:0:0:0:
256,192,37965,1,0,0:0:0:0:
256,192,38083,1,0,0:0:0:0:
256,192,38201,1,8,0:0:0:0:
256,192,38555,1,0,0:0:0:0:
256,192,38673,1,8,0:0:0:0:
256,192,38909,1,12,0:0:0:0:
256,192,39382,1,0,0:0:0:0:
256,192,39618,1,8,0:0:0:0:
256,192,39736,1,8,0:0:0:0:
256,192,39854,1,0,0:0:0:0:
256,192,39972,1,0,0:0:0:0:
256,192,40091,5,8,0:0:0:0:
256,192,40445,1,0,0:0:0:0:
256,192,40799,1,8,0:0:0:0:
256,192,41154,1,8,0:0:0:0:
256,192,41272,1,0,0:0:0:0:
256,192,41508,1,8,0:0:0:0:
256,192,41862,1,0,0:0:0:0:
256,192,41980,1,8,0:0:0:0:
256,192,42335,1,0,0:0:0:0:
256,192,42689,1,8,0:0:0:0:
256,192,43043,1,8,0:0:0:0:
256,192,43161,1,0,0:0:0:0:
256,192,43398,1,12,0:0:0:0:
256,192,43870,1,4,0:0:0:0:
256,192,44224,1,0,0:0:0:0:
256,192,44579,1,8,0:0:0:0:
256,192,44933,1,8,0:0:0:0:
256,192,45051,1,0,0:0:0:0:
256,192,45287,1,8,0:0:0:0:
256,192,45524,1,8,0:0:0:0:
256,192,45760,1,0,0:0:0:0:
256,192,46114,1,0,0:0:0:0:
256,192,46232,1,8,0:0:0:0:
256,192,46468,1,0,0:0:0:0:
256,192,46705,1,0,0:0:0:0:
256,192,46823,1,8,0:0:0:0:
256,192,46941,1,0,0:0:0:0:
256,192,47177,1,8,0:0:0:0:
256,192,47295,1,8,0:0:0:0:
256,192,47413,1,0,0:0:0:0:
256,192,47650,5,12,0:0:0:0:
256,192,48004,1,0,0:0:0:0:
256,192,48358,1,8,0:0:0:0:
256,192,48713,1,0,0:0:0:0:
256,192,48831,1,0,0:0:0:0:
256,192,49067,1,8,0:0:0:0:
256,192,49303,1,0,0:0:0:0:
256,192,49539,1,12,0:0:0:0:
256,192,49776,1,0,0:0:0:0:
256,192,49894,1,0,0:0:0:0:
256,192,50130,1,0,0:0:0:0:
256,192,50248,1,8,0:0:0:0:
256,192,50484,1,8,0:0:0:0:
256,192,50602,1,8,0:0:0:0:
256,192,50720,1,0,0:0:0:0:
256,192,50839,1,0,0:0:0:0:
256,192,50957,1,8,0:0:0:0:
256,192,51429,5,12,0:0:0:0:
256,192,51665,1,0,0:0:0:0:
256,192,51783,1,0,0:0:0:0:
256,192,52020,1,0,0:0:0:0:
256,192,52138,1,8,0:0:0:0:
256,192,52374,1,0,0:0:0:0:
256,192,52728,1,0,0:0:0:0:
256,192,52846,1,8,0:0:0:0:
256,192,53083,1,8,0:0:0:0:
256,192,53319,5,4,0:0:0:0:
256,192,53555,1,0,0:0:0:0:
256,192,53673,1,8,0:0:0:0:
256,192,53909,1,0,0:0:0:0:
256,192,54028,1,8,0:0:0:0:
256,192,54264,1,0,0:0:0:0:
256,192,54382,1,0,0:0:0:0:
256,192,54500,1,8,0:0:0:0:
256,192,54736,1,0,0:0:0:0:
256,192,54854,1,0,0:0:0:0:
256,192,54972,1,8,0:0:0:0:
256,192,55091,1,8,0:0:0:0:
256,192,55209,5,0,0:0:0:0:
256,192,55681,1,0,0:0:0:0:
256,192,56035,1,0,0:0:0:0:
256,192,56154,1,8,0:0:0:0:
256,192,56390,1,0,0:0:0:0:
256,192,56626,1,8,0:0:0:0:
256,192,56744,1,8,0:0:0:0:
256,192,56862,1,8,0:0:0:0:
256,192,56980,1,8,0:0:0:0:
256,192,57098,5,0,0:0:0:0:
256,192,57453,1,0,0:0:0:0:
256,192,57571,1,8,0:0:0:0:
256,192,57807,1,0,0:0:0:0:
256,192,58043,1,0,0:0:0:0:
256,192,58161,1,0,0:0:0:0:
256,192,58398,1,0,0:0:0:0:
256,192,58516,1,8,0:0:0:0:
256,192,58752,1,0,0:0:0:0:
256,192,58870,1,0,0:0:0:0:
256,192,58988,1,0,0:0:0:0:
256,192,59224,1,0,0:0:0:0:
256,192,59461,1,8,0:0:0:0:
256,192,59697,1,0,0:0:0:0:
256,192,59815,1,0,0:0:0:0:
256,192,60051,1,8,0:0:0:0:
256,192,60169,1,0,0:0:0:0:
256,192,60287,1,0,0:0:0:0:
256,192,60406,1,8,0:0:0:0:
256,192,60642,1,0,0:0:0:0:
256,192,60760,1,0,0:0:0:0:
256,192,60878,1,0,0:0:0:0:
256,192,61114,1,0,0:0:0:0:
256,192,61350,1,8,0:0:0:0:
256,192,61587,1,0,0:0:0:0:
256,192,61705,1,0,0:0:0:0:
256,192,61941,1,8,0:0:0:0:
256,192,62059,1,0,0:0:0:0:
256,192,62295,1,8,0:0:0:0:
256,192,62531,1,8,0:0:0:0:
256,192,62768,1,0,0:0:0:0:
256,192,63122,1,0,0:0:0:0:
256,192,63240,1,8,0:0:0:0:
256,192,63476,1,8,0:0:0:0:
256,192,63594,1,8,0:0:0:0:
256,192,63831,1,8,0:0:0:0:
256,192,63949,1,0,0:0:0:0:
256,192,64185,1,8,0:0:0:0:
256,192,64421,1,0,0:0:0:0:
256,192,64539,1,0,0:0:0:0:
256,192,64657,5,8,0:0:0:0:
256,192,64894,1,0,0:0:0:0:
256,192,65130,1,8,0:0:0:0:
256,192,65366,1,0,0:0:0:0:
256,192,65484,1,8,0:0:0:0:
256,192,65720,1,0,0:0:0:0:
256,192,65839,1,0,0:0:0:0:
256,192,66075,1,8,0:0:0:0:
256,192,66311,1,0,0:0:0:0:
256,192,66429,1,0,0:0:0:0:
256,192,66547,1,8,0:0:0:0:
256,192,66902,1,0,0:0:0:0:
256,192,67020,1,8,0:0:0:0:
256,192,67256,1,0,0:0:0:0:
256,192,67374,1,0,0:0:0:0:
256,192,67492,1,8,0:0:0:0:
256,192,67728,1,8,0:0:0:0:
256,192,67846,1,8,0:0:0:0:
256,192,67965,1,0,0:0:0:0:
256,192,68083,1,8,0:0:0:0:
256,192,68201,1,0,0:0:0:0:
256,192,68437,1,12,0:0:0:0:
256,192,68673,1,0,0:0:0:0:
256,192,68909,1,8,0:0:0:0:
256,192,69146,1,0,0:0:0:0:
256,192,69264,1,0,0:0:0:0:
256,192,69500,1,8,0:0:0:0:
256,192,69618,1,0,0:0:0:0:
256,192,69854,1,8,0:0:0:0:
256,192,70091,1,8,0:0:0:0:
256,192,70327,1,0,0:0:0:0:
256,192,70681,1,0,0:0:0:0:
256,192,70799,1,8,0:0:0:0:
256,192,71035,1,0,0:0:0:0:
256,192,71154,1,0,0:0:0:0:
256,192,71272,1,0,0:0:0:0:
256,192,71390,1,0,0:0:0:0:
256,192,71508,1,8,0:0:0:0:
256,192,71626,1,8,0:0:0:0:
256,192,71744,1,0,0:0:0:0:
256,192,71980,1,8,0:0:0:0:
256,192,72059,1,8,0:0:0:0:
256,192,72138,1,8,0:0:0:0:
256,192,72217,5,0,0:0:0:0:
256,192,72571,1,0,0:0:0:0:
256,192,72689,1,8,0:0:0:0:
256,192,72925,1,0,0:0:0:0:
256,192,73161,1,0,0:0:0:0:
256,192,73280,1,0,0:0:0:0:
256,192,73516,1,0,0:0:0:0:
256,192,73634,1,8,0:0:0:0:
256,192,73870,1,0,0:0:0:0:
256,192,73988,1,0,0:0:0:0:
256,192,74106,1,0,0:0:0:0:
256,192,74343,1,0,0:0:0:0:
256,192,74579,1,8,0:0:0:0:
256,192,74815,1,0,0:0:0:0:
256,192,74933,1,8,0:0:0:0:
256,192,75169,1,8,0:0:0:0:
256,192,75287,1,0,0:0:0:0:
256,192,75406,1,0,0:0:0:0:
256,192,75524,1,8,0:0:0:0:
256,192,75760,1,0,0:0:0:0:
256,192,75878,1,0,0:0:0:0:
256,192,75996,1,0,0:0:0:0:
256,192,76232,1,0,0:0:0:0:
256,192,76468,1,8,0:0:0:0:
256,192,76705,1,0,0:0:0:0:
256,192,76823,1,0,0:0:0:0:
256,192,77059,1,8,0:0:0:0:
256,192,77177,1,0,0:0:0:0:
256,192,77413,1,8,0:0:0:0:
256,192,77650,1,0,0:0:0:0:
256,192,77768,1,0,0:0:0:0:
256,192,77886,1,0,0:0:0:0:
256,192,78240,1,0,0:0:0:0:
256,192,78358,1,8,0:0:0:0:
256,192,78594,1,8,0:0:0:0:
256,192,78713,1,8,0:0:0:0:
256,192,78949,1,8,0:0:0:0:
256,192,79067,1,0,0:0:0:0:
256,192,79303,1,8,0:0:0:0:
256,192,79539,1,0,0:0:0:0:
256,192,79657,1,0,0:0:0:0:
256,192,79776,5,8,0:0:0:0:
256,192,80248,1,8,0:0:0:0:
256,192,80484,1,0,0:0:0:0:
256,192,80602,1,8,0:0:0:0:
256,192,80839,1,0,0:0:0:0:
256,192,80957,1,0,0:0:0:0:
256,192,81193,1,8,0:0:0:0:
256,192,81429,1,0,0:0:0:0:
256,192,81547,1,0,0:0:0:0:
256,192,81665,1,8,0:0:0:0:
256,192,82020,1,0,0:0:0:0:
256,192,82138,1,8,0:0:0:0:
256,192,82374,1,8,0:0:0:0:
256,192,82492,1,0,0:0:0:0:
256,192,82610,1,0,0:0:0:0:
256,192,82728,1,8,0:0:0:0:
256,192,82846,1,0,0:0:0:0:
256,192,82965,1,0,0:0:0:0:
256,192,83083,1,8,0:0:0:0:
256,192,83319,1,0,0:0:0:0:
256,192,83555,1,12,0:0:0:0:
256,192,83909,1,0,0:0:0:0:
256,192,84028,1,8,0:0:0:0:
256,192,84264,1,0,0:0:0:0:
256,192,84382,1,0,0:0:0:0:
256,192,84618,1,8,0:0:0:0:
256,192,84736,1,0,0:0:0:0:
256,192,84972,1,8,0:0:0:0:
256,192,85209,1,0,0:0:0:0:
256,192,85327,1,0,0:0:0:0:
256,192,85445,5,8,0:0:0:0:
336,214,85799,1,0,0:0:0:0:
256,192,85917,1,8,0:0:0:0:
256,192,86390,1,12,0:0:0:0:
256,192,86626,1,0,0:0:0:0:
256,192,86744,1,0,0:0:0:0:
256,192,86862,1,0,0:0:0:0:
256,192,87098,1,8,0:0:0:0:
256,192,87335,5,12,0:0:0:0:
256,192,87571,12,0,89224,0:0:0:0:
