osu file format v14

[General]
AudioFilename: audio.mp3
AudioLeadIn: 0
PreviewTime: 34190
Countdown: 0
SampleSet: Soft
StackLeniency: 0.7
Mode: 0
LetterboxInBreaks: 0
WidescreenStoryboard: 0

[Editor]
Bookmarks: 9859,24977,72222
DistanceSpacing: 1.1
BeatDivisor: 8
GridSize: 16
TimelineZoom: 2.1

[Metadata]
Title:Mirror (TV Size)
TitleUnicode:Mirror (TV Size)
Artist:Yasuda Rei
ArtistUnicode:安田レイ
Creator:GIDZ
Version:Chaoz's Light Insane
Source:魔法科高校の劣等生
Tags:Matha Petal chaoslitz Mahouka Koukou no Rettousei ending the irregular at magic high school Will Rachel Rhodes ending ed Japanese JPop Anime
BeatmapID:1745316
BeatmapSetID:715952

[Difficulty]
HPDrainRate:6
CircleSize:4.2
OverallDifficulty:8
ApproachRate:9
SliderMultiplier:2.5
SliderTickRate:1

[Events]
//Background and Video events
0,0,"Mirror BG.jpg",0,0
Video,0,"Mirror.avi"
//Break Periods
//Storyboard Layer 0 (Background)
//Storyboard Layer 1 (Fail)
//Storyboard Layer 2 (Pass)
//Storyboard Layer 3 (Foreground)
//Storyboard Layer 4 (Overlay)
//Storyboard Sound Samples

[TimingPoints]
411,472.44094488189,4,2,10,40,1,0
411,-125,4,2,10,40,0,0
7970,-166.666666666667,4,2,10,40,0,0
8914,-100,4,2,10,40,0,0
9033,-100,4,2,10,10,0,0
9151,-100,4,2,10,40,0,0
9387,-200,4,2,10,50,0,0
14348,-166.666666666667,4,2,10,50,0,0
15529,-200,4,2,10,50,0,0
16237,-166.666666666667,4,2,10,50,0,0
17418,-200,4,2,10,50,0,0
21907,-166.666666666667,4,2,10,50,0,0
23088,-200,4,2,10,50,0,0
23796,-166.666666666667,4,2,10,50,0,0
24505,-133.333333333333,4,2,10,50,0,0
24977,-111.111111111111,4,2,10,70,0,0
25686,-142.857142857143,4,2,10,70,0,0
26395,-111.111111111111,4,2,10,70,0,0
27576,-142.857142857143,4,2,10,70,0,0
28048,-125,4,2,10,70,0,0
28757,-111.111111111111,4,2,10,70,0,0
29466,-142.857142857143,4,2,10,70,0,0
30647,-111.111111111111,4,2,10,70,0,0
31355,-142.857142857143,4,2,10,70,0,0
32064,-111.111111111111,4,2,10,70,0,0
32300,-142.857142857143,4,2,10,70,0,0
32536,-111.111111111111,4,2,10,70,0,0
33245,-142.857142857143,4,2,10,70,0,0
33954,-111.111111111111,4,2,10,70,0,0
35135,-142.857142857143,4,2,10,70,0,0
35607,-111.111111111111,4,2,10,70,0,0
36080,-142.857142857143,4,2,10,70,0,0
37025,-125,4,2,10,70,0,0
38206,-166.666666666667,4,2,10,70,0,0
38914,-125,4,2,10,70,0,0
39623,-200,4,2,10,70,0,0
40096,-142.857142857143,4,2,10,50,0,0
47655,-142.857142857143,4,2,10,60,0,0
55214,-111.111111111111,4,2,10,60,0,0
55686,-200.000000000001,4,2,10,60,0,0
55981,-200.000000000001,4,2,10,10,0,0
56040,-142.857142857143,4,2,10,60,0,0
56159,-142.857142857143,4,2,10,60,0,0
57103,-100,4,2,10,80,0,1
72103,-100,4,2,10,80,0,0
72222,-100,4,2,10,80,0,1
87340,-100,4,2,10,40,0,0
89229,-100,4,2,10,60,0,0

[Colours]
Combo1 : 97,90,235
Combo2 : 70,223,247
Combo3 : 39,240,160
Combo4 : 45,184,212

[HitObjects]
199,54,411,5,2,0:0:0:0:
266,100,647,1,0,0:0:0:0:
260,180,883,1,0,0:0:0:0:
254,260,1119,1,0,0:0:0:0:
333,146,1355,5,2,0:0:0:0:
268,177,1592,1,0,0:0:0:0:
262,248,1828,1,0,0:0:0:0:
256,320,2064,1,0,0:0:0:0:
84,362,2300,6,0,L|183:353,1,100,2|0,3:2|0:0,0:0:0:0:
256,320,2655,1,0,0:0:0:0:
256,320,2773,2,0,B|264:340|264:340|260:375,2,50,0|0|2,0:0|0:0|0:0,0:0:0:0:
454,300,3245,2,0,P|387:327|327:286,1,150,0|0,3:0|0:0,0:0:0:0:
401,197,3718,1,0,0:0:0:0:
401,197,3836,2,0,L|396:247,2,50
341,58,4190,5,2,3:2:0:0:
273,146,4426,1,0,0:0:0:0:
276,151,4544,1,0,0:0:0:0:
279,156,4662,2,0,L|329:151,2,50,0|0|2,0:0|0:0|0:0,0:0:0:0:
78,183,5135,6,0,B|150:163|145:226|220:208,1,150,0|0,3:0|0:0,0:0:0:0:
195,131,5607,1,0,0:0:0:0:
195,131,5725,2,0,L|200:81,2,50
103,259,6080,5,2,3:2:0:0:
238,366,6316,1,0,0:0:0:0:
240,361,6434,1,0,0:0:0:0:
242,356,6552,2,0,L|237:306,2,50,0|0|2,0:0|0:0|0:0,0:0:0:0:
33,298,7025,2,0,P|93:339|160:312,1,150,0|0,3:0|0:0,0:0:0:0:
107,209,7498,1,0,0:0:0:0:
107,209,7616,2,0,L|102:259,2,50
49,154,7970,6,0,P|116:128|176:169,1,150,2|0,3:2|0:0,0:0:0:0:
447,362,8914,6,0,L|453:299,1,62.5,2|0,0:0|0:0,0:0:0:0:
452,287,9151,5,2,0:0:0:0:
333,224,9387,2,0,L|326:293,1,62.5,2|0,0:0|0:0,0:0:0:0:
90,369,9859,5,8,3:1:0:0:
107,209,10096,1,2,0:0:0:0:
237,303,10332,1,2,3:2:0:0:
144,293,10568,2,0,L|0:277,1,125,10|2,0:1|0:0,0:0:0:0:
113,146,11277,2,0,L|107:209,1,62.5,2|0,3:2|0:0,0:0:0:0:
90,369,11749,5,8,3:1:0:0:
20,279,11985,1,2,0:0:0:0:
36,294,12103,2,0,L|99:288,1,62.5
172,255,12458,1,10,0:1:0:0:
296,377,12694,1,0,3:0:0:0:
401,336,12930,2,0,L|370:339,1,31.25,2|0,0:0|0:0,0:0:0:0:
270,296,13166,1,0,3:0:0:0:
270,296,13285,2,0,L|301:293,1,31.25,0|2,0:0|0:0,0:0:0:0:
380,63,13639,5,8,3:1:0:0:
376,257,13875,1,2,0:0:0:0:
361,241,13993,2,0,L|367:178,1,62.5
440,117,14348,2,0,P|372:144|305:95,1,149.999995422363,10|2,0:1|0:0,0:0:0:0:
256,24,15056,1,2,3:2:0:0:
192,192,15292,1,2,0:0:0:0:
0,93,15529,5,8,3:1:0:0:
142,124,15765,1,2,0:0:0:0:
127,140,15883,2,0,L|64:146,1,62.5
3,233,16237,2,0,L|115:223,1,112.499996566773,10|0,0:1|0:0,0:0:0:0:
192,192,16710,1,8,0:1:0:0:
197,196,16828,1,8,0:1:0:0:
257,244,16946,5,2,3:2:0:0:
262,248,17064,2,0,L|259:279,2,18.7499994277954,2|0|0,0:0|0:0|0:0,0:0:0:0:
209,32,17418,5,8,3:1:0:0:
192,192,17655,1,2,0:0:0:0:
339,126,17891,1,2,3:2:0:0:
246,116,18127,2,0,L|102:100,1,125,10|2,0:1|0:0,0:0:0:0:
37,31,18836,2,0,L|43:93,1,62.5,2|2,3:2|0:0,0:0:0:0:
73,164,19190,1,0,0:0:0:0:
65,172,19308,5,10,3:1:0:0:
0,283,19544,1,2,0:0:0:0:
14,299,19662,2,0,L|76:292,1,62.5
130,227,20017,1,10,0:1:0:0:
233,380,20253,1,0,3:0:0:0:
214,207,20489,2,0,L|211:238,1,31.25,2|0,0:0|0:0,0:0:0:0:
155,336,20725,1,0,3:0:0:0:
155,336,20844,2,0,L|158:305,1,31.25,0|2,0:0|0:0,0:0:0:0:
121,102,21198,5,10,3:1:0:0:
52,218,21434,1,0,0:0:0:0:
67,234,21552,2,0,L|129:227,1,62.5,2|0,0:0|0:0,0:0:0:0:
205,186,21907,2,0,P|251:182|281:275,1,149.999995422363,10|0,0:1|0:0,0:0:0:0:
437,370,22615,2,0,L|448:250,1,112.499996566773,2|0,3:2|0:0,0:0:0:0:
499,197,23088,5,10,3:1:0:0:
430,69,23324,1,0,0:0:0:0:
446,84,23442,2,0,L|439:146,1,62.5,2|0,0:0|0:0,0:0:0:0:
499,197,23796,2,0,L|379:208,1,112.499996566773,10|0,0:1|0:0,0:0:0:0:
310,238,24269,1,10,0:1:0:0:
310,238,24387,1,4,0:3:0:0:
245,186,24505,6,0,B|211:162|211:162|232:47,1,140.625005364418,8|0,0:3|0:0,0:0:0:0:
107,18,24977,6,0,L|169:11,1,56.2499982833863,8|0,3:1|0:0,0:0:0:0:
317,118,25214,1,2,0:0:0:0:
319,106,25332,2,0,P|264:59|194:99,1,112.499996566773,8|0,0:1|0:0,0:0:0:0:
38,187,25686,6,0,P|93:231|161:210,1,131.249995994568,10|0,0:0|0:0,0:0:0:0:
108,154,26159,1,10,0:1:0:0:
189,286,26395,6,0,L|300:273,1,112.499996566773,10|0,0:0|0:0,0:0:0:0:
309,283,26749,1,0,0:0:0:0:
318,293,26867,6,0,L|396:284,1,56.2499982833863,10|0,0:1|0:0,0:0:0:0:
418,117,27103,1,0,0:0:0:0:
406,115,27222,2,0,P|359:170|399:240,1,112.499996566773,10|0,0:1|0:0,0:0:0:0:
476,370,27576,6,0,L|488:230,1,131.249995994568,10|0,0:0|0:0,0:0:0:0:
488,230,28048,2,0,L|439:236,1,50,10|0,0:1|0:0,0:0:0:0:
319,330,28285,5,8,0:0:0:0:
281,362,28403,1,8,0:0:0:0:
232,367,28521,1,10,0:1:0:0:
189,343,28639,1,8,0:1:0:0:
167,299,28757,6,0,L|174:237,1,56.2499982833863,10|0,0:1|0:0,0:0:0:0:
7,171,28993,1,2,0:0:0:0:
5,183,29111,2,0,P|60:230|130:190,1,112.499996566773,8|0,0:1|0:0,0:0:0:0:
326,144,29466,6,0,P|271:188|203:167,1,131.249995994568,8|0,0:0|0:0,0:0:0:0:
256,111,29939,1,10,0:1:0:0:
177,247,30174,1,10,0:0:0:0:
177,247,30411,1,2,0:0:0:0:
274,366,30647,6,0,L|385:354,1,112.499996566773,8|2,0:1|0:0,0:0:0:0:
457,384,31001,2,0,L|464:322,1,56.2499982833863,8|2,0:1|0:0,0:0:0:0:
420,156,31237,5,0,0:0:0:0:
411,160,31355,2,0,P|376:221|407:285,1,131.249995994568,10|0,0:0|0:0,0:0:0:0:
504,228,31828,5,10,0:1:0:0:
506,223,31946,1,8,0:1:0:0:
508,218,32064,2,0,L|452:224,1,56.2499982833863,8|8,0:0|0:0,0:0:0:0:
282,147,32300,6,0,L|338:142,1,43.749998664856,8|8,0:1|0:1,0:0:0:0:
387,28,32536,6,0,L|381:97,1,56.2499982833863,12|0,0:1|0:0,0:0:0:0:
388,268,32773,1,2,0:0:0:0:
395,274,32891,2,0,L|405:161,1,112.499996566773,8|0,0:1|0:0,0:0:0:0:
246,79,33245,6,0,P|204:135|228:202,1,131.249995994568,10|0,0:0|0:0,0:0:0:0:
282,147,33718,1,10,3:1:0:0:
152,233,33954,6,0,L|41:245,1,112.499996566773,10|2,0:0|0:0,0:0:0:0:
35,250,34308,1,0,0:0:0:0:
31,255,34426,6,0,P|22:298|35:330,1,56.2499982833863,8|0,0:1|0:0,0:0:0:0:
149,381,34662,1,2,0:0:0:0:
161,383,34781,2,0,P|208:328|168:258,1,112.499996566773,8|0,0:1|0:0,0:0:0:0:
16,168,35135,6,0,L|159:153,1,131.249995994568,10|0,0:0|0:0,0:0:0:0:
265,176,35607,5,10,0:1:0:0:
269,180,35725,1,8,0:1:0:0:
273,184,35844,2,0,L|217:190,1,56.2499982833863,8|8,0:0|0:0,0:0:0:0:
218,66,36080,6,0,L|212:122,1,43.749998664856,10|0,0:1|0:0,0:0:0:0:
339,307,36316,6,0,L|352:176,1,131.249995994568,8|2,0:1|0:0,0:0:0:0:
506,24,37025,2,0,P|445:97|332:77,1,200,10|8,0:0|0:1,0:0:0:0:
200,21,37733,1,8,0:0:0:0:
138,197,37970,1,2,0:0:0:0:
22,79,38206,6,0,L|165:64,1,112.499996566773,8|8,0:1|0:1,0:0:0:0:
206,101,38678,1,10,0:0:0:0:
45,318,38914,2,0,P|48:224|138:197,1,200,6|8,0:0|0:1,0:0:0:0:
282,329,39623,5,8,0:0:0:0:
283,335,39741,1,8,0:0:0:0:
284,341,39859,2,0,L|280:372,1,31.25,8|8,0:1|0:1,0:0:0:0:
111,273,40096,1,12,0:1:0:0:
214,216,40332,6,0,L|202:326,1,87.499997329712,0|2,0:0|0:0,0:0:0:0:
361,367,40804,2,0,L|376:223,1,131.249995994568,8|8,0:0|0:0,0:0:0:0:
370,222,41277,1,10,0:1:0:0:
454,292,41513,1,10,0:0:0:0:
291,151,41749,6,0,L|401:139,1,87.499997329712,2|8,0:0|0:1,0:0:0:0:
473,51,42222,1,0,0:0:0:0:
473,51,42340,2,0,L|362:63,1,87.499997329712,8|0,0:1|0:0,0:0:0:0:
311,28,42694,2,0,P|245:21|218:105,1,131.249995994568,10|8,0:0|0:0,0:0:0:0:
216,81,43166,1,10,0:1:0:0:
183,249,43403,2,0,L|195:139,1,87.499997329712,14|0,0:0|0:0,0:0:0:0:
80,20,43875,5,10,0:1:0:0:
133,100,44111,1,0,0:0:0:0:
133,100,44229,2,0,L|46:109,1,87.499997329712,8|0,0:1|0:0,0:0:0:0:
27,116,44584,2,0,P|-4:174|30:240,1,131.249995994568,10|8,0:1|0:0,0:0:0:0:
32,241,45056,1,8,0:1:0:0:
118,365,45292,2,0,L|130:255,1,87.499997329712,10|4,0:0|0:0,0:0:0:0:
103,205,45647,6,0,L|191:196,1,87.499997329712,2|0,0:0|0:0,0:0:0:0:
201,195,46001,2,0,L|194:255,1,43.749998664856,8|8,0:0|0:1,0:0:0:0:
244,302,46237,1,2,0:0:0:0:
360,223,46473,1,2,0:0:0:0:
418,348,46710,2,0,L|331:357,1,87.499997329712,2|8,0:0|0:1,0:0:0:0:
325,348,47064,1,2,0:0:0:0:
320,338,47182,2,0,L|328:270,1,43.749998664856,8|8,0:0|0:0,0:0:0:0:
360,223,47418,1,2,0:0:0:0:
230,60,47655,5,12,0:1:0:0:
114,121,47891,2,0,P|83:179|117:245,1,131.249995994568,2|8,0:0|0:0,0:0:0:0:
112,244,48363,2,0,L|255:228,1,131.249995994568,10|8,0:1|0:0,0:0:0:0:
254,228,48836,1,8,0:1:0:0:
230,60,49072,2,0,L|220:146,1,87.499997329712,8|2,0:0|0:0,0:0:0:0:
289,310,49544,5,14,0:1:0:0:
404,364,49781,1,10,0:0:0:0:
404,364,49899,2,0,L|413:277,1,87.499997329712,8|8,0:1|2:0,2:0:0:0:
413,265,50253,2,0,P|383:217|302:222,1,131.249995994568,10|8,0:1|0:0,0:0:0:0:
297,224,50725,2,0,L|254:229,1,43.749998664856,10|8,0:1|0:1,0:0:0:0:
132,132,50962,1,14,0:0:0:0:
155,302,51198,2,0,L|164:215,1,87.499997329712,2|12,0:0|0:1,0:0:0:0:
229,34,51670,6,0,L|98:48,1,131.249995994568,2|0,0:0|0:0,0:0:0:0:
85,50,52143,1,10,0:1:0:0:
33,229,52379,2,0,L|163:214,1,131.249995994568,2|10,0:0|0:1,0:0:0:0:
239,193,52851,2,2,L|230:279,1,87.499997329712,12|2,0:0|0:0,0:0:0:0:
352,338,53324,6,0,L|366:191,2,131.249995994568,10|10|10,0:1|0:0|0:0,0:0:0:0:
354,191,54269,1,8,0:0:0:0:
260,371,54505,1,8,0:3:0:0:
454,223,54741,1,0,0:0:0:0:
454,223,54859,1,0,0:0:0:0:
454,223,54977,2,0,L|450:260,3,21.874999332428
481,143,55214,6,0,P|453:78|347:89,1,168.749994850159,6|0,0:0|0:0,0:0:0:0:
268,201,55686,6,0,L|277:118,1,78.125,8|0,0:0|0:0,0:0:0:0:
273,110,56040,2,8,L|277:70,2,21.874999332428
329,269,56395,1,8,0:3:0:0:
190,136,56631,5,8,0:1:0:0:
150,118,56749,1,8,0:1:0:0:
107,122,56867,1,8,0:0:0:0:
72,148,56985,1,8,0:0:0:0:
54,187,57103,6,0,L|68:334,1,125,14|8,0:1|0:1,0:0:0:0:
60,328,57458,2,0,P|102:372|185:356,1,125,2|0,0:0|0:0,0:0:0:0:
287,315,57812,2,0,L|222:322,1,62.5,2|0,0:0|0:0,0:0:0:0:
257,177,58048,1,2,3:2:0:0:
257,177,58166,2,0,L|250:240,1,62.5,8|8,0:0|0:1,0:0:0:0:
382,372,58403,2,0,L|396:225,1,125,2|0,0:0|0:0,0:0:0:0:
395,238,58757,2,0,L|330:245,1,62.5,2|0,0:0|0:0,0:0:0:0:
257,177,58993,5,10,0:1:0:0:
360,10,59229,1,10,0:1:0:0:
360,10,59348,2,0,P|420:8|468:78,1,125,2|0,0:0|0:0,0:0:0:0:
462,61,59702,2,0,L|455:124,2,62.5,2|0|0,0:0|0:0|3:0,0:0:0:0:
473,205,60056,1,8,0:0:0:0:
473,205,60174,2,0,L|466:268,1,62.5,10|0,0:1|0:0,0:0:0:0:
395,175,60411,2,0,L|248:189,1,125,8|2,0:0|0:0,0:0:0:0:
257,177,60765,1,0,0:0:0:0:
257,177,60883,6,0,L|110:191,2,125,10|10|10,0:1|0:1|0:0,0:0:0:0:
443,353,61592,1,2,0:0:0:0:
443,353,61710,2,0,L|318:364,1,125,8|8,0:0|0:0,0:0:0:0:
308,357,62064,2,0,L|315:294,1,62.5,10|0,0:1|0:0,0:0:0:0:
257,177,62300,2,0,L|250:240,1,62.5,10|0,0:0|0:0,0:0:0:0:
150,359,62536,1,2,0:0:0:0:
150,359,62655,1,0,0:0:0:0:
150,359,62774,6,0,P|88:370|36:300,1,125,2|8,0:0|0:1,0:0:0:0:
39,322,63127,2,0,L|50:197,1,125,2|0,0:0|0:0,0:0:0:0:
0,131,63481,1,10,0:1:0:0:
0,131,63599,2,0,P|42:87|125:103,1,125,8|8,0:0|0:0,0:0:0:0:
225,19,63954,2,0,L|149:26,1,62.5,10|0,0:1|0:0,0:0:0:0:
135,161,64190,2,0,L|260:150,1,125,8|10,0:0|0:0,0:0:0:0:
312,87,64544,1,8,0:0:0:0:
382,122,64662,6,0,B|390:137|390:137|382:210,1,62.5,12|0,0:1|0:0,0:0:0:0:
349,381,64899,2,0,L|356:318,1,62.5,10|0,0:1|0:0,0:0:0:0:
512,216,65135,2,0,P|470:260|387:244,1,125,10|2,0:0|0:0,0:0:0:0:
267,247,65489,1,0,0:0:0:0:
267,247,65607,2,0,L|331:242,2,62.5,2|8|8,3:2|0:0|0:1,0:0:0:0:
82,327,65962,2,0,L|207:316,1,125,2|0,0:0|0:0,0:0:0:0:
217,315,66316,2,0,L|210:378,1,62.5,2|0,0:0|0:0,0:0:0:0:
82,327,66552,6,0,P|52:266|109:190,1,125,10|8,0:1|0:1,0:0:0:0:
75,208,66907,2,0,L|200:197,1,125,2|0,0:0|0:0,0:0:0:0:
331,242,67261,2,0,L|267:247,2,62.5,2|0|0,0:0|0:0|3:0,0:0:0:0:
282,100,67615,1,8,0:0:0:0:
282,100,67733,2,0,L|275:163,1,62.5,10|0,0:1|0:0,0:0:0:0:
408,275,67970,2,0,L|423:115,1,125,10|2,0:0|0:0,0:0:0:0:
418,139,68324,1,0,0:0:0:0:
416,127,68442,5,8,0:1:0:0:
331,242,68678,1,10,0:1:0:0:
485,308,68914,2,0,L|500:148,1,125,10|2,0:0|0:0,0:0:0:0:
495,172,69269,1,0,0:0:0:0:
331,242,69505,1,8,0:0:0:0:
331,242,69623,2,0,L|395:237,1,62.5,10|0,0:1|0:0,0:0:0:0:
496,183,69859,2,0,L|485:308,1,125,10|2,0:0|0:0,0:0:0:0:
487,316,70214,1,0,0:0:0:0:
490,324,70332,6,0,P|448:368|365:352,1,125,2|8,0:0|0:1,0:0:0:0:
213,320,70686,1,2,0:0:0:0:
213,320,70804,2,0,L|277:315,1,62.5,8|0,0:0|0:0,0:0:0:0:
313,382,71040,2,0,L|324:257,1,125,2|8,0:0|0:1,0:0:0:0:
311,229,71395,1,8,0:0:0:0:
273,207,71513,1,2,0:0:0:0:
230,208,71631,1,2,0:0:0:0:
194,231,71749,5,10,0:0:0:0:
146,266,71867,1,0,3:0:0:0:
88,268,71985,1,8,0:3:0:0:
38,237,72103,1,4,0:3:0:0:
13,184,72221,6,0,L|27:37,1,125,14|8,0:1|0:1,0:0:0:0:
19,43,72576,2,0,P|61:-1|144:15,1,125,2|0,0:0|0:0,0:0:0:0:
245,45,72930,2,0,L|182:50,1,62.5,2|0,0:0|0:0,0:0:0:0:
121,177,73166,1,2,3:2:0:0:
121,177,73285,2,0,L|183:171,1,62.5,8|8,0:0|0:1,0:0:0:0:
385,110,73521,2,0,L|260:121,1,125,2|0,0:0|0:0,0:0:0:0:
250,123,73875,2,0,P|264:151|262:190,1,62.5,2|0,0:0|0:0,0:0:0:0:
202,370,74111,6,0,L|216:223,2,125,10|10|10,0:1|0:1|0:0,0:0:0:0:
52,329,74820,1,2,0:0:0:0:
52,329,74938,2,0,P|108:290|187:348,1,125,8|8,0:0|0:0,0:0:0:0:
202,370,75292,2,0,L|264:364,1,62.5,10|0,0:1|0:0,0:0:0:0:
463,358,75529,2,0,P|397:376|332:307,1,125,8|2,0:0|0:0,0:0:0:0:
344,344,75883,1,0,0:0:0:0:
344,344,76001,6,0,L|354:218,2,125,10|10|10,0:1|0:1|0:0,0:0:0:0:
486,318,76710,1,10,0:1:0:0:
486,318,76828,2,0,L|496:192,1,125,8|8,0:0|0:0,0:0:0:0:
498,175,77182,2,0,L|435:181,1,62.5,10|0,0:1|0:0,0:0:0:0:
291,225,77418,2,0,L|354:219,1,62.5,10|0,0:0|0:0,0:0:0:0:
384,14,77655,1,2,0:0:0:0:
384,14,77773,1,0,0:0:0:0:
384,14,77891,6,0,P|342:68|391:153,1,125,10|8,0:1|0:1,0:0:0:0:
361,127,78245,2,0,L|236:138,1,125,2|0,0:0|0:0,0:0:0:0:
166,108,78599,1,2,0:0:0:0:
166,108,78718,2,0,P|122:150|138:233,1,125,8|8,0:0|0:0,0:0:0:0:
216,333,79072,2,0,L|223:270,1,62.5,10|0,0:1|0:0,0:0:0:0:
18,302,79308,2,0,L|143:291,1,125,12|10,0:0|0:0,0:0:0:0:
216,333,79662,1,8,0:0:0:0:
289,374,79781,6,0,L|414:363,2,125,14|8|8,0:1|0:1|0:0,0:0:0:0:
179,204,80489,1,8,0:1:0:0:
179,204,80607,2,0,P|246:192|293:278,1,125,8|8,0:0|0:0,0:3:0:0:
292,235,80962,1,8,0:1:0:0:
413,363,81198,2,0,L|424:238,1,125,10|2,0:0|0:0,0:0:0:0:
414,227,81552,1,0,0:0:0:0:
414,227,81670,6,0,L|425:102,1,125,10|8,0:1|0:1,0:0:0:0:
432,88,82025,2,0,P|380:124|303:82,1,125,2|0,0:0|0:0,0:0:0:0:
258,54,82379,1,2,0:0:0:0:
258,54,82497,2,0,P|206:17|129:59,1,125,8|8,0:0|0:0,0:0:0:0:
142,43,82851,1,8,0:1:0:0:
51,243,83088,1,8,0:0:0:0:
0,89,83324,1,2,0:0:0:0:
203,121,83560,6,0,L|78:132,1,125,14|8,0:1|0:1,0:0:0:0:
70,134,83914,2,0,P|35:193|96:270,1,125,2|0,0:0|0:0,0:0:0:0:
16,315,84269,1,2,0:0:0:0:
16,315,84387,2,0,P|58:359|141:343,1,125,8|8,0:1|0:1,0:0:0:0:
184,235,84741,2,0,L|177:298,1,62.5,8|0,0:1|0:0,0:0:0:0:
331,367,84977,2,0,L|342:242,1,125,12|0,0:0|0:0,0:0:0:0:
265,207,85332,1,2,0:0:0:0:
265,207,85450,6,0,L|254:332,1,125,2|0,0:0|0:0,0:0:0:0:
331,367,85804,1,0,0:0:0:0:
331,367,85922,2,0,P|389:384|453:328,1,125,10|0,0:0|0:0,0:0:0:0:
443,143,86395,2,0,P|384:125|320:181,1,125,6|8,0:0|0:1,0:0:0:0:
265,207,86749,1,8,0:0:0:0:
265,207,86867,2,0,L|140:218,1,125,10|8,0:0|0:1,0:0:0:0:
0,176,87340,5,6,0:0:0:0:
256,192,87458,12,0,89229,0:0:0:0:
