osu file format v14

[General]
AudioFilename: audio.mp3
AudioLeadIn: 2000
PreviewTime: 174352
Countdown: 0
SampleSet: Soft
StackLeniency: 0.7
Mode: 0
LetterboxInBreaks: 0
WidescreenStoryboard: 0

[Editor]
DistanceSpacing: 0.9
BeatDivisor: 4
GridSize: 4
TimelineZoom: 1

[Metadata]
Title:Mirror
TitleUnicode:Mirror
Artist:Yasuda Rei
ArtistUnicode:安田レイ
Creator:Modem
Version:Easy
Source:魔法科高校の劣等生
Tags:林奈津美 Hayashi Natsumi 玉井健二 Tamai Kenji 釣俊輔 Tsuri Shunsuke Mahouka Koukou no Rettousei ending the irregular at magic high school
BeatmapID:1375490
BeatmapSetID:649225

[Difficulty]
HPDrainRate:2
CircleSize:3
OverallDifficulty:2
ApproachRate:2
SliderMultiplier:0.9
SliderTickRate:1

[Events]
//Background and Video events
0,0,"bg.jpg",0,0
//Break Periods
2,174552,180351
//Storyboard Layer 0 (Background)
//Storyboard Layer 1 (Fail)
//Storyboard Layer 2 (Pass)
//Storyboard Layer 3 (Foreground)
//Storyboard Sound Samples

[TimingPoints]
494,472.44094488189,4,2,1,20,1,0
2383,-100,4,2,1,20,0,0
9942,-100,4,2,1,55,0,0
10415,-100,4,2,5,55,0,0
10651,-100,4,2,1,55,0,0
10887,-100,4,2,5,55,0,0
11360,-100,4,2,1,55,0,0
12305,-100,4,2,5,55,0,0
12777,-100,4,2,1,55,0,0
14194,-100,4,2,5,55,0,0
14431,-100,4,2,1,55,0,0
14667,-100,4,2,5,55,0,0
15139,-100,4,2,1,55,0,0
16084,-100,4,2,5,55,0,0
16556,-100,4,2,1,55,0,0
17029,-100,4,2,1,20,0,0
17501,-100,4,2,1,55,0,0
17974,-100,4,2,5,55,0,0
18210,-100,4,2,1,55,0,0
18446,-100,4,2,5,55,0,0
18919,-100,4,2,1,55,0,0
19864,-100,4,2,5,55,0,0
20336,-100,4,2,1,55,0,0
21753,-100,4,2,5,55,0,0
21990,-100,4,2,1,55,0,0
22226,-100,4,2,5,55,0,0
22698,-100,4,2,1,55,0,0
23112,-100,4,2,1,5,0,0
23171,-100,4,2,1,55,0,0
23643,-100,4,2,5,55,0,0
24116,-100,4,2,1,55,0,0
25001,-100,4,2,1,5,0,0
25060,-100,4,2,2,55,0,0
36399,-100,4,2,1,55,0,0
36753,-100,4,2,2,55,0,0
40179,-100,4,2,2,55,0,0
47738,-100,4,2,2,50,0,0
51458,-100,4,2,2,5,0,0
51517,-100,4,2,2,55,0,0
54824,-100,4,2,2,30,0,0
55297,-100,4,2,2,30,0,0
55769,-100,4,2,2,50,0,0
57186,-100,4,2,2,70,0,1
63328,-100,4,2,4,70,0,1
63564,-100,4,2,2,70,0,1
63801,-100,4,2,3,70,0,1
64273,-100,4,2,2,70,0,1
64509,-100,4,2,2,70,0,0
64745,-100,4,2,2,70,0,1
70887,-100,4,2,4,70,0,1
71123,-100,4,2,2,70,0,1
71360,-100,4,2,3,70,0,1
71832,-100,4,2,2,70,0,1
72068,-100,4,2,2,70,0,0
72305,-100,4,2,2,70,0,1
78446,-100,4,2,4,70,0,1
78682,-100,4,2,2,70,0,1
78919,-100,4,2,3,70,0,1
79391,-100,4,2,2,70,0,1
79627,-100,4,2,2,70,0,0
79864,-100,4,2,2,50,0,1
80100,-100,4,2,2,70,0,1
84116,-100,4,2,4,70,0,1
84352,-100,4,2,2,70,0,1
84588,-100,4,2,3,70,0,1
85060,-100,4,2,2,70,0,1
85297,-100,4,2,2,70,0,0
85533,-100,4,2,2,70,0,1
85946,-100,4,2,2,5,0,1
86005,-100,4,2,2,70,0,1
86419,-100,4,2,2,5,0,1
86478,-100,4,2,2,70,0,1
87364,-100,4,2,2,5,0,1
87423,-100,4,2,2,60,0,0
98761,-100,4,2,1,60,0,0
99116,-100,4,2,2,60,0,0
101123,-100,4,2,4,60,0,0
101360,-100,4,2,2,60,0,0
102541,-100,4,2,2,60,0,0
110100,-100,4,2,2,60,0,0
113820,-100,4,2,2,5,0,0
113879,-100,4,2,2,60,0,0
117186,-100,4,2,2,30,0,0
117659,-100,4,2,2,60,0,0
119549,-100,4,2,2,75,0,1
125690,-100,4,2,4,75,0,1
125927,-100,4,2,2,75,0,1
126163,-100,4,2,3,75,0,1
126635,-100,4,2,2,75,0,1
126871,-100,4,2,2,75,0,0
127108,-100,4,2,2,75,0,1
133249,-100,4,2,4,75,0,1
133486,-100,4,2,2,75,0,1
133722,-100,4,2,3,75,0,1
134194,-100,4,2,2,75,0,1
134431,-100,4,2,2,75,0,0
134667,-100,4,2,2,75,0,1
140808,-100,4,2,4,75,0,1
141045,-100,4,2,2,75,0,1
141281,-100,4,2,3,75,0,1
141753,-100,4,2,2,75,0,1
141990,-100,4,2,2,75,0,0
142226,-100,4,2,2,75,0,1
146005,-100,4,2,2,75,0,0
147423,-100,4,2,2,50,0,0
147659,-100,4,2,2,75,0,0
147895,-100,4,2,2,40,0,1
149549,-100,4,2,2,40,0,0
149785,-100,4,2,2,75,0,1
150021,-100,4,2,2,60,0,0
152147,-100,4,2,4,40,0,0
152619,-100,4,2,2,60,0,0
154037,-100,4,2,4,40,0,0
154509,-100,4,2,2,60,0,0
155454,-100,4,2,2,50,0,0
156990,-100,4,2,2,80,0,0
157344,-100,4,2,2,60,0,0
167265,-100,4,2,4,40,0,0
167501,-100,4,2,2,60,0,0
167738,-100,4,2,3,40,0,0
168210,-100,4,2,2,60,0,0
170572,-100,4,2,2,60,0,0
172698,-100,4,2,2,5,0,0
174352,-100,4,2,2,30,0,0
181438,-100,4,2,2,70,0,0
181852,-100,4,2,2,5,0,0
181911,-100,4,2,2,50,0,0
183742,-100,4,2,2,5,0,0
183801,-100,4,2,2,50,0,0
185631,-100,4,2,2,5,0,0
185690,-100,4,2,2,50,0,0
187108,-100,4,2,2,70,0,0
187521,-100,4,2,2,5,0,0
187580,-100,4,2,2,60,0,0
188761,-100,4,2,2,70,0,0
189470,-100,4,2,2,60,0,1
189706,-100,4,2,2,80,0,1
196793,-100,4,2,2,80,0,0
197029,-100,4,2,2,80,0,1
201281,-100,4,2,4,80,0,1
201517,-100,4,2,2,80,0,1
201753,-100,4,2,3,80,0,1
202226,-100,4,2,2,80,0,1
202698,-100,4,2,2,50,0,1
203171,-100,4,2,2,80,0,1
203407,-100,4,2,2,50,0,1
204352,-100,4,2,2,80,0,0
204588,-100,4,2,2,50,0,1
204824,-100,4,2,2,80,0,1
205297,-100,4,2,2,50,0,1
205769,-100,4,2,2,80,0,1
206478,-100,4,2,2,80,0,0
206714,-100,4,2,2,45,0,0
207895,-100,4,2,2,80,0,0
208368,-100,4,2,2,80,0,1
210494,-100,4,2,2,50,0,1
211911,-100,4,2,2,80,0,0
212147,-100,4,2,2,80,0,1
212383,-100,4,2,2,70,0,1
214509,-100,4,2,4,40,0,1
214982,-100,4,2,2,70,0,1
216399,-100,4,2,4,40,0,1
216871,-100,4,2,2,70,0,1
218289,-100,4,2,4,40,0,1
218761,-100,4,2,2,70,0,1
219470,-100,4,2,2,70,0,0
219706,-100,4,2,2,70,0,1
225139,-100,4,2,2,70,0,0
225375,-100,4,2,2,70,0,1
225789,-100,4,2,2,5,0,1
225848,-100,4,2,2,40,0,1
226261,-100,4,2,2,5,0,1
226320,-100,4,2,2,70,0,1
226734,-100,4,2,2,5,0,1
226793,-100,4,2,2,70,0,1
227206,-100,4,2,2,5,0,1
227265,-100,4,2,2,70,0,0
227501,-100,4,2,2,5,0,0

[Colours]
Combo1 : 108,138,255
Combo2 : 4,225,181
Combo3 : 138,217,255
SliderTrackOverride : 0,18,91
SliderBorder : 221,244,255

[HitObjects]
84,344,494,6,0,B|104:300|84:260|84:260|180:260|180:260|164:200|208:168,1,270,2|2,0:1|0:0,0:0:0:0:
257,231,2383,2,0,P|275:188|258:129,1,90,2|0,0:1|0:0,0:0:0:0:
203,97,3328,2,0,L|96:92,1,90,8|0,1:2|0:0,0:0:0:0:
57,34,4273,6,0,P|34:75|43:131,1,90,2|0,0:1|0:0,0:0:0:0:
68,192,5218,2,0,L|64:288,1,90,8|0,1:2|0:0,0:0:0:0:
132,328,6163,6,0,P|176:320|232:333,1,90,2|0,0:1|0:0,0:0:0:0:
296,356,7108,1,8,1:2:0:0:
364,312,7580,1,0,0:0:0:0:
444,308,8053,6,0,P|427:261|384:235,1,90,2|0,0:1|0:0,0:0:0:0:
323,202,8997,1,2,0:0:0:0:
255,246,9469,1,0,0:0:0:0:
174,239,9942,6,0,P|197:304|264:327,2,135,4|4|2,0:1|0:0|0:3,0:0:0:0:
255,246,11832,2,0,P|213:168|116:182,1,180,4|2,0:0|0:3,0:0:0:0:
64,216,13249,1,2,0:3:0:0:
20,148,13722,6,0,B|36:100|12:64|12:64|68:64,2,135,4|4|2,0:0|0:0|0:3,0:0:0:0:
64,216,15612,2,0,B|56:308|56:308|104:288|152:320,1,180,4|2,0:0|0:3,0:0:0:0:
216,344,17029,1,2,0:0:0:0:
268,280,17501,6,0,B|272:227|272:227|259:200|259:200|264:147,2,135,4|4|2,0:0|0:0|0:3,0:0:0:0:
332,332,19391,2,0,P|406:323|433:223,1,180,4|2,0:0|0:3,0:0:0:0:
359,255,20808,1,2,0:3:0:0:
378,176,21281,6,0,P|444:152|508:193,2,135,4|4|2,0:0|0:0|0:3,0:0:0:0:
300,199,23171,2,0,B|248:155|248:155|192:191|124:147,1,180,4|2,0:0|0:3,0:0:0:0:
76,108,24588,1,4,0:0:0:0:
4,69,25060,6,0,P|54:29|129:46,2,135,4|8|8,3:1|0:0|0:0,0:0:0:0:
76,108,26950,2,0,B|71:159|71:159|84:186|84:186|80:239,2,135,4|8|8,0:0|0:0|0:0,0:0:0:0:
152,80,28840,6,0,B|196:104|240:88|240:88|236:144,2,135,4|8|8,0:0|0:0|0:0,0:0:0:0:
76,108,30730,2,0,B|52:152|72:200|72:200|92:252|64:296,1,180,4|0,0:0|0:0,0:0:0:0:
140,328,32147,1,8,0:0:0:0:
208,372,32619,6,0,P|221:328|172:254,2,135,4|8|8,3:1|0:0|0:0,0:0:0:0:
140,328,34509,2,0,B|100:344|100:344|-4:328,2,135,4|8|8,0:0|0:0|0:0,0:0:0:0:
91,261,36399,6,0,B|39:253|39:253|60:211|36:159,2,135,2|8|8,0:1|0:0|0:0,0:0:0:0:
160,216,38289,2,0,B|200:200|200:200|304:216,2,135,4|4|8,0:0|0:1|0:0,0:0:0:0:
138,137,40179,6,0,B|191:116|191:116|275:129|275:129|352:140|388:68,1,270,4|8,3:1|0:0,0:0:0:0:
453,117,42068,2,0,B|429:170|457:217|457:217|401:217|401:217|453:261|432:332,1,270,0|4,3:0|0:1,0:0:0:0:
374,368,43958,6,0,B|286:376|254:308|254:308|194:308|194:308|138:252,1,270,4|8,3:1|0:0,0:0:0:0:
163,181,45848,2,0,B|215:181|215:181|255:153|255:153|311:181|367:153|367:153|419:201,1,270,0|8,3:1|0:0,0:0:0:0:
464,132,47738,6,0,B|425:96|425:96|456:64|448:12,2,135,4|4|2,3:1|0:0|0:3,0:0:0:0:
406,189,49627,2,0,P|338:209|314:277,2,135,4|4|12,3:1|0:0|0:1,0:0:0:0:
428,112,51517,6,0,P|300:137|233:268,1,270,4|12,3:1|0:1,0:0:0:0:
304,292,53407,2,0,P|255:330|174:305,2,135,2|8|2,3:3|0:0|0:0,0:0:0:0:
320,212,55297,2,0,P|316:144|388:228,1,270,4|8,3:1|0:0,0:0:0:0:
355,284,57186,6,0,L|299:360,1,90,4|8,3:1|0:0,0:0:0:0:
220,354,58131,1,4,0:0:0:0:
206,274,58604,1,8,0:0:0:0:
147,218,59076,2,0,P|182:195|245:204,1,90,4|8,0:0|0:0,0:0:0:0:
308,179,60021,2,0,L|361:106,1,90,4|8,0:0|0:0,0:0:0:0:
359,25,60966,6,0,P|399:33|440:84,1,90,4|8,0:0|0:0,0:0:0:0:
479,133,61911,1,4,0:0:0:0:
435,201,62383,1,8,0:0:0:0:
360,233,62856,2,0,P|400:275|483:266,2,135,4|4|8,0:0|0:0|0:0,0:0:0:0:
284,204,64745,6,0,L|179:215,1,90,4|8,3:1|0:0,0:0:0:0:
130,263,65690,1,4,0:0:0:0:
63,216,66163,1,8,0:0:0:0:
57,298,66635,2,0,P|88:333|136:343,1,90,4|8,0:0|0:0,0:0:0:0:
210,344,67580,2,0,P|252:332|281:298,1,90,4|8,0:0|0:0,0:0:0:0:
259,220,68525,6,0,P|305:220|347:248,2,90,4|8|4,0:0|0:0|0:0,0:0:0:0:
184,248,69942,1,8,0:0:0:0:
164,328,70415,2,0,P|112:287|112:209,2,135,4|0|8,0:0|0:0|0:0,0:0:0:0:
244,332,72305,6,0,L|333:322,1,90,4|8,3:1|0:0,0:0:0:0:
406,288,73249,1,4,0:0:0:0:
370,214,73722,1,8,0:0:0:0:
420,148,74194,2,0,L|509:138,1,90,4|8,0:0|0:0,0:0:0:0:
500,59,75139,2,0,L|410:68,1,90,4|8,0:0|0:0,0:0:0:0:
346,118,76084,6,0,P|301:125|257:117,1,90,4|8,0:0|0:0,0:0:0:0:
191,74,77029,1,4,0:0:0:0:
123,118,77501,1,8,0:0:0:0:
46,142,77974,2,0,B|61:188|111:199|111:199|87:258,2,135,4|4|4,0:0|0:0|0:1,0:0:0:0:
123,118,79864,6,0,L|162:21,1,90,4|8,3:1|0:0,0:0:0:0:
232,68,80808,1,4,0:0:0:0:
308,36,81281,1,8,0:0:0:0:
364,96,81753,2,0,L|330:179,1,90,4|8,0:0|0:0,0:0:0:0:
355,256,82698,2,0,P|310:258|263:225,1,90,4|8,0:0|0:0,0:0:0:0:
200,197,83643,6,0,P|128:205|88:257,2,135,4|4|4,3:1|0:0|0:1,0:0:0:0:
269,154,85533,6,0,L|303:71,1,90,4|8,0:1|0:3,0:0:0:0:
380,40,86478,1,4,0:1:0:0:
420,112,86950,1,8,0:0:0:0:
388,188,87423,6,0,P|455:187|502:121,2,135,4|4|8,3:1|0:0|0:0,0:0:0:0:
320,143,89312,2,0,B|288:126|255:140|255:140|218:154|187:134,2,135,4|8|8,0:0|0:0|0:0,0:0:0:0:
388,188,91202,6,0,B|404:228|404:228|380:328,2,135,4|8|8,0:0|0:0|0:0,0:0:0:0:
320,143,93092,2,0,P|252:175|322:210,1,180,4|0,0:0|0:0,0:0:0:0:
388,188,94509,1,8,0:0:0:0:
420,112,94982,6,0,P|464:156|453:238,2,135,4|8|8,3:1|0:0|0:0,0:0:0:0:
342,88,96871,2,0,B|291:93|291:93|264:80|264:80|211:84,2,135,4|8|8,0:0|0:0|0:0,0:0:0:0:
364,168,98761,6,0,B|296:175|296:175|308:252,2,135,2|8|8,0:1|0:0|0:0,0:0:0:0:
406,98,100651,2,0,P|445:155|428:220,2,135,4|4|8,0:0|0:1|0:0,0:0:0:0:
364,168,102541,6,0,B|284:184|240:124|240:124|196:124|196:124|252:200,1,270,4|8,3:1|0:0,0:0:0:0:
172,228,104431,2,0,B|122:160|122:160|78:188|24:168|24:168|-4:256,1,270,0|4,3:0|0:1,0:0:0:0:
16,328,106320,6,0,B|57:352|110:334|110:334|166:314|232:341|232:341|202:296,1,270,4|8,3:1|0:0,0:0:0:0:
263,244,108210,2,0,B|313:319|313:319|383:260|383:260|408:308|463:308,1,270,4|8,0:0|0:0,0:0:0:0:
459,226,110100,6,0,P|410:182|341:190,2,135,4|4|2,3:1|0:0|0:3,0:0:0:0:
453,308,111990,2,0,L|305:316,2,135,4|4|12,3:1|0:0|0:1,0:0:0:0:
459,226,113879,6,0,B|451:174|487:142|487:142|439:150|407:118|407:118|375:162|379:210,1,270,4|4,3:1|0:1,0:0:0:0:
298,191,115769,2,0,P|314:119|349:62,2,135,2|8|2,3:3|0:0|0:0,0:0:0:0:
288,272,117659,2,0,P|192:312|229:199,1,270,4|8,0:1|0:0,0:0:0:0:
298,191,119549,6,0,P|339:208|367:251,1,90,4|8,3:1|0:0,0:0:0:0:
404,316,120494,1,4,0:0:0:0:
329,348,120966,1,8,0:0:0:0:
261,303,121438,2,0,L|169:323,1,90,4|8,0:0|0:0,0:0:0:0:
104,280,122383,2,0,P|96:236|105:191,1,90,4|8,0:0|0:0,0:0:0:0:
163,135,123328,6,0,P|207:127|252:136,1,90,4|8,0:0|0:0,0:0:0:0:
320,176,124273,1,4,0:0:0:0:
388,132,124745,1,8,0:0:0:0:
376,51,125218,2,0,P|432:63|470:134,2,135,4|4|8,0:0|0:0|0:0,0:0:0:0:
388,132,127108,6,0,L|360:228,1,90,4|8,3:1|0:0,0:0:0:0:
298,268,128053,1,4,0:0:0:0:
235,215,128525,1,8,0:0:0:0:
154,223,128997,2,0,P|166:171|209:137,1,90,4|8,0:0|0:0,0:0:0:0:
268,123,129942,2,0,L|293:36,1,90,4|8,0:0|0:0,0:0:0:0:
371,43,130887,6,0,P|415:52|474:33,2,90,4|8|4,0:0|0:0|0:0,0:0:0:0:
293,37,132305,1,8,0:0:0:0:
248,104,132777,2,0,B|228:153|252:196|252:196|228:240,2,135,4|4|8,0:0|0:0|0:0,0:0:0:0:
328,92,134667,6,0,P|308:51|251:23,1,90,4|8,3:1|0:0,0:0:0:0:
194,44,135612,1,4,0:0:0:0:
160,117,136084,1,8,0:0:0:0:
86,148,136556,2,0,L|102:256,1,90,4|8,0:0|0:0,0:0:0:0:
172,276,137501,2,0,P|216:267|275:286,1,90,4|8,0:0|0:0,0:0:0:0:
303,346,138446,6,0,P|333:313|335:251,1,90,4|8,0:0|0:0,0:0:0:0:
294,203,139391,1,4,0:0:0:0:
344,138,139864,1,8,0:0:0:0:
423,153,140336,2,0,P|415:99|330:59,2,135,4|4|12,0:0|0:0|0:1,0:0:0:0:
372,217,142226,6,0,L|380:325,1,90,4|8,3:1|0:0,0:0:0:0:
316,360,143171,1,4,0:0:0:0:
244,324,143643,1,8,0:0:0:0:
162,321,144116,2,0,P|173:282|227:244,1,90,4|8,0:0|0:0,0:0:0:0:
260,188,145060,2,0,L|253:98,1,90,4|8,0:0|0:0,0:0:0:0:
186,56,146005,6,0,B|142:76|102:56|102:56|42:56,2,135,4|0|8,3:1|0:0|0:3,0:0:0:0:
253,98,147895,6,0,L|259:181,2,67.5,4|8|8,3:1|0:0|0:0,0:0:0:0:
288,76,148840,2,0,P|332:84|377:75,1,90,8|8,0:0|0:0,0:0:0:0:
441,123,149785,6,0,L|448:213,1,90,4|8,3:1|0:0,0:0:0:0:
384,264,150730,1,4,0:0:0:0:
316,220,151202,1,8,0:0:0:0:
247,262,151675,6,0,P|252:170|332:141,1,180,4|4,0:0|0:0,0:0:0:0:
380,80,153092,1,8,0:0:0:0:
304,48,153564,2,0,B|252:60|216:32|216:32|140:96,1,180,4|4,0:0|0:0,0:0:0:0:
88,140,154982,1,8,0:0:0:0:
88,222,155454,6,0,L|28:272,2,67.5,4|4|4,3:1|3:1|3:1,0:0:0:0:
128,222,156399,2,0,B|173:222|173:222|224:202,1,90,4|12,3:1|3:1,0:0:0:0:
264,142,157344,6,0,P|292:180|287:239,1,90,4|8,0:0|0:0,0:0:0:0:
338,289,158289,2,0,L|442:289,1,90,4|8,0:0|0:0,0:0:0:0:
472,221,159234,2,0,P|474:176|501:141,2,90,4|8|4,0:0|0:0|0:0,0:0:0:0:
428,289,160651,1,8,0:0:0:0:
349,308,161123,6,0,L|257:252,1,90,4|8,0:0|0:0,0:0:0:0:
193,276,162068,2,0,L|169:176,1,90,4|8,0:0|0:0,0:0:0:0:
104,144,163013,2,0,L|160:60,2,90,4|8|4,0:0|0:0|0:0,0:0:0:0:
52,208,164431,1,12,0:1:0:0:
104,272,164903,6,0,P|148:280|193:271,1,90,12|8,3:1|0:0,0:0:0:0:
264,232,165848,1,4,0:0:0:0:
328,280,166320,1,8,0:0:0:0:
341,360,166793,2,0,P|396:325|405:258,2,135,4|4|12,0:0|0:0|0:1,0:0:0:0:
264,332,168682,6,0,L|172:356,1,90,4|8,3:1|0:0,0:0:0:0:
97,369,169627,1,4,0:0:0:0:
52,301,170100,1,8,0:0:0:0:
103,236,170572,6,0,B|112:192|112:192|98:127,1,90,4|8,3:1|0:0,0:0:0:0:
181,130,171517,2,0,B|190:173|190:173|230:226,1,90,8|8,0:0|0:0,0:0:0:0:
272,272,172462,1,4,3:1:0:0:
256,192,172698,12,2,174352,3:1:0:0:
218,210,181911,5,4,0:0:0:0:
284,256,182383,1,4,0:0:0:0:
341,199,182856,2,0,L|445:191,1,90,4|4,0:0|0:0,0:0:0:0:
484,128,183801,1,4,0:0:0:0:
404,108,184273,1,4,0:0:0:0:
325,87,184745,2,0,B|281:78|281:78|216:92,1,90,4|4,0:0|0:0,0:0:0:0:
188,152,185690,6,0,B|197:196|197:196|188:240,2,90,4|4|4,0:0|0:0|0:0,0:0:0:0:
124,104,187108,1,0,1:0:0:0:
56,149,187580,6,0,L|52:237,2,67.5,4|4|4,0:1|0:1|0:1,0:0:0:0:
4,86,188761,2,0,L|52:46,1,45,8|8,0:0|0:0,0:0:0:0:
116,32,189470,6,0,L|212:32,1,90,4|8,3:1|0:0,0:0:0:0:
268,84,190415,1,4,0:0:0:0:
344,52,190887,1,8,0:0:0:0:
420,84,191360,2,0,B|464:93|464:93|508:84,2,90,4|8|4,0:0|0:0|0:0,0:0:0:0:
344,52,192777,1,8,0:0:0:0:
296,118,193249,6,0,L|300:226,1,90,4|8,0:0|0:0,0:0:0:0:
240,264,194194,1,4,0:0:0:0:
168,228,194667,1,8,0:0:0:0:
88,244,195139,2,0,P|92:196|128:157,2,90,4|8|4,0:0|0:0|0:0,0:0:0:0:
142,306,196556,1,12,0:1:0:0:
168,228,197029,6,0,L|256:208,1,90,4|8,3:1|0:0,0:0:0:0:
330,238,197974,1,4,0:0:0:0:
372,169,198446,1,8,0:0:0:0:
328,101,198919,2,0,P|288:81|224:89,2,90,4|8|4,0:0|0:0|0:0,0:0:0:0:
372,169,200336,1,8,0:0:0:0:
404,244,200808,6,0,P|448:200|437:122,2,135,4|4|12,3:1|0:0|0:1,0:0:0:0:
323,244,202698,2,0,L|247:300,1,90,4|8,3:1|0:0,0:0:0:0:
175,328,203643,1,4,0:0:0:0:
120,268,204116,1,12,0:1:0:0:
39,271,204588,6,0,P|55:219|95:191,1,90,4|8,3:1|0:0,0:0:0:0:
156,164,205533,1,8,0:0:0:0:
128,87,206005,1,8,0:0:0:0:
202,56,206478,2,0,B|238:40|238:40|258:60|258:60|322:40|322:40|386:68|462:36,1,270,2|8,3:3|0:3,0:0:0:0:
508,100,208368,6,0,L|492:208,1,90,4|8,3:1|0:0,0:0:0:0:
432,240,209312,2,0,L|456:344,1,90,0|12,0:0|0:1,0:0:0:0:
382,368,210257,2,0,P|338:360|293:369,1,90,4|8,3:1|0:0,0:0:0:0:
228,320,211202,1,12,3:1:0:0:
156,360,211675,1,8,0:0:0:0:
96,304,212147,6,0,L|109:214,1,90,4|8,3:1|0:0,0:0:0:0:
64,148,213092,1,4,0:0:0:0:
116,84,213564,1,8,0:0:0:0:
192,112,214037,2,0,B|236:136|284:116|284:116|336:96|380:124,1,180,4|4,0:0|0:0,0:0:0:0:
428,172,215454,1,8,0:0:0:0:
377,235,215927,6,0,P|462:246|509:165,1,180,4|4,0:0|0:0,0:0:0:0:
471,103,217344,1,8,0:0:0:0:
398,67,217816,2,0,B|312:92|312:92|272:52|214:63,1,180,4|4,0:0|0:0,0:0:0:0:
151,52,219234,1,12,0:1:0:0:
112,124,219706,6,0,L|99:214,1,90,4|8,3:1|0:0,0:0:0:0:
148,280,220651,1,4,0:0:0:0:
224,252,221123,1,8,0:0:0:0:
256,176,221596,2,0,P|296:212|305:266,1,90,4|8,0:0|0:0,0:0:0:0:
296,326,222541,2,0,P|339:321|380:279,1,90,4|8,0:0|0:0,0:0:0:0:
416,220,223486,6,0,L|403:130,1,90,4|8,3:1|0:0,0:0:0:0:
356,64,224431,1,4,0:0:0:0:
283,96,224903,1,12,0:1:0:0:
207,120,225375,2,0,B|163:129|163:129|119:120,2,90,12|8|4,3:1|0:3|3:1,0:0:0:0:
283,96,226793,1,8,0:3:0:0:
324,165,227265,5,4,3:1:0:0:
256,192,227501,12,0,233171,0:0:0:0:
