osu file format v14

[General]
AudioFilename: audio.mp3
AudioLeadIn: 2000
PreviewTime: 174352
Countdown: 0
SampleSet: Soft
StackLeniency: 0.7
Mode: 0
LetterboxInBreaks: 0
WidescreenStoryboard: 0

[Editor]
DistanceSpacing: 1.5
BeatDivisor: 4
GridSize: 4
TimelineZoom: 1

[Metadata]
Title:Mirror
TitleUnicode:Mirror
Artist:Yasuda Rei
ArtistUnicode:安田レイ
Creator:Modem
Version:Advanced
Source:魔法科高校の劣等生
Tags:林奈津美 Hayashi Natsumi 玉井健二 Tamai Kenji 釣俊輔 Tsuri Shunsuke Mahouka Koukou no Rettousei ending the irregular at magic high school
BeatmapID:1384468
BeatmapSetID:649225

[Difficulty]
HPDrainRate:6
CircleSize:3.8
OverallDifficulty:5
ApproachRate:7
SliderMultiplier:1.2
SliderTickRate:1

[Events]
//Background and Video events
0,0,"bg.jpg",0,0
//Break Periods
2,174552,181011
//Storyboard Layer 0 (Background)
//Storyboard Layer 1 (Fail)
//Storyboard Layer 2 (Pass)
//Storyboard Layer 3 (Foreground)
//Storyboard Sound Samples

[TimingPoints]
494,472.44094488189,4,2,1,20,1,0
2383,-100,4,2,1,20,0,0
9942,-100,4,2,1,55,0,0
17029,-100,4,2,1,20,0,0
17501,-100,4,2,1,55,0,0
23112,-100,4,2,1,5,0,0
23171,-100,4,2,1,55,0,0
25001,-100,4,2,1,5,0,0
25060,-100,4,2,2,55,0,0
36399,-100,4,2,1,55,0,0
36753,-100,4,2,2,55,0,0
40179,-100,4,2,2,55,0,0
47738,-100,4,2,2,50,0,0
51458,-100,4,2,2,5,0,0
51517,-100,4,2,2,55,0,0
54824,-100,4,2,2,30,0,0
55297,-100,4,2,2,30,0,0
55769,-100,4,2,2,50,0,0
57186,-100,4,2,2,70,0,1
64509,-100,4,2,2,70,0,0
64745,-100,4,2,2,70,0,1
71360,-100,4,2,2,40,0,1
71832,-100,4,2,2,70,0,1
72068,-100,4,2,2,70,0,0
72305,-100,4,2,2,70,0,1
79627,-100,4,2,2,70,0,0
79864,-100,4,2,2,50,0,1
80100,-100,4,2,2,70,0,1
85297,-100,4,2,2,70,0,0
85533,-100,4,2,2,70,0,1
85946,-100,4,2,2,5,0,1
86005,-100,4,2,2,70,0,1
86419,-100,4,2,2,5,0,1
86478,-100,4,2,2,70,0,1
87364,-100,4,2,2,5,0,1
87423,-100,4,2,2,60,0,0
98761,-100,4,2,1,60,0,0
99116,-100,4,2,2,60,0,0
102541,-100,4,2,2,60,0,0
110100,-100,4,2,2,60,0,0
113820,-100,4,2,2,5,0,0
113879,-100,4,2,2,60,0,0
117186,-100,4,2,2,30,0,0
117659,-100,4,2,2,60,0,0
119549,-100,4,2,2,75,0,1
126871,-100,4,2,2,75,0,0
127108,-100,4,2,2,75,0,1
133722,-100,4,2,2,40,0,1
134194,-100,4,2,2,75,0,1
134431,-100,4,2,2,75,0,0
134667,-100,4,2,2,75,0,1
141990,-100,4,2,2,75,0,0
142226,-100,4,2,2,75,0,1
146005,-100,4,2,2,75,0,0
147423,-100,4,2,2,50,0,0
147659,-100,4,2,2,75,0,0
147895,-100,4,2,2,40,0,1
149549,-100,4,2,2,40,0,0
149785,-100,4,2,2,75,0,1
150021,-100,4,2,2,60,0,0
155454,-100,4,2,2,50,0,0
156990,-100,4,2,2,80,0,0
157344,-100,4,2,2,60,0,0
170572,-100,4,2,2,60,0,0
172698,-100,4,2,2,5,0,0
174352,-100,4,2,2,30,0,0
181438,-100,4,2,2,70,0,0
181852,-100,4,2,2,5,0,0
181911,-100,4,2,2,50,0,0
183742,-100,4,2,2,5,0,0
183801,-100,4,2,2,50,0,0
185631,-100,4,2,2,5,0,0
185690,-100,4,2,2,50,0,0
187108,-100,4,2,2,70,0,0
187521,-100,4,2,2,5,0,0
187580,-100,4,2,2,60,0,0
188761,-100,4,2,2,70,0,0
189470,-100,4,2,2,60,0,1
189706,-100,4,2,2,80,0,1
196793,-100,4,2,2,80,0,0
197029,-100,4,2,2,80,0,1
202698,-100,4,2,2,50,0,1
203171,-100,4,2,2,80,0,1
203407,-100,4,2,2,50,0,1
204352,-100,4,2,2,80,0,0
204588,-100,4,2,2,50,0,1
204824,-100,4,2,2,80,0,1
205297,-100,4,2,2,50,0,1
205769,-100,4,2,2,80,0,1
206478,-100,4,2,2,80,0,0
206714,-100,4,2,2,45,0,0
207895,-100,4,2,2,80,0,0
208368,-100,4,2,2,80,0,1
210494,-100,4,2,2,50,0,1
211911,-100,4,2,2,80,0,0
212147,-100,4,2,2,80,0,1
212383,-100,4,2,2,70,0,1
219470,-100,4,2,2,70,0,0
219706,-100,4,2,2,70,0,1
225139,-100,4,2,2,70,0,0
225375,-100,4,2,2,70,0,1
225789,-100,4,2,2,5,0,1
225848,-100,4,2,2,40,0,1
226261,-100,4,2,2,5,0,1
226320,-100,4,2,2,70,0,1
226734,-100,4,2,2,5,0,1
226793,-100,4,2,2,70,0,1
227206,-100,4,2,2,5,0,1
227265,-100,4,2,2,70,0,0
227501,-100,4,2,2,5,0,0

[Colours]
Combo1 : 108,138,255
Combo2 : 4,225,181
Combo3 : 138,217,255
SliderTrackOverride : 0,18,91
SliderBorder : 221,244,255

[HitObjects]
80,304,494,6,0,L|88:216,1,60,2|0,0:1|0:0,0:0:0:0:
156,188,966,1,2,0:0:0:0:
228,244,1202,1,0,0:0:0:0:
316,232,1438,2,0,L|310:291,1,60,2|0,0:0|0:0,0:0:0:0:
376,352,1911,1,2,0:0:0:0:
404,268,2147,1,0,0:0:0:0:
380,180,2383,6,0,P|326:150|261:171,1,120,2|0,0:1|0:0,0:0:0:0:
228,244,3092,1,2,0:0:0:0:
156,300,3328,2,0,P|137:244|163:184,1,120,8|0,1:2|0:0,0:0:0:0:
280,64,4273,6,0,B|248:32|248:32|200:51|150:17,1,120,2|0,0:1|0:0,0:0:0:0:
88,12,4982,1,2,0:0:0:0:
20,68,5218,2,0,B|52:100|52:100|76:100|76:100|124:148,1,120,8|0,1:2|0:0,0:0:0:0:
120,316,6163,6,0,B|155:280|155:280|179:280|179:280|211:248,1,120,2|0,0:1|0:0,0:0:0:0:
252,328,6871,1,2,0:0:0:0:
288,244,7108,2,0,P|263:191|199:173,1,120,8|0,1:2|0:0,0:0:0:0:
72,56,8053,6,0,B|105:42|105:42|197:54,2,120,2|0|2,0:1|0:0|0:0,0:0:0:0:
20,228,9470,1,0,0:0:0:0:
168,332,9942,6,0,L|309:350,1,120,4|2,0:1|0:3,0:0:0:0:
372,316,10651,2,0,P|420:288|428:204,1,120,4|0,0:0|0:0,0:0:0:0:
396,148,11360,2,0,L|317:137,1,60,2|0,0:3|0:0,0:0:0:0:
292,64,11832,6,0,P|252:109|256:177,1,120,4|0,0:0|0:0,0:0:0:0:
306,237,12541,2,0,P|249:256|184:223,1,120,4|0,0:0|0:0,0:0:0:0:
124,180,13249,1,2,0:3:0:0:
112,268,13486,1,0,0:0:0:0:
52,200,13722,6,0,P|57:147|120:105,1,120,4|0,0:0|0:0,0:0:0:0:
196,108,14431,2,0,P|252:124|330:93,1,120,4|0,0:0|0:0,0:0:0:0:
376,48,15139,1,2,0:3:0:0:
452,96,15375,1,0,0:0:0:0:
432,184,15612,6,0,B|428:230|428:230|436:256|436:256|428:328,1,120,4|0,0:0|0:0,0:0:0:0:
348,340,16320,2,0,P|290:324|233:340,1,120,4|0,0:0|0:0,0:0:0:0:
148,368,17029,2,0,L|76:368,1,60,2|2,0:0|0:0,0:0:0:0:
92,280,17501,6,0,P|75:222|91:165,1,120,4|0,0:0|0:0,0:0:0:0:
176,140,18210,2,0,B|209:154|209:154|301:142,1,120,4|0,0:0|0:0,0:0:0:0:
288,52,18919,2,0,L|228:59,1,60,2|0,0:3|0:0,0:0:0:0:
140,75,19391,6,0,P|104:123|121:191,1,120,4|0,0:0|0:0,0:0:0:0:
184,236,20100,2,0,B|227:230|227:230|256:239|256:239|316:231,1,120,4|0,0:0|0:0,0:0:0:0:
316,320,20808,2,0,L|256:327,1,60,2|0,0:3|0:0,0:0:0:0:
176,372,21281,6,0,L|56:288,1,120,4|0,0:0|0:0,0:0:0:0:
108,220,21990,2,0,P|144:220|104:192,1,120,4|0,0:0|0:0,0:0:0:0:
20,208,22698,1,2,0:3:0:0:
20,208,23171,6,0,P|24:156|64:113,2,90,4|0|4,0:0|0:0|0:0,0:0:0:0:
12,300,24116,2,0,L|79:347,1,60,2|0,0:3|0:0,0:0:0:0:
132,280,24588,2,0,L|208:280,1,60,4|0,0:0|0:0,0:0:0:0:
264,336,25060,6,0,P|280:300|268:232,1,90,4|4,3:1|0:0,0:0:0:0:
392,184,25769,2,0,L|287:110,1,120,8|4,0:0|0:0,0:0:0:0:
224,173,26478,2,0,L|164:173,1,60,8|0,0:0|0:0,0:0:0:0:
76,172,26950,6,0,P|84:132|136:92,1,90,4|4,0:0|0:0,0:0:0:0:
248,60,27659,2,0,B|280:32|280:32|324:48|380:24,1,120,8|4,0:0|0:0,0:0:0:0:
444,40,28368,1,8,0:0:0:0:
444,40,28604,1,4,0:0:0:0:
460,128,28840,6,0,L|384:195,1,90,4|4,0:0|0:0,0:0:0:0:
300,288,29549,2,0,P|328:264|276:272,1,120,8|4,0:0|0:0,0:0:0:0:
216,320,30257,1,8,0:0:0:0:
136,280,30494,1,0,0:0:0:0:
148,192,30730,6,0,L|128:92,1,90,4|8,0:0|0:0,0:0:0:0:
60,221,31438,2,0,P|40:269|72:353,1,120,8|4,0:0|0:0,0:0:0:0:
136,368,32147,1,8,0:0:0:0:
136,368,32383,1,4,0:0:0:0:
216,328,32619,6,0,P|229:278|211:231,1,90,4|4,3:1|0:0,0:0:0:0:
132,136,33328,2,0,P|156:164|148:112,1,120,8|4,0:0|0:0,0:0:0:0:
108,44,34037,1,8,0:0:0:0:
196,32,34273,1,0,0:0:0:0:
254,100,34509,6,0,P|261:146|235:205,1,90,4|8,0:0|0:0,0:0:0:0:
168,296,35218,2,0,B|192:268|192:268|232:296|288:276,1,120,8|4,0:0|0:0,0:0:0:0:
356,248,35927,1,8,0:0:0:0:
356,248,36163,1,4,0:0:0:0:
392,332,36399,6,0,L|449:263,2,90,2|4|8,0:1|0:0|0:0,0:0:0:0:
216,292,37580,1,4,0:0:0:0:
144,348,37816,1,8,0:0:0:0:
133,258,38053,1,4,0:0:0:0:
212,216,38289,6,0,P|264:232|289:310,1,120,4|8,0:0|0:0,0:0:0:0:
324,372,38997,2,0,P|320:320|356:360,1,120,4|4,0:1|0:0,0:0:0:0:
448,356,39706,1,8,0:0:0:0:
448,356,39942,1,4,0:0:0:0:
480,272,40179,6,0,L|468:160,1,90,4|4,3:1|0:0,0:0:0:0:
360,104,40887,2,0,L|372:218,1,90,8|8,0:0|0:0,0:0:0:0:
348,232,41360,1,4,0:0:0:0:
264,200,41596,2,0,L|257:140,1,60,8|2,0:0|0:3,0:0:0:0:
188,84,42068,6,0,P|139:72|85:96,1,90,0|4,3:0|0:0,0:0:0:0:
102,220,42777,2,0,P|144:231|188:220,1,90,8|8,0:0|0:0,0:0:0:0:
216,256,43249,1,4,0:0:0:0:
304,280,43486,2,0,L|297:220,1,60,4|0,0:1|0:0,0:0:0:0:
256,140,43958,6,0,P|298:128|342:141,1,90,4|4,3:1|0:0,0:0:0:0:
444,232,44667,2,0,L|455:340,1,90,8|8,0:0|0:0,0:0:0:0:
424,356,45139,1,4,0:0:0:0:
340,320,45375,2,0,L|280:328,1,60,8|4,0:0|0:1,0:0:0:0:
200,372,45848,6,0,P|188:328|200:285,1,90,0|4,3:1|0:0,0:0:0:0:
312,212,46556,2,0,L|420:197,1,90,4|8,0:0|0:0,0:0:0:0:
440,224,47029,1,4,0:0:0:0:
388,296,47265,2,0,L|330:304,2,30,8|8|4,0:0|0:0|0:0,0:0:0:0:
478,290,47738,6,0,P|508:258|512:202,1,90,4|4,3:1|0:0,0:0:0:0:
424,116,48446,2,0,L|334:128,1,90,4|8,0:0|0:0,0:0:0:0:
300,100,48919,1,4,0:0:0:0:
224,148,49155,1,2,0:3:0:0:
224,148,49391,1,0,0:0:0:0:
152,92,49627,6,0,P|103:80|49:104,1,90,4|4,3:1|0:0,0:0:0:0:
104,220,50336,2,0,L|115:328,1,90,4|0,0:0|0:0,0:0:0:0:
152,336,50808,1,4,0:0:0:0:
228,288,51045,2,0,L|299:278,1,60,12|0,0:1|0:0,0:0:0:0:
368,324,51517,6,0,P|380:275|356:221,1,90,4|8,3:1|0:0,0:0:0:0:
292,128,52226,1,8,0:0:0:0:
212,172,52462,2,0,L|102:186,1,90,4|4,0:0|0:0,0:0:0:0:
84,160,52934,1,12,0:1:0:0:
108,72,53171,1,0,0:0:0:0:
196,68,53407,6,0,L|310:52,2,90,2|8|8,3:3|0:0|0:0,0:0:0:0:
108,72,54352,1,8,0:0:0:0:
84,160,54588,1,8,3:3:0:0:
168,188,54824,2,0,L|228:180,1,60,2|2,0:0|0:0,0:0:0:0:
308,220,55297,6,0,B|301:279|334:305|367:312|419:302|423:252|419:226|406:196|360:187|360:187|401:155|389:95,1,360,4|8,3:1|0:0,0:0:0:0:
304,116,56950,1,8,0:0:0:0:
236,60,57186,6,0,P|178:43|121:59,1,120,4|8,3:1|0:0,0:0:0:0:
48,112,57895,1,4,0:0:0:0:
84,196,58131,2,0,L|91:256,1,60,4|4,0:0|0:0,0:0:0:0:
164,308,58604,1,8,0:0:0:0:
240,264,58840,1,0,0:0:0:0:
308,320,59076,6,0,L|368:312,2,60,4|4|8,0:0|0:0|0:0,0:0:0:0:
320,232,59785,1,4,0:0:0:0:
240,264,60021,2,0,P|220:320|252:388,1,120,4|8,0:0|0:0,0:0:0:0:
308,320,60730,1,4,0:0:0:0:
320,232,60966,6,0,B|315:194|315:194|348:163|340:108,1,120,4|8,0:0|0:0,0:0:0:0:
252,126,61675,1,4,0:0:0:0:
188,189,61911,2,0,L|128:197,2,60,4|4|8,0:0|0:0|0:0,0:0:0:0:
176,277,62619,1,0,0:0:0:0:
133,357,62856,6,0,P|185:369|253:325,1,120,4|8,0:0|0:0,0:0:0:0:
308,280,63564,1,4,0:0:0:0:
388,324,63801,2,0,L|448:332,1,60,4|4,0:0|0:0,0:0:0:0:
460,244,64273,1,8,0:0:0:0:
412,168,64509,1,8,0:0:0:0:
364,92,64745,6,0,L|218:111,1,120,4|8,3:1|0:0,0:0:0:0:
184,172,65454,1,4,0:0:0:0:
268,208,65690,2,0,L|346:197,1,60,4|4,0:0|0:0,0:0:0:0:
412,168,66163,1,8,0:0:0:0:
460,244,66399,1,0,0:0:0:0:
488,160,66635,6,0,P|460:108|379:99,1,120,4|8,0:0|0:0,0:0:0:0:
316,109,67344,1,4,0:0:0:0:
327,200,67580,2,0,L|268:208,1,60,4|4,0:0|0:0,0:0:0:0:
212,276,68053,2,0,L|140:228,1,60,8|8,0:0|0:0,0:0:0:0:
196,160,68525,5,4,0:0:0:0:
128,100,68761,2,0,L|78:66,2,60,4|8|4,0:0|0:0|0:0,0:0:0:0:
196,160,69470,1,4,0:0:0:0:
162,242,69706,2,0,L|212:276,2,60,4|8|0,0:0|0:0|0:0,0:0:0:0:
76,268,70415,6,0,P|64:317|88:371,2,90,4|0|0,0:0|0:0|0:0,0:0:0:0:
96,180,71360,1,8,0:0:0:0:
162,242,71596,1,8,0:0:0:0:
240,196,71832,1,8,0:0:0:0:
296,268,72068,1,8,0:0:0:0:
313,179,72305,6,0,P|272:128|211:126,1,120,4|8,3:1|0:0,0:0:0:0:
132,116,73013,1,4,0:0:0:0:
88,36,73249,2,0,L|147:28,1,60,4|4,0:0|0:0,0:0:0:0:
232,56,73722,1,8,0:0:0:0:
316,24,73958,1,0,0:0:0:0:
392,76,74194,6,0,L|451:68,2,60,4|4|8,0:0|0:0|0:0,0:0:0:0:
340,148,74903,1,4,0:0:0:0:
420,184,75139,2,0,P|388:224|300:224,1,120,4|8,0:0|0:0,0:0:0:0:
236,204,75848,1,4,0:0:0:0:
156,244,76084,6,0,P|148:188|192:128,1,120,4|8,0:0|0:0,0:0:0:0:
256,84,76793,1,4,0:0:0:0:
336,128,77029,2,0,L|395:136,2,60,4|4|8,0:0|0:0|0:0,0:0:0:0:
256,84,77738,1,4,0:0:0:0:
179,135,77974,6,0,P|148:185|156:244,1,120,4|8,0:0|0:0,0:0:0:0:
236,204,78682,1,4,0:0:0:0:
300,268,78919,2,0,L|359:276,1,60,4|4,0:0|0:0,0:0:0:0:
416,344,79391,1,4,0:1:0:0:
444,260,79627,1,8,0:0:0:0:
428,172,79864,6,0,L|301:154,1,120,4|8,3:1|0:0,0:0:0:0:
236,204,80572,1,4,0:0:0:0:
280,284,80808,2,0,L|221:292,1,60,4|4,0:0|0:0,0:0:0:0:
156,356,81281,1,8,0:0:0:0:
76,312,81517,1,0,0:0:0:0:
104,228,81753,6,0,P|120:171|104:114,1,120,4|8,0:0|0:0,0:0:0:0:
72,30,82462,1,4,0:0:0:0:
160,50,82698,2,0,L|219:42,1,60,4|4,0:0|0:0,0:0:0:0:
288,102,83171,1,8,0:0:0:0:
240,178,83407,1,0,0:0:0:0:
329,166,83643,6,0,P|359:128|342:50,1,120,4|8,3:1|0:0,0:0:0:0:
264,32,84352,2,0,P|206:47|150:31,1,120,4|4,0:0|0:0,0:0:0:0:
88,96,85060,1,4,0:1:0:0:
16,44,85297,1,0,0:0:0:0:
23,133,85533,6,0,P|62:167|134:154,2,120,4|8|4,0:1|0:3|0:1,0:0:0:0:
204,112,86950,1,8,0:0:0:0:
380,68,87423,6,0,P|391:110|380:154,1,90,4|4,3:1|0:0,0:0:0:0:
264,224,88131,2,0,L|280:352,1,120,4|4,0:0|0:0,0:0:0:0:
192,316,88840,2,0,L|183:247,1,60,8|0,0:0|0:0,0:0:0:0:
212,168,89312,6,0,P|254:148|312:166,1,90,4|4,0:0|0:0,0:0:0:0:
416,216,90021,2,0,P|460:232|432:188,1,120,8|4,0:0|0:0,0:0:0:0:
420,100,90730,1,8,0:0:0:0:
420,100,90966,1,4,0:0:0:0:
332,84,91202,6,0,P|290:95|246:84,1,90,4|4,0:0|0:0,0:0:0:0:
120,32,91911,2,0,P|104:80|128:148,1,120,8|4,0:0|0:0,0:0:0:0:
172,220,92619,1,8,0:0:0:0:
256,188,92856,1,0,0:0:0:0:
228,272,93092,6,0,P|180:296|128:280,1,90,4|8,0:0|0:0,0:0:0:0:
40,204,93801,2,0,P|20:144|40:90,1,120,8|4,0:0|0:0,0:0:0:0:
110,146,94509,2,0,L|191:129,1,60,8|4,0:0|0:0,0:0:0:0:
200,48,94982,6,0,L|288:68,1,90,4|4,3:1|0:0,0:0:0:0:
416,113,95690,2,0,B|384:125|384:125|408:81|388:29,1,120,8|4,0:0|0:0,0:0:0:0:
480,28,96399,1,8,0:0:0:0:
500,116,96635,1,0,0:0:0:0:
444,188,96871,6,0,L|343:228,1,90,4|8,0:0|0:0,0:0:0:0:
304,344,97580,2,0,L|200:280,1,120,8|4,0:0|0:0,0:0:0:0:
124,324,98289,1,8,0:0:0:0:
124,324,98525,1,4,0:0:0:0:
72,252,98761,6,0,P|61:210|72:166,2,90,2|4|8,0:1|0:0|0:0,0:0:0:0:
224,152,99942,1,4,0:0:0:0:
152,208,100178,1,8,0:0:0:0:
141,118,100415,1,4,0:0:0:0:
220,76,100651,6,0,P|272:92|297:170,1,120,4|8,0:0|0:0,0:0:0:0:
308,236,101360,2,0,B|332:216|332:216|378:241|444:212,1,120,4|4,0:1|0:0,0:0:0:0:
480,156,102068,1,8,0:0:0:0:
480,156,102305,1,4,0:0:0:0:
448,72,102541,6,0,L|358:81,1,90,4|4,3:1|0:0,0:0:0:0:
292,200,103249,2,0,P|250:211|206:200,1,90,8|8,0:0|0:0,0:0:0:0:
164,180,103722,1,4,0:0:0:0:
116,256,103958,2,0,L|124:340,1,60,8|2,0:0|0:3,0:0:0:0:
204,352,104431,6,0,P|247:340|290:351,1,90,0|4,3:0|0:0,0:0:0:0:
392,264,105139,2,0,P|350:275|306:264,1,90,8|8,0:0|0:0,0:0:0:0:
264,248,105612,1,4,0:0:0:0:
216,172,105848,2,0,L|210:112,1,60,4|0,0:1|0:0,0:0:0:0:
124,88,106320,6,0,L|133:189,1,90,4|4,3:1|0:0,0:0:0:0:
156,312,107029,2,0,P|152:280|180:308,1,90,4|8,0:0|0:0,0:0:0:0:
224,320,107501,1,4,0:0:0:0:
312,344,107738,2,0,L|306:284,1,60,8|4,0:0|0:1,0:0:0:0:
264,204,108210,6,0,P|307:192|350:203,1,90,4|4,0:0|0:0,0:0:0:0:
480,240,108919,2,0,L|470:139,1,90,4|8,0:0|0:0,0:0:0:0:
432,124,109391,1,4,0:0:0:0:
356,76,109627,2,0,L|353:46,2,30,8|8|4,0:0|0:0|0:0,0:0:0:0:
288,136,110100,6,0,P|244:147|201:135,1,90,4|4,3:1|0:0,0:0:0:0:
84,68,110808,2,0,P|88:36|60:64,1,90,4|8,0:0|0:0,0:0:0:0:
16,80,111281,1,4,0:0:0:0:
52,164,111517,1,2,0:3:0:0:
52,164,111753,1,0,0:0:0:0:
140,144,111990,6,0,L|244:129,1,90,4|4,3:1|0:0,0:0:0:0:
340,212,112698,2,0,P|296:200|253:212,1,90,4|0,0:0|0:0,0:0:0:0:
216,236,113171,1,4,0:0:0:0:
260,316,113407,2,0,L|200:324,1,60,12|0,0:1|0:0,0:0:0:0:
124,280,113879,6,0,P|112:236|124:194,1,90,4|8,3:1|0:0,0:0:0:0:
208,88,114588,1,8,0:0:0:0:
288,128,114824,2,0,P|330:139|373:128,1,90,4|4,0:0|0:0,0:0:0:0:
416,108,115297,1,4,0:1:0:0:
472,180,115533,1,0,0:0:0:0:
408,244,115769,6,0,L|416:333,2,90,2|8|8,3:3|0:0|0:0,0:0:0:0:
472,180,116714,1,8,0:0:0:0:
416,108,116950,1,8,0:3:0:0:
360,40,117186,2,0,L|300:48,1,60,2|2,0:0|0:0,0:0:0:0:
244,116,117659,6,0,B|192:84|139:118|139:118|99:73|39:116|39:116|64:200|148:156,1,360,4|8,0:1|0:0,0:0:0:0:
184,240,119312,1,8,0:0:0:0:
256,296,119549,6,0,P|313:311|369:294,1,120,4|8,3:1|0:0,0:0:0:0:
444,240,120257,1,4,0:0:0:0:
408,156,120494,2,0,L|400:81,1,60,4|4,0:0|0:0,0:0:0:0:
340,32,120966,1,8,0:0:0:0:
264,76,121202,1,0,0:0:0:0:
184,36,121438,6,0,L|124:44,2,60,4|4|8,0:0|0:0|0:0,0:0:0:0:
264,76,122147,1,4,0:0:0:0:
204,144,122383,2,0,P|244:164|336:134,1,120,4|8,0:0|0:0,0:0:0:0:
400,124,123092,1,4,0:0:0:0:
484,152,123328,6,0,P|488:104|425:40,1,120,4|8,0:0|0:0,0:0:0:0:
356,44,124037,1,4,0:0:0:0:
280,88,124273,2,0,L|220:96,2,60,4|4|8,0:0|0:0|0:0,0:0:0:0:
264,176,124982,1,0,0:0:0:0:
340,224,125218,6,0,P|296:260|220:252,1,120,4|8,0:0|0:0,0:0:0:0:
152,228,125927,1,4,0:0:0:0:
112,308,126163,2,0,L|52:316,1,60,4|4,0:0|0:0,0:0:0:0:
64,228,126635,1,8,0:0:0:0:
152,228,126871,1,8,0:0:0:0:
108,148,127108,6,0,P|86:94|106:34,1,120,4|8,3:1|0:0,0:0:0:0:
176,90,127816,1,4,0:0:0:0:
244,148,128053,2,0,L|304:140,1,60,4|4,0:0|0:0,0:0:0:0:
372,196,128525,1,8,0:0:0:0:
452,156,128761,1,8,0:0:0:0:
432,244,128997,6,0,P|376:272|316:248,1,120,4|8,0:0|0:0,0:0:0:0:
244,216,129706,1,4,0:0:0:0:
180,280,129942,2,0,L|185:339,1,60,4|4,0:0|0:0,0:0:0:0:
96,348,130415,2,0,L|90:288,1,60,8|8,0:0|0:0,0:0:0:0:
128,204,130887,5,4,0:0:0:0:
208,160,131123,2,0,L|268:152,2,60,4|8|4,0:0|0:0|0:0,0:0:0:0:
128,204,131832,1,4,0:0:0:0:
90,288,132068,2,0,L|30:296,2,60,4|8|0,0:0|0:0|0:0,0:0:0:0:
168,332,132777,6,0,P|217:344|271:320,2,90,4|0|4,0:0|0:0|0:0,0:0:0:0:
211,252,133722,1,8,0:0:0:0:
144,192,133958,1,8,0:0:0:0:
188,112,134194,1,8,0:0:0:0:
121,52,134430,1,8,0:0:0:0:
212,40,134667,6,0,P|252:72|252:152,1,120,4|8,3:1|0:0,0:0:0:0:
284,224,135375,1,4,0:0:0:0:
376,224,135612,2,0,L|436:216,1,60,4|4,0:0|0:0,0:0:0:0:
484,292,136084,1,8,0:0:0:0:
412,348,136320,1,0,0:0:0:0:
328,311,136556,6,0,L|268:319,2,60,4|4|8,0:0|0:0|0:0,0:0:0:0:
288,232,137265,1,4,0:0:0:0:
328,152,137501,2,0,P|274:142|207:196,1,120,4|8,0:0|0:0,0:0:0:0:
144,224,138210,1,4,0:0:0:0:
144,312,138446,6,0,P|92:300|57:235,1,120,4|8,0:0|0:0,0:0:0:0:
81,159,139155,1,4,0:0:0:0:
144,224,139391,2,0,L|204:216,2,60,4|4|8,0:0|0:0|0:0,0:0:0:0:
81,159,140100,1,4,0:0:0:0:
168,140,140336,6,0,P|232:136|280:176,1,120,4|8,0:0|0:0,0:0:0:0:
328,240,141045,1,4,0:0:0:0:
408,196,141281,2,0,L|414:136,1,60,4|4,0:0|0:0,0:0:0:0:
428,48,141753,1,12,0:1:0:0:
344,76,141990,1,8,0:0:0:0:
260,112,142226,6,0,P|203:129|146:114,1,120,4|8,3:1|0:0,0:0:0:0:
68,72,142934,1,4,0:0:0:0:
24,152,143171,2,0,L|18:212,1,60,4|4,0:0|0:0,0:0:0:0:
56,296,143643,1,8,0:0:0:0:
140,268,143879,1,0,0:0:0:0:
224,236,144116,6,0,B|267:230|267:230|296:239|296:239|356:231,1,120,4|8,0:0|0:0,0:0:0:0:
424,192,144824,1,4,0:0:0:0:
364,128,145060,2,0,L|304:135,1,60,4|4,0:0|0:0,0:0:0:0:
216,136,145533,1,8,0:0:0:0:
188,52,145769,1,0,0:0:0:0:
140,128,146005,6,0,P|156:184|272:188,2,180,4|0|8,3:1|0:0|0:3,0:0:0:0:
188,52,147659,1,0,0:0:0:0:
276,64,147895,6,0,L|376:52,2,90,4|8|8,3:1|0:0|0:0,0:0:0:0:
316,144,148840,2,0,L|376:137,1,60,8|8,0:0|0:3,0:0:0:0:
456,172,149312,1,8,0:0:0:0:
426,256,149549,1,4,0:0:0:0:
341,232,149785,6,0,B|296:239|296:239|267:230|267:230|224:236,1,120,4|8,3:1|0:0,0:0:0:0:
259,320,150494,1,4,0:0:0:0:
344,352,150730,2,0,L|404:345,1,60,4|4,0:0|0:0,0:0:0:0:
426,256,151202,1,8,0:0:0:0:
426,256,151675,6,0,P|415:212|427:169,2,90,4|0|4,0:0|0:0|0:0,0:0:0:0:
404,345,152619,2,0,L|303:356,2,90,4|0|8,0:0|0:0|0:0,0:0:0:0:
426,256,153564,6,0,P|408:199|423:142,1,120,4|8,0:0|0:0,0:0:0:0:
368,68,154273,2,0,B|323:75|323:75|294:66|294:66|251:72,1,120,4|4,0:0|0:0,0:0:0:0:
287,156,154982,1,8,0:0:0:0:
204,196,155218,1,8,0:0:0:0:
152,124,155454,6,0,P|108:112|65:123,2,90,4|4|4,3:1|3:1|3:1,0:0:0:0:
204,196,156399,2,0,L|198:256,1,60,4|4,3:1|0:0,0:0:0:0:
268,312,156871,1,12,3:1:0:0:
340,256,157108,1,8,0:0:0:0:
420,296,157344,6,0,L|426:236,1,60,4|4,0:0|0:0,0:0:0:0:
364,172,157816,1,8,0:0:0:0:
436,116,158053,1,4,0:0:0:0:
347,97,158289,2,0,P|298:133|292:197,1,120,4|8,0:0|0:0,0:0:0:0:
264,276,158997,1,0,0:0:0:0:
176,284,159234,6,0,B|143:298|143:298|51:286,1,120,4|8,0:0|0:0,0:0:0:0:
16,208,159942,1,4,0:0:0:0:
80,144,160179,2,0,L|140:151,1,60,4|4,0:0|0:0,0:0:0:0:
216,104,160651,1,8,0:0:0:0:
396,96,161123,6,0,L|336:89,1,60,4|4,0:0|0:0,0:0:0:0:
268,28,161596,1,8,0:0:0:0:
216,104,161832,1,4,0:0:0:0:
284,164,162068,2,0,P|231:192|164:176,1,120,4|8,0:0|0:0,0:0:0:0:
96,136,162777,1,0,0:0:0:0:
44,208,163013,6,0,B|30:241|30:241|42:333,1,120,4|8,0:0|0:0,0:0:0:0:
116,372,163722,1,4,0:0:0:0:
188,320,163958,2,0,L|181:260,1,60,4|4,0:0|0:0,0:0:0:0:
260,216,164431,1,12,0:1:0:0:
288,300,164667,1,8,0:0:0:0:
336,224,164903,6,0,P|316:165|265:140,1,120,12|8,3:1|0:0,0:0:0:0:
176,140,165612,1,4,0:0:0:0:
120,212,165848,2,0,L|127:272,1,60,4|4,0:0|0:0,0:0:0:0:
100,356,166320,1,8,0:0:0:0:
100,356,166556,1,0,0:0:0:0:
36,292,166793,6,0,B|29:247|29:247|38:218|38:218|32:175,1,120,4|8,0:0|0:0,0:0:0:0:
92,108,167501,2,0,P|136:96|208:128,1,120,4|4,0:0|0:0,0:0:0:0:
252,200,168210,2,0,L|259:260,1,60,12|0,0:1|0:0,0:0:0:0:
344,284,168682,6,0,B|358:251|358:251|346:159,1,120,4|8,3:1|0:0,0:0:0:0:
296,92,169391,1,4,0:0:0:0:
212,124,169627,2,0,L|152:131,1,60,4|4,0:0|0:0,0:0:0:0:
72,176,170100,1,8,0:0:0:0:
76,88,170336,1,0,0:0:0:0:
156,52,170572,6,0,L|216:45,1,60,4|8,3:1|0:0,0:0:0:0:
296,92,171045,2,0,L|364:120,1,60,8|8,0:0|0:0,0:0:0:0:
352,204,171517,2,0,L|384:280,1,60,8|12,0:0|0:1,0:0:0:0:
300,312,171990,2,0,L|276:380,1,60,8|8,0:0|0:0,0:0:0:0:
212,308,172462,5,4,3:1:0:0:
256,192,172698,12,2,174352,3:1:0:0:
212,308,181911,5,4,0:0:0:0:
64,204,182383,1,4,0:0:0:0:
148,44,182856,1,4,0:0:0:0:
140,224,183328,1,4,0:0:0:0:
304,144,183801,6,0,B|284:196|312:236|312:236|284:268,2,120,4|4|4,0:0|0:0|0:0,0:0:0:0:
448,36,185218,1,4,0:0:0:0:
304,144,185690,6,0,B|244:160|244:160|179:142,2,120,4|4|4,0:0|0:0|0:0,0:0:0:0:
312,324,187108,1,0,1:0:0:0:
156,236,187580,6,0,L|48:204,2,90,4|4|4,0:1|0:1|0:1,0:0:0:0:
312,324,188761,1,8,0:0:0:0:
376,260,188997,2,0,L|369:200,1,60,8|8,0:0|0:0,0:0:0:0:
424,128,189470,6,0,P|367:145|310:130,1,120,4|8,3:1|0:0,0:0:0:0:
236,76,190179,1,4,0:0:0:0:
160,124,190415,2,0,L|167:184,1,60,4|4,0:0|0:0,0:0:0:0:
100,244,190887,1,8,0:0:0:0:
148,320,191123,1,0,0:0:0:0:
60,308,191360,6,0,P|25:258|44:195,1,120,4|8,0:0|0:0,0:0:0:0:
84,128,192068,1,4,0:0:0:0:
168,160,192305,2,0,L|228:168,2,60,4|4|8,0:0|0:0|0:0,0:0:0:0:
84,128,193013,1,4,0:0:0:0:
148,64,193249,6,0,L|292:83,1,120,4|8,0:0|0:0,0:0:0:0:
328,148,193958,1,4,0:0:0:0:
416,132,194194,2,0,L|409:192,2,60,4|4|8,0:0|0:0|0:0,0:0:0:0:
356,64,194903,1,0,0:0:0:0:
267,80,195139,6,0,P|239:132|259:212,1,120,4|8,0:0|0:0,0:0:0:0:
292,268,195848,1,4,0:0:0:0:
216,316,196084,2,0,L|156:308,1,60,4|4,0:0|0:0,0:0:0:0:
76,348,196556,1,12,0:1:0:0:
8,288,196793,1,8,0:0:0:0:
68,224,197029,6,0,B|86:185|72:144|72:144|132:152,1,120,4|8,3:1|0:0,0:0:0:0:
200,132,197738,1,4,0:0:0:0:
140,64,197974,2,0,L|80:56,2,60,4|4|8,0:0|0:0|0:0,0:0:0:0:
228,44,198682,1,8,0:0:0:0:
276,121,198919,6,0,P|262:178|208:209,1,120,4|8,0:0|0:0,0:0:0:0:
132,245,199627,1,4,0:0:0:0:
188,315,199864,2,0,L|248:323,1,60,4|4,0:0|0:0,0:0:0:0:
328,364,200336,1,8,0:0:0:0:
384,296,200572,1,8,0:0:0:0:
452,236,200808,6,0,P|403:206|332:223,1,120,4|8,3:1|0:0,0:0:0:0:
268,264,201517,2,0,B|235:278|235:278|143:266,1,120,4|4,0:0|0:0,0:0:0:0:
176,180,202226,2,0,L|236:187,1,60,12|8,0:1|0:0,0:0:0:0:
196,104,202698,6,0,P|144:108|99:180,1,120,4|8,3:1|0:0,0:0:0:0:
136,336,203643,1,4,0:0:0:0:
312,304,204116,1,12,0:1:0:0:
368,132,204588,6,0,L|308:125,1,60,4|4,3:1|0:0,0:0:0:0:
236,180,205060,1,8,0:0:0:0:
164,128,205297,1,8,0:0:0:0:
168,216,205533,2,0,P|208:252|282:241,1,120,8|8,0:0|0:0,0:0:0:0:
356,212,206242,1,8,0:0:0:0:
396,132,206478,6,0,B|396:100|396:100|336:116|336:116|336:24|336:24|260:84|168:24,1,360,2|8,3:3|0:3,0:0:0:0:
40,148,208368,6,0,L|40:232,1,60,4|4,3:1|0:0,0:0:0:0:
104,268,208840,1,8,0:0:0:0:
184,232,209076,2,0,P|241:217|297:234,1,120,4|4,0:0|0:0,0:0:0:0:
376,276,209785,1,12,0:1:0:0:
372,188,210021,1,0,0:0:0:0:
456,220,210257,6,0,L|456:160,1,60,4|8,3:1|0:0,0:0:0:0:
428,76,210730,2,0,L|360:48,1,60,8|8,0:0|0:0,0:0:0:0:
300,108,211202,2,0,L|224:108,1,60,12|8,3:1|0:0,0:0:0:0:
220,196,211675,2,0,L|172:248,1,60,8|8,0:0|0:0,0:0:0:0:
180,328,212147,6,0,P|128:316|94:242,1,120,4|8,3:1|0:0,0:0:0:0:
88,172,212856,1,4,0:0:0:0:
164,128,213092,2,0,L|204:83,1,60,4|4,0:0|0:0,0:0:0:0:
296,80,213564,1,8,0:0:0:0:
416,212,214037,6,0,L|317:318,1,120,4|8,0:0|0:0,0:0:0:0:
264,356,214745,1,4,0:0:0:0:
188,308,214982,2,0,L|147:263,1,60,4|4,0:0|0:0,0:0:0:0:
172,176,215454,1,8,0:0:0:0:
348,144,215927,6,0,P|400:160|376:116,1,120,4|8,0:0|0:0,0:0:0:0:
324,56,216635,1,4,0:0:0:0:
240,92,216871,2,0,L|180:99,1,60,4|4,0:0|0:0,0:0:0:0:
128,172,217344,1,8,0:0:0:0:
284,260,217816,6,0,B|327:254|327:254|356:263|356:263|401:256,1,120,4|8,0:0|0:0,0:0:0:0:
364,176,218525,1,4,0:0:0:0:
276,168,218761,2,0,L|216:175,1,60,4|4,0:0|0:0,0:0:0:0:
164,248,219234,1,12,0:1:0:0:
44,112,219706,6,0,B|99:127|99:127|159:111,1,120,4|8,3:1|0:0,0:0:0:0:
248,88,220415,1,4,0:0:0:0:
312,152,220651,2,0,L|371:137,1,60,4|4,0:0|0:0,0:0:0:0:
440,196,221123,1,8,0:0:0:0:
260,220,221596,6,0,B|240:272|268:312|268:312|240:344,1,120,4|8,0:0|0:0,0:0:0:0:
164,348,222305,1,4,0:0:0:0:
120,268,222541,2,0,L|158:221,1,60,4|4,0:0|0:0,0:0:0:0:
208,148,223013,1,8,0:0:0:0:
372,224,223486,6,0,P|416:228|376:196,1,120,4|8,3:1|0:0,0:0:0:0:
296,168,224194,1,4,0:0:0:0:
288,256,224431,2,0,L|250:303,1,60,4|4,0:0|0:0,0:0:0:0:
164,324,224903,1,12,0:1:0:0:
132,240,225139,1,8,0:0:0:0:
44,224,225375,6,0,P|60:184|144:152,2,120,12|8|4,3:1|0:3|3:1,0:0:0:0:
200,312,226793,1,8,0:3:0:0:
356,220,227265,5,4,3:1:0:0:
256,192,227501,12,0,233171,0:0:0:0:
